osu file format v14

[General]
AudioFilename: audio.mp3
AudioLeadIn: 0
PreviewTime: 71083
Countdown: 0
SampleSet: Soft
StackLeniency: 0.7
Mode: 0
LetterboxInBreaks: 0
WidescreenStoryboard: 0

[Editor]
DistanceSpacing: 1
BeatDivisor: 4
GridSize: 4
TimelineZoom: 1

[Metadata]
Title:Seinaru Hino Inori
TitleUnicode:聖なる日の祈り
Artist:Aqours
ArtistUnicode:Aqours
Creator:Cloudchaser
Version:Kanan's Easy
Source:ラブライブ!スクールアイドルフェスティバル
Tags:Lovelive Love live school idol festival SIF Nitrous newton- my angel kanan xmas christmas ジングルベルがとまらない jingle bells ga tomaranai 伊波杏樹 逢田梨香子 諏訪ななか 小宮有紗 斉藤朱夏 小林愛香 高槻かなこ 鈴木愛奈 降幡愛 Anju Inami Rikako Aida Nanaka Suwa Arisa Komiya Shuka Saito Kanako Takatsuki Aina Suzuki Ai Furihata
BeatmapID:1451844
BeatmapSetID:683241

[Difficulty]
HPDrainRate:2
CircleSize:3
OverallDifficulty:2
ApproachRate:3
SliderMultiplier:0.8
SliderTickRate:1

[Events]
//Background and Video events
0,0,"piggy.png",0,0
//Break Periods
//Storyboard Layer 0 (Background)
//Storyboard Layer 1 (Fail)
//Storyboard Layer 2 (Pass)
//Storyboard Layer 3 (Foreground)
//Storyboard Sound Samples

[TimingPoints]
954,389.61038961039,3,2,1,40,1,0
2512,-100,3,2,2,40,0,0
3096,-100,3,2,1,40,0,0
6992,-100,3,2,2,40,0,0
7772,-100,3,2,1,40,0,0
25889,-100,3,2,2,40,0,0
26473,-100,3,2,1,40,0,0
30369,-100,3,2,2,40,0,0
31148,-100,3,2,1,40,0,0
51213,-100,3,2,1,60,0,0
56083,-100,3,2,2,60,0,0
56863,-100,3,2,1,60,0,0
60759,-100,3,2,2,60,0,0
61538,-100,3,2,1,60,0,0
65434,-100,3,2,2,60,0,0
66213,-100,3,2,1,60,0,0
71083,-100,3,2,1,60,0,1
74785,-100,3,2,2,60,0,1
75564,-100,3,2,1,60,0,1
79460,-100,3,2,2,60,0,1
80239,-100,3,2,1,60,0,1
84720,-100,3,2,1,60,0,0
85109,-100,3,2,1,60,0,1
88811,-100,3,2,2,60,0,1
89590,-100,3,2,1,60,0,1
93486,-100,3,2,2,60,0,1
94265,-100,3,2,1,60,0,1
98161,-100,3,2,2,60,0,1
98941,-100,3,2,1,60,0,1
101473,-100,3,2,1,60,0,0
102837,-100,3,2,2,60,0,0
103616,-100,3,2,1,60,0,0
107512,-100,3,2,2,60,0,0
108291,-100,3,2,1,60,0,0
110824,-100,3,2,1,30,0,0
115499,-100,3,2,1,5,0,0

[Colours]
Combo1 : 228,228,228
Combo2 : 0,206,0
Combo3 : 255,40,40
SliderTrackOverride : 206,16,16
SliderBorder : 47,130,32

[HitObjects]
124,32,953,6,0,P|200:9|277:23,1,160,8|0,0:0|0:0,0:0:0:0:
357,32,2122,1,8,0:0:0:0:
432,59,2512,2,0,L|432:150,1,80,2|2,0:0|0:0,0:0:0:0:
428,219,3291,2,0,P|349:206|272:225,1,160,8|2,0:0|0:0,0:0:0:0:
193,239,4460,2,0,L|112:238,1,80,8|2,0:0|0:0,0:0:0:0:
37,263,5239,1,2,0:0:0:0:
42,183,5629,6,0,P|29:114|41:21,1,160,8|2,0:0|0:0,0:0:0:0:
119,13,6798,1,10,0:0:0:0:
172,72,7187,2,0,L|263:72,1,80,2|2,0:0|0:0,0:0:0:0:
332,88,7966,2,0,L|422:85,1,80,12|0,0:0|0:0,0:0:0:0:
476,132,8746,2,0,L|475:181,2,40,2|0|10,0:0|0:0|0:0,0:0:0:0:
488,52,9525,1,2,0:0:0:0:
388,176,10304,6,0,P|390:231|239:217,1,240,8|10,0:0|0:0,0:0:0:0:
28,136,12642,2,0,P|26:81|177:95,1,240,10|2,0:0|0:0,0:0:0:0:
312,264,14979,5,8,0:0:0:0:
367,206,15369,2,0,P|362:150|371:110,1,80,2|2,0:0|0:0,0:0:0:0:
440,100,16148,1,10,0:0:0:0:
392,36,16538,2,0,P|357:40|304:34,1,80,2|0,0:0|0:0,0:0:0:0:
235,19,17317,2,0,P|185:13|137:22,1,80,10|0,0:0|0:0,0:0:0:0:
89,61,18096,2,0,L|85:158,1,80,2|10,0:0|0:0,0:0:0:0:
200,253,19265,1,2,2:0:0:0:
182,173,19655,6,0,P|234:166|274:172,1,80,12|0,0:0|0:0,0:0:0:0:
412,225,20824,1,8,0:0:0:0:
448,154,21213,2,0,P|438:100|439:70,1,80,0|0,0:0|0:0,0:0:0:0:
362,50,21992,2,0,P|316:55|270:48,1,80,10|2,0:0|0:0,0:0:0:0:
203,38,22772,2,0,L|203:121,1,80,2|10,0:0|0:0,0:0:0:0:
223,195,23551,2,0,L|224:248,2,40,2|2|2,2:0|2:0|2:0,2:0:0:0:
144,181,24330,6,0,P|102:177|41:182,1,80,4|2,0:0|0:0,0:0:0:0:
28,250,25109,2,0,P|35:308|31:340,1,80,2|10,0:0|0:0,0:0:0:0:
111,349,25889,2,0,L|203:349,1,80,2|2,0:0|0:0,0:0:0:0:
269,333,26668,2,0,P|271:293|265:254,1,80,8|2,0:0|0:0,0:0:0:0:
211,193,27447,2,0,P|210:146|220:93,1,80,2|10,0:0|0:0,0:0:0:0:
246,39,28226,2,0,P|287:46|332:38,1,80,0|0,0:0|0:0,0:0:0:0:
403,27,29005,6,0,P|451:19|469:113,1,160,8|2,0:0|0:0,0:0:0:0:
423,169,30174,1,10,0:0:0:0:
443,247,30564,2,0,L|442:339,1,80,2|2,0:0|0:0,0:0:0:0:
363,343,31343,2,0,P|308:340|262:344,1,80,8|0,0:0|0:0,0:0:0:0:
204,355,32122,2,0,L|147:355,2,40,0|0|2,0:0|0:0|0:0,0:0:0:0:
233,280,32902,1,10,0:0:0:0:
295,132,33681,6,0,P|183:164|100:86,1,240,6|10,0:0|0:0,0:0:0:0:
44,320,36018,2,0,P|156:288|239:366,1,240,10|10,0:0|0:0,0:0:0:0:
432,222,38356,5,10,0:0:0:0:
378,163,38746,2,0,L|281:162,1,80,2|2,0:0|0:0,0:0:0:0:
226,125,39525,2,0,L|226:29,1,80,10|2,0:0|0:0,0:0:0:0:
153,11,40304,1,2,0:0:0:0:
110,77,40694,2,0,P|50:73|25:78,1,80,10|0,0:0|0:0,0:0:0:0:
21,156,41473,1,2,0:0:0:0:
54,228,41863,1,10,0:0:0:0:
176,124,42642,1,2,0:0:0:0:
246,86,43031,6,0,P|295:82|337:86,1,80,10|2,0:0|0:0,0:0:0:0:
326,244,44200,2,0,P|280:249|242:246,1,80,10|2,0:0|0:0,0:0:0:0:
188,190,44979,1,0,0:0:0:0:
238,128,45369,2,0,P|310:108|397:131,1,160,10|2,0:0|0:0,0:0:0:0:
455,175,46538,1,10,0:0:0:0:
489,102,46928,2,0,L|490:56,2,40,2|2|2,2:0|2:0|2:0,2:0:0:0:
455,175,47707,6,0,P|449:226|454:275,1,80,8|0,0:0|0:0,0:0:0:0:
395,312,48486,1,0,0:0:0:0:
327,269,48876,2,0,P|271:266|243:268,1,80,10|0,0:0|0:0,0:0:0:0:
172,297,49655,1,2,0:0:0:0:
182,217,50044,2,0,L|178:133,1,80,10|0,0:0|0:0,0:0:0:0:
176,56,50824,1,2,0:0:0:0:
252,79,51213,2,0,P|289:86|346:80,2,80,10|2|2,0:0|0:0|0:0,0:0:0:0:
176,56,52382,6,0,P|121:49|67:61,2,80,14|2|2,0:0|0:0|0:0,0:0:0:0:
252,79,53551,2,0,P|260:124|244:169,1,80,10|0,0:0|0:0,0:0:0:0:
182,196,54330,1,2,0:0:0:0:
127,257,54720,2,0,L|128:348,2,80,10|2|2,0:0|0:0|0:0,0:0:0:0:
182,196,55889,1,10,0:0:0:0:
239,251,56278,2,0,P|283:257|339:252,1,80,2|2,0:0|0:0,0:0:0:0:
391,223,57057,6,0,P|374:169|379:97,2,120,14|2|10,0:0|0:0|0:0,0:0:0:0:
291,348,59005,1,2,0:0:0:0:
213,327,59395,2,0,L|125:326,2,80,10|2|2,0:0|0:0|0:0,0:0:0:0:
275,276,60564,1,10,0:0:0:0:
239,204,60954,2,0,P|239:157|230:115,1,80,2|2,0:0|0:0,0:0:0:0:
270,53,61733,2,0,P|348:85|428:52,1,160,14|0,0:0|0:0,0:0:0:0:
474,117,62902,5,10,0:0:0:0:
433,186,63291,2,0,P|438:228|432:269,1,80,2|2,0:0|0:0,0:0:0:0:
352,263,64070,2,0,P|348:226|357:174,1,80,10|2,0:0|0:0,0:0:0:0:
291,37,65239,1,10,0:0:0:0:
218,70,65629,2,0,L|138:69,1,80,2|2,0:0|0:0,0:0:0:0:
90,134,66408,6,0,P|95:195|87:225,2,80,14|2|2,0:0|0:0|0:0,0:0:0:0:
159,93,67577,2,0,L|243:93,2,80,10|2|10,0:0|0:0|0:0,0:0:0:0:
81,114,68746,2,0,L|30:112,2,40,10|2|2,0:0|0:0|0:0,0:0:0:0:
137,170,69525,1,2,0:0:0:0:
204,213,69915,2,0,L|300:213,1,80,10|10,0:0|0:0,0:0:0:0:
359,186,70694,1,2,0:0:0:0:
438,188,71083,6,0,P|462:269|442:349,1,160,4|0,0:0|0:0,0:0:0:0:
366,343,72252,2,0,P|310:337|270:344,2,80,10|2|2,0:0|0:0|0:0,0:0:0:0:
411,277,73421,2,0,P|459:286|523:272,1,80,6|0,0:0|0:0,0:0:0:0:
507,204,74200,1,2,0:0:0:0:
469,133,74590,2,0,L|469:46,2,80,10|2|2,0:0|0:0|0:0,0:0:0:0:
426,201,75759,6,0,L|314:199,1,80,4|0,0:0|0:0,0:0:0:0:
266,209,76538,1,2,0:0:0:0:
215,271,76928,2,0,P|137:251|40:280,1,160,10|2,0:0|0:0,0:0:0:0:
28,194,78096,2,0,P|23:159|28:97,2,80,12|2|0,0:0|0:0|0:0,0:0:0:0:
107,190,79265,1,10,0:0:0:0:
159,129,79655,1,2,0:0:0:0:
236,147,80044,1,2,0:0:0:0:
306,112,80434,6,0,P|348:107|397:115,2,80,4|2|2,0:0|0:0|0:0,0:0:0:0:
233,145,81603,2,0,L|234:238,1,80,10|2,0:0|0:0,0:0:0:0:
266,298,82382,1,0,0:0:0:0:
342,271,82772,2,0,P|392:263|435:271,2,80,14|2|2,0:0|0:0|0:0,0:0:0:0:
266,298,83941,2,0,L|180:299,1,80,2|0,0:0|0:0,0:0:0:0:
27,317,85109,6,0,P|50:248|32:158,1,160,4|2,0:0|0:0,0:0:0:0:
100,117,86278,2,0,P|178:99|262:117,1,160,2|2,0:0|0:0,0:0:0:0:
328,144,87447,2,0,P|376:150|426:146,2,80,12|0|2,0:0|0:0|0:0,0:0:0:0:
264,196,88616,1,10,0:0:0:0:
316,256,89005,1,2,0:0:0:0:
288,332,89395,1,2,0:0:0:0:
216,296,89785,6,0,P|166:289|129:294,2,80,12|0|2,0:0|0:0|0:0,0:0:0:0:
288,332,90954,2,0,P|369:345|460:332,1,160,10|2,0:0|0:0,0:0:0:0:
474,263,92122,2,0,L|474:173,2,80,12|2|2,0:0|0:0|0:0,0:0:0:0:
444,336,93291,1,10,0:0:0:0:
368,312,93681,1,2,0:0:0:0:
288,328,94070,1,2,0:0:0:0:
212,300,94460,6,0,P|161:304|115:297,2,80,12|2|2,0:0|0:0|0:0,0:0:0:0:
248,228,95629,2,0,P|226:151|246:69,1,160,10|2,0:0|0:0,0:0:0:0:
314,38,96798,2,0,P|353:34|393:37,2,80,12|0|8,0:0|0:0|0:0,0:0:0:0:
243,75,97966,2,0,P|194:82|152:76,2,80,0|2|2,0:0|0:0|0:0,0:0:0:0:
308,121,99135,1,0,0:0:0:0:
346,190,99525,6,0,B|359:268|359:268|339:356,2,160,2|2|0,0:0|0:0|0:0,0:0:0:0:
266,180,101473,6,0,P|186:198|103:176,1,160,2|0,0:0|0:0,0:0:0:0:
47,131,102642,1,10,0:0:0:0:
115,89,103031,2,0,L|114:-9,1,80,2|0,0:0|0:0,0:0:0:0:
194,15,103811,2,0,P|244:8|291:13,1,80,10|0,0:0|0:0,0:0:0:0:
326,69,104590,1,0,0:0:0:0:
375,131,104979,2,0,P|374:189|373:225,1,80,10|2,0:0|0:0,0:0:0:0:
396,287,105759,1,2,0:0:0:0:
322,321,106148,6,0,P|246:303|161:321,1,160,14|2,0:0|0:0,0:0:0:0:
92,348,107317,1,10,0:0:0:0:
39,287,107707,2,0,L|39:193,1,80,2|2,0:0|0:0,0:0:0:0:
71,133,108486,2,0,B|150:151|150:151|306:99,1,240,12|2,0:0|0:0,0:0:0:0:
357,46,110044,1,10,0:0:0:0:
256,192,110824,12,2,115499,0:0:0:0:
