osu file format v14

[General]
AudioFilename: audio.mp3
AudioLeadIn: 0
PreviewTime: 71083
Countdown: 0
SampleSet: Soft
StackLeniency: 0.7
Mode: 0
LetterboxInBreaks: 0
WidescreenStoryboard: 0

[Editor]
DistanceSpacing: 1.3
BeatDivisor: 4
GridSize: 4
TimelineZoom: 1

[Metadata]
Title:Seinaru Hino Inori
TitleUnicode:聖なる日の祈り
Artist:Aqours
ArtistUnicode:Aqours
Creator:Cloudchaser
Version:Holy Night
Source:ラブライブ!スクールアイドルフェスティバル
Tags:Lovelive Love live school idol festival SIF Nitrous newton- my angel kanan xmas christmas ジングルベルがとまらない jingle bells ga tomaranai 伊波杏樹 逢田梨香子 諏訪ななか 小宮有紗 斉藤朱夏 小林愛香 高槻かなこ 鈴木愛奈 降幡愛 Anju Inami Rikako Aida Nanaka Suwa Arisa Komiya Shuka Saito Kanako Takatsuki Aina Suzuki Ai Furihata
BeatmapID:1444939
BeatmapSetID:683241

[Difficulty]
HPDrainRate:6
CircleSize:4
OverallDifficulty:6
ApproachRate:7
SliderMultiplier:1.2
SliderTickRate:1

[Events]
//Background and Video events
0,0,"piggy.png",0,0
//Break Periods
//Storyboard Layer 0 (Background)
//Storyboard Layer 1 (Fail)
//Storyboard Layer 2 (Pass)
//Storyboard Layer 3 (Foreground)
//Storyboard Sound Samples

[TimingPoints]
954,389.61038961039,3,2,1,40,1,0
2512,-100,3,2,2,40,0,0
3291,-100,3,2,1,40,0,0
7187,-100,3,2,2,40,0,0
7772,-100,3,2,1,40,0,0
25889,-100,3,2,2,40,0,0
26668,-100,3,2,1,40,0,0
30564,-100,3,2,2,40,0,0
31343,-100,3,2,1,40,0,0
51213,-100,3,2,1,60,0,0
56278,-100,3,2,2,60,0,0
56863,-100,3,2,1,60,0,0
60759,-100,3,2,2,60,0,0
61538,-100,3,2,1,60,0,0
65629,-100,3,2,2,60,0,0
66213,-100,3,2,1,60,0,0
69038,-100,3,2,2,60,0,0
69720,-100,3,2,1,60,0,0
71083,-100,3,2,1,60,0,1
74979,-100,3,2,2,60,0,1
75759,-100,3,2,1,60,0,1
79460,-100,3,2,2,60,0,1
80239,-100,3,2,1,60,0,1
84330,-100,3,2,1,60,0,1
84720,-100,3,2,1,60,0,0
85109,-100,3,2,1,60,0,1
88811,-100,3,2,2,60,0,1
89590,-100,3,2,1,60,0,1
93486,-100,3,2,2,60,0,1
94265,-100,3,2,1,60,0,1
98161,-100,3,2,2,60,0,1
98941,-100,3,2,1,60,0,1
99525,-100,3,2,1,30,0,1
101278,-100,3,2,1,30,0,1
101473,-100,3,2,1,60,0,0
104979,-100,3,2,1,5,0,0
106148,-100,3,2,1,60,0,0
107707,-100,3,2,2,60,0,0
108291,-100,3,2,1,60,0,0
110921,-100,3,2,1,40,0,0
114330,-100,3,2,1,20,0,0
115499,-100,3,2,1,5,0,0

[Colours]
Combo1 : 228,228,228
Combo2 : 0,206,0
Combo3 : 255,40,40
SliderTrackOverride : 206,16,16
SliderBorder : 47,130,32

[HitObjects]
64,232,953,6,0,P|132:280|192:256,1,120,8|2,0:0|0:0,0:0:0:0:
136,200,1538,1,0,0:0:0:0:
124,124,1733,1,2,0:0:0:0:
368,192,2122,1,8,0:0:0:0:
368,192,2512,6,0,B|360:240|360:240|372:264|372:264|352:340,1,120,2|2,0:0|0:0,0:0:0:0:
64,120,3291,6,0,P|140:104|192:108,1,120,8|0,0:0|0:0,0:0:0:0:
256,128,3876,1,2,0:0:0:0:
332,152,4070,2,0,P|368:160|420:140,1,60,2|2,0:0|0:0,0:0:0:0:
468,136,4460,2,0,P|452:72|484:20,2,120,8|2|2,0:0|0:0|0:0,0:0:0:0:
316,292,5629,6,0,B|256:272|256:324|156:280,1,120,8|2,0:0|0:0,0:0:0:0:
144,240,6213,1,2,0:0:0:0:
120,168,6408,2,0,P|148:164|179:171,1,60,2|0,0:0|0:0,0:0:0:0:
116,316,6798,1,10,0:0:0:0:
344,256,7187,5,2,0:0:0:0:
216,60,7577,1,2,0:0:0:0:
216,60,7966,6,0,B|164:88|132:32|132:32|88:32|64:72,1,180,12|2,0:0|0:0,0:0:0:0:
76,148,8746,2,0,P|108:208|120:248,1,60,2|0,0:0|0:0,0:0:0:0:
80,276,9135,1,10,0:0:0:0:
308,328,9525,1,2,0:0:0:0:
308,328,10304,6,0,B|288:280|312:240|312:240|336:196|292:132,1,180,8|0,0:0|0:0,0:0:0:0:
260,92,11083,1,2,0:0:0:0:
80,144,11473,2,0,P|176:172|128:284,1,240,10|0,0:0|0:0,0:0:0:0:
139,280,12642,6,0,L|336:268,1,180,10|0,0:0|0:0,0:0:0:0:
396,264,13421,1,2,0:0:0:0:
336,120,13811,1,2,0:0:0:0:
108,288,14979,6,0,B|140:288|152:272|152:272|168:284|168:284|192:264|248:268,1,120,8|2,0:0|0:0,0:0:0:0:
292,288,15564,1,2,0:0:0:0:
344,228,15759,2,0,P|364:160|360:128,1,60,2|0,0:0|0:0,0:0:0:0:
264,52,16148,2,0,L|268:180,1,120,10|2,0:0|0:0,0:0:0:0:
84,316,17122,1,2,0:0:0:0:
84,316,17317,6,0,L|80:188,1,120,10|0,0:0|0:0,0:0:0:0:
140,156,17902,1,2,0:0:0:0:
140,156,18096,2,0,L|128:72,1,60,2|0,0:0|0:0,0:0:0:0:
256,28,18486,1,2,0:0:0:0:
324,184,19265,2,0,L|312:256,1,60,2|2,2:0|2:0,0:0:0:0:
256,300,19655,6,0,B|232:264|232:264|248:160,1,120,12|0,0:0|0:0,0:0:0:0:
36,84,20434,1,0,0:0:0:0:
36,84,20824,2,0,B|60:120|60:120|44:224,1,120,8|0,0:0|0:0,0:0:0:0:
108,340,21603,2,0,P|164:348|196:340,1,60
244,328,21992,6,0,P|316:304|376:304,1,120,10|2,0:0|0:0,0:0:0:0:
436,324,22577,1,0,0:0:0:0:
436,324,22772,2,0,L|428:224,1,60,2|2,0:0|0:0,0:0:0:0:
332,196,23161,1,10,0:0:0:0:
332,196,23551,6,0,L|232:224,1,60,2|2,2:0|2:0,2:0:0:0:
212,164,23941,2,0,L|128:196,1,60,2|2,2:0|2:0,2:0:0:0:
80,320,24330,6,0,P|124:360|200:312,1,120,4|2,0:0|0:0,0:0:0:0:
224,284,24915,1,0,0:0:0:0:
300,284,25109,2,0,P|369:281|384:290,1,60,2|2,0:0|0:0,0:0:0:0:
436,264,25499,2,0,L|444:156,1,60,10|0,0:0|0:0,0:0:0:0:
388,140,25889,5,2,0:0:0:0:
256,332,26278,1,2,0:0:0:0:
156,120,26668,6,0,B|116:156|60:124|60:124|56:164|44:192,1,120,8|2,0:0|0:0,0:0:0:0:
80,216,27252,1,0,0:0:0:0:
80,216,27447,2,0,P|68:292|60:312,1,60,2|2,0:0|0:0,0:0:0:0:
16,328,27837,2,0,P|96:312|144:332,1,120,10|0,0:0|0:0,0:0:0:0:
256,228,28616,1,0,0:0:0:0:
256,228,29005,6,0,P|336:244|384:224,1,120,8|2,0:0|0:0,0:0:0:0:
420,172,29590,1,2,0:0:0:0:
388,100,29785,2,0,P|352:136|344:160,1,60,2|0,0:0|0:0,0:0:0:0:
460,252,30174,1,10,0:0:0:0:
232,192,30564,5,2,0:0:0:0:
396,356,30954,1,2,0:0:0:0:
400,136,31343,6,0,B|308:136|324:80|204:80,1,180,6|2,0:0|0:0,0:0:0:0:
156,68,32122,2,0,P|156:40|164:-12,1,60,2|0,0:0|0:0,0:0:0:0:
80,96,32512,5,2,0:0:0:0:
80,96,32902,6,0,B|92:164|92:164|76:212|76:212|92:284,1,180,10|0,0:0|0:0,0:0:0:0:
120,344,33681,6,0,P|184:352|248:268,1,180,6|0,0:0|0:0,0:0:0:0:
272,192,34460,2,0,P|312:168|336:160,1,60,2|0,0:0|0:0,0:0:0:0:
404,168,34850,2,0,B|448:220|420:308,1,120,10|0,0:0|0:0,0:0:0:0:
284,344,35629,1,0,0:0:0:0:
144,156,36018,6,0,B|204:128|204:184|288:136,1,120,10|0,0:0|0:0,0:0:0:0:
132,64,36798,2,0,P|104:80|32:80,1,60,2|0,0:0|0:0,0:0:0:0:
12,128,37187,2,0,P|36:204|32:292,1,120,10|0,0:0|0:0,0:0:0:0:
232,276,38356,6,0,L|364:272,1,120,10|2,0:0|0:0,0:0:0:0:
428,296,38941,1,2,0:0:0:0:
428,296,39135,2,0,P|448:228|448:208,1,60,2|0,0:0|0:0,0:0:0:0:
412,168,39525,1,10,0:0:0:0:
256,150,39915,2,0,P|268:80|312:60,1,120,2|2,0:0|0:0,0:0:0:0:
376,156,40499,1,0,0:0:0:0:
376,156,40694,6,0,L|200:148,1,120,10|0,0:0|0:0,0:0:0:0:
192,104,41278,1,2,0:0:0:0:
192,104,41473,2,0,P|108:120|84:172,1,120,2|10,0:0|0:0,0:0:0:0:
136,300,42252,1,0,0:0:0:0:
136,300,42642,2,0,L|216:312,1,60,2|2,0:0|0:0,0:0:0:0:
344,260,43031,6,0,B|324:200|372:200|328:96,1,120,10|2,0:0|0:0,0:0:0:0:
288,88,43616,1,2,0:0:0:0:
216,120,43811,2,0,P|152:136|104:136,1,60,2|0,0:0|0:0,0:0:0:0:
80,132,44200,2,0,B|80:180|116:204|116:204|88:232|88:276,1,120,10|2,0:0|0:0,0:0:0:0:
68,308,44785,1,0,0:0:0:0:
68,308,44979,2,0,P|128:348|172:356,1,60,0|2,0:0|0:0,0:0:0:0:
192,324,45369,6,0,B|256:304|256:352|332:316,1,120,10|0,0:0|0:0,0:0:0:0:
360,264,45954,1,2,0:0:0:0:
392,336,46148,1,2,0:0:0:0:
392,336,46343,1,0,0:0:0:0:
444,192,46538,1,10,0:0:0:0:
444,192,46928,6,0,P|416:128|416:100,1,60,2|2,2:0|2:0,2:0:0:0:
340,136,47317,2,0,P|340:76|344:56,1,60,2|2,2:0|2:0,2:0:0:0:
288,20,47707,6,0,L|140:44,2,120,8|0|0,0:0|0:0|0:0,0:0:0:0:
260,172,48876,2,0,P|328:160|384:224,1,120,10|0,0:0|0:0,0:0:0:0:
304,236,49460,1,2,0:0:0:0:
304,316,49655,2,0,P|271:308|246:290,1,60,2|0,0:0|0:0,0:0:0:0:
176,172,50044,6,0,P|208:112|268:84,1,120,10|0,0:0|0:0,0:0:0:0:
332,88,50629,1,2,0:0:0:0:
332,88,50824,2,0,L|340:0,1,60,2|0,0:0|0:0,0:0:0:0:
416,28,51213,2,0,L|400:172,1,120,10|2,0:0|0:0,0:0:0:0:
256,328,51992,2,0,L|248:216,1,60,2|0,0:0|0:0,0:0:0:0:
204,204,52382,6,0,P|88:196|56:224,1,120,14|2,0:0|0:0,0:0:0:0:
64,268,52966,1,0,0:0:0:0:
64,268,53161,2,0,L|76:340,1,60,2|0,0:0|0:0,0:0:0:0:
144,360,53551,2,0,B|204:332|204:372|272:344,1,120,10|0,0:0|0:0,0:0:0:0:
228,276,54135,1,2,0:0:0:0:
228,276,54330,2,0,P|188:196|188:180,1,60,2|0,0:0|0:0,0:0:0:0:
228,72,54720,6,0,B|284:56|284:56|352:68,1,120,10|2,0:0|0:0,0:0:0:0:
480,140,55499,2,0,P|452:180|444:204,1,60,2|2,0:0|0:0,0:0:0:0:
396,248,55889,2,0,L|420:380,2,120,10|2|2,0:0|0:0|0:0,0:0:0:0:
252,196,57057,6,0,P|184:176|136:120,1,120,14|0,0:0|0:0,0:0:0:0:
72,132,57642,1,2,0:0:0:0:
72,132,57837,2,0,L|76:224,1,60,2|0,0:0|0:0,0:0:0:0:
128,248,58226,2,0,P|144:328|184:376,1,120,10|0,0:0|0:0,0:0:0:0:
391,249,59005,2,0,P|383:302|364:326,1,60,2|2,0:0|0:0,0:0:0:0:
312,264,59395,6,0,B|304:220|304:220|316:192|316:192|300:104,1,120,10|2,0:0|0:0,0:0:0:0:
184,52,60174,2,0,B|192:96|192:96|180:124|180:124|196:212,1,120,2|10,0:0|0:0,0:0:0:0:
116,308,60954,2,0,L|44:324,2,60,2|0|2,0:0|0:0|0:0,0:0:0:0:
268,276,61733,6,0,P|340:192|384:200,1,120,14|2,0:0|0:0,0:0:0:0:
484,244,62512,1,0,0:0:0:0:
452,92,62902,1,10,0:0:0:0:
232,124,63291,2,0,B|136:132|136:132|148:88,1,120,2|2,0:0|0:0,0:0:0:0:
184,44,63876,1,0,0:0:0:0:
256,68,64070,6,0,L|252:204,1,120,10|2,0:0|0:0,0:0:0:0:
372,288,64850,1,0,0:0:0:0:
420,140,65239,2,0,P|372:84|316:84,1,120,10|2,0:0|0:0,0:0:0:0:
252,187,66018,2,0,L|164:195,1,60,2|0,0:0|0:0,0:0:0:0:
116,172,66408,6,0,B|108:132|108:132|116:100|116:100|104:16,1,120,14|2,0:0|0:0,0:0:0:0:
40,88,66992,1,2,0:0:0:0:
188,136,67187,2,0,L|256:128,1,60,2|0,0:0|0:0,0:0:0:0:
304,76,67577,2,0,L|372:68,1,60,10|2,0:0|0:0,0:0:0:0:
436,100,67966,2,0,B|416:160|456:160|432:252,1,120,2|10,0:0|0:0,0:0:0:0:
312,308,68746,6,0,P|244:332|224:332,1,60,10|2,0:0|0:0,0:0:0:0:
204,272,69135,2,0,P|156:280|120:280,2,60,2|0|2,0:0|0:0|0:0,0:0:0:0:
340,192,69915,2,0,P|324:80|332:40,1,120,10|10,0:0|0:0,0:0:0:0:
480,104,70694,1,2,0:0:0:0:
160,196,71083,6,0,B|179:146|219:156|244:121|239:81|199:51|160:89|160:89|120:51|80:81|75:121|102:149|131:154,1,360,4|10,0:0|0:0,0:0:0:0:
224,280,72642,2,0,P|280:240|296:236,1,60,2|0,0:0|0:0,0:0:0:0:
348,260,73031,2,0,P|373:244|394:223,1,60,2|0,0:0|0:0,0:0:0:0:
416,148,73421,6,0,B|368:92|404:28|404:28|380:40|340:32,1,180,6|2,0:0|0:0,0:0:0:0:
264,60,74200,2,0,P|252:20|248:0,1,60,2|0,0:0|0:0,0:0:0:0:
120,120,74590,2,0,L|112:264,1,120,10|2,0:0|0:0,0:0:0:0:
160,300,75174,1,0,0:0:0:0:
160,300,75369,2,0,P|232:276|248:280,1,60,2|0,0:0|0:0,0:0:0:0:
320,324,75759,6,0,P|400:356|388:252,1,180,4|0,0:0|0:0,0:0:0:0:
380,224,76538,2,0,L|388:128,2,60,2|0|10,0:0|0:0|0:0,0:0:0:0:
220,116,77317,2,0,B|226:161|226:161|218:193|218:193|226:233,1,120,2|2,0:0|0:0,0:0:0:0:
72,236,78096,5,12,0:0:0:0:
72,236,78486,2,0,P|32:308|56:368,2,120,2|0|10,0:0|0:0|0:0,0:0:0:0:
188,340,79655,1,2,0:0:0:0:
200,184,80044,1,2,0:0:0:0:
316,288,80434,6,0,P|404:256|468:244,1,120,4|2,0:0|0:0,0:0:0:0:
480,192,81018,1,0,0:0:0:0:
480,192,81213,2,0,P|488:156|472:88,1,60,2|0,0:0|0:0,0:0:0:0:
408,132,81603,2,0,P|388:68|404:12,1,120,10|2,0:0|0:0,0:0:0:0:
260,64,82382,2,0,P|280:128|276:160,1,60,0|2,0:0|0:0,0:0:0:0:
256,196,82772,6,0,B|204:224|204:224|100:208,1,120,14|2,0:0|0:0,0:0:0:0:
84,72,83551,1,2,0:0:0:0:
143,214,83941,2,0,P|80:228|20:216,1,120,2|0,0:0|0:0,0:0:0:0:
212,48,84720,2,0,P|276:28|292:32,1,60,2|0,0:0|0:0,0:0:0:0:
269,109,85109,6,0,B|240:157|254:202|228:282|338:294|348:213|317:147|263:162|279:251|178:272|129:198,1,360,4|10,0:0|0:0,0:0:0:0:
20,112,86668,1,2,0:0:0:0:
160,48,87057,1,2,0:0:0:0:
140,212,87447,6,0,P|183:285|165:339,1,120,12|0,0:0|0:0,0:0:0:0:
100,284,88031,1,2,0:0:0:0:
56,220,88226,2,0,P|52:184|60:148,1,60,2|0,0:0|0:0,0:0:0:0:
184,72,88616,1,10,0:0:0:0:
384,192,89005,1,2,0:0:0:0:
128,192,89395,1,2,0:0:0:0:
328,72,89785,6,0,B|308:132|348:132|316:216,1,120,12|0,0:0|0:0,0:0:0:0:
252,160,90369,1,0,0:0:0:0:
196,104,90564,2,0,P|168:60|164:48,1,60,2|2,0:0|0:0,0:0:0:0:
88,24,90954,2,0,L|100:176,1,120,10|2,0:0|0:0,0:0:0:0:
164,192,91538,1,2,0:0:0:0:
140,272,91733,2,0,L|64:280,1,60,2|0,0:0|0:0,0:0:0:0:
224,328,92122,6,0,B|284:316|288:348|364:320,1,120,12|2,0:0|0:0,0:0:0:0:
404,280,92707,1,0,0:0:0:0:
368,212,92902,2,0,L|360:136,1,60,2|0,0:0|0:0,0:0:0:0:
256,36,93291,2,0,L|240:164,1,120,10|2,0:0|0:0,0:0:0:0:
172,192,93876,1,0,0:0:0:0:
144,120,94070,1,2,0:0:0:0:
100,268,94460,6,0,P|184:292|252:256,1,120,12|2,0:0|0:0,0:0:0:0:
324,256,95044,1,0,0:0:0:0:
324,256,95239,2,0,L|328:336,1,60,2|0,0:0|0:0,0:0:0:0:
256,216,95629,2,0,L|260:112,1,60,10|0,0:0|0:0,0:0:0:0:
224,88,96018,2,0,B|164:76|164:112|72:80,1,120,2|2,0:0|0:0,0:0:0:0:
44,136,96603,1,2,0:0:0:0:
148,240,96798,6,0,B|160:280|140:344|140:344|220:292|256:353|256:353|292:292|372:344|372:344|352:280|364:240,1,480,12|2,0:0|0:0,0:0:0:0:
492,192,98746,1,2,0:0:0:0:
396,68,99135,5,0,0:0:0:0:
228,104,99525,2,0,B|168:136|168:80|80:120,2,120,2|2|2,0:0|0:0|0:0,0:0:0:0:
372,44,100694,1,2,0:0:0:0:
372,276,101278,1,2,0:0:0:0:
372,276,101473,5,2,0:0:0:0:
256,192,101570,12,0,104979,0:0:0:0:
48,240,106148,6,0,B|88:172|160:188|160:188|136:260|180:264,1,180,14|2,0:0|0:0,0:0:0:0:
176,308,106928,2,0,P|224:336|248:344,1,60,2|0,0:0|0:0,0:0:0:0:
300,312,107317,2,0,L|316:160,2,120,10|2|2,0:0|0:0|0:0,0:0:0:0:
212,184,108486,6,0,P|172:100|112:152,1,180,12|2,0:0|0:0,0:0:0:0:
72,196,109265,1,2,0:0:0:0:
80,272,109460,1,0,0:0:0:0:
140,320,109655,1,2,0:0:0:0:
288,268,110044,6,0,B|228:148|344:148|256:16,1,240,10|2,0:0|0:0,0:0:0:0:
256,192,110921,12,0,115499,0:0:0:0:
