osu file format v14

[General]
AudioFilename: audio.mp3
AudioLeadIn: 0
PreviewTime: -1
Countdown: 0
SampleSet: None
StackLeniency: 0.7
Mode: 0
LetterboxInBreaks: 0
WidescreenStoryboard: 0

[Editor]
DistanceSpacing: 0.5
BeatDivisor: 4
GridSize: 16
TimelineZoom: 2.1

[Metadata]
Title:SKY JOURNEY
TitleUnicode:SKY JOURNEY
Artist:Aqours
ArtistUnicode:Aqours
Creator:_Meep_
Version:meep
Source:
Tags:
BeatmapID:1249791
BeatmapSetID:590527

[Difficulty]
HPDrainRate:7
CircleSize:3.8
OverallDifficulty:8
ApproachRate:9.2
SliderMultiplier:1.6
SliderTickRate:1

[Events]
//Background and Video events
0,0,"58155597_p0.jpg",0,0
//Break Periods
//Storyboard Layer 0 (Background)
//Storyboard Layer 1 (Fail)
//Storyboard Layer 2 (Pass)
//Storyboard Layer 3 (Foreground)
//Storyboard Sound Samples

[TimingPoints]
86,379.746835443038,4,2,0,75,1,0
5972,-100,4,2,0,5,0,0
6161,-142.857142857143,4,2,0,55,0,0
9010,-142.857142857143,4,2,0,5,0,0
9199,-142.857142857143,4,2,0,55,0,0
12142,-142.857142857143,4,2,0,5,0,0
12237,-142.857142857143,4,2,0,55,0,0
17934,-66.6666666666667,4,2,0,55,0,0
18313,-83.3333333333333,4,2,0,75,0,1
30465,-100,4,2,0,75,0,0
66921,-66.6666666666667,4,2,0,75,0,1
78978,-66.6666666666667,4,2,0,75,0,0
79073,-66.6666666666667,4,2,0,75,0,1
85149,-83.3333333333333,4,2,0,75,0,0
91225,-83.3333333333333,4,2,0,55,0,0
92744,-83.3333333333333,4,2,0,45,0,0
93123,-83.3333333333333,4,2,0,35,0,0
93503,-83.3333333333333,4,2,0,25,0,0
93883,-83.3333333333333,4,2,0,15,0,0
94263,-83.3333333333333,4,2,0,5,0,0

[Colours]
Combo1 : 255,0,0
Combo2 : 142,199,255
Combo3 : 0,107,238
Combo4 : 247,104,125

[HitObjects]
256,192,2554,12,0,5972,0:0:0:0:
76,204,6161,5,0,0:0:0:0:
76,204,6731,2,0,L|246:190,1,167.999994873047
431,162,7680,5,0,0:0:0:0:
431,162,8250,2,0,P|383:188|371:59,1,251.999992309571
379,123,9199,5,0,0:0:0:0:
174,223,9769,2,0,B|70:192|70:192|3:220,1,167.999994873047
288,323,10718,5,0,0:0:0:0:
299,331,11288,2,0,B|306:250|306:250|288:222|288:222|265:247|265:247|229:254|183:248|156:200,1,251.999992309571
240,146,12237,5,0,0:0:0:0:
460,87,12807,2,0,P|409:71|310:123,1,167.999994873047
311,120,13756,5,0,0:0:0:0:
182,182,14326,1,0,0:0:0:0:
93,361,14896,1,0,0:0:0:0:
93,361,15275,6,0,B|85:334|85:334|84:302|94:280|94:280|80:263|78:241|78:241|51:266|51:292,1,167.999994873047
161,229,16035,1,0,0:0:0:0:
417,335,16604,5,0,0:0:0:0:
384,267,16699,1,0,0:0:0:0:
461,274,16794,5,0,0:0:0:0:
115,192,17364,1,0,0:0:0:0:
410,124,17744,1,0,0:0:0:0:
234,120,17934,6,0,B|271:123|271:123|276:120|276:120|293:121|293:121|298:119|298:119|316:120|316:120|322:118|322:118|360:119|360:119|392:131|417:121,1,180.000006866455
457,31,18313,6,0,L|442:240,1,191.999994140625
288,330,18883,1,0,0:0:0:0:
267,286,18978,1,0,0:0:0:0:
275,238,19073,1,0,0:0:0:0:
190,344,19263,1,0,0:0:0:0:
149,227,19453,2,0,P|146:175|170:124,1,95.9999970703126
357,83,19832,6,0,L|300:113,1,47.9999985351563
247,196,20022,1,0,0:0:0:0:
249,223,20116,1,0,0:0:0:0:
241,250,20211,1,0,0:0:0:0:
256,295,20306,1,0,0:0:0:0:
300,311,20402,2,0,P|344:280|451:293,1,143.999995605469
455,301,20782,2,0,L|459:233,1,47.9999985351563
374,63,20972,5,0,0:0:0:0:
374,80,21066,1,0,0:0:0:0:
375,97,21161,1,0,0:0:0:0:
375,114,21256,1,0,0:0:0:0:
349,147,21351,6,0,L|219:136,1,95.9999970703126
99,213,21731,2,0,P|156:219|209:197,1,95.9999970703126
232,181,22016,1,0,0:0:0:0:
253,138,22111,1,0,0:0:0:0:
312,254,22301,1,0,0:0:0:0:
140,117,22491,1,0,0:0:0:0:
99,213,22680,1,0,0:0:0:0:
213,45,22870,5,0,0:0:0:0:
366,147,23060,2,0,P|418:155|488:137,1,95.9999970703126
317,25,23440,1,0,0:0:0:0:
305,40,23535,1,0,0:0:0:0:
298,54,23630,2,0,L|281:125,1,47.9999985351563
309,233,23820,1,0,0:0:0:0:
318,280,23915,1,0,0:0:0:0:
307,326,24010,1,0,0:0:0:0:
181,185,24199,5,0,0:0:0:0:
58,209,24389,2,0,P|62:161|79:116,1,95.9999970703126
99,286,24769,2,0,P|142:305|189:313,1,95.9999970703126
277,277,25054,1,0,3:0:0:0:
277,277,25149,2,0,L|256:213,1,47.9999985351563,0|0,3:0|3:0,3:0:0:0:
174,189,25339,1,0,0:0:0:0:
264,355,25529,2,0,P|307:374|354:382,1,95.9999970703126
448,329,25813,1,0,0:0:0:0:
448,329,25908,6,0,L|431:223,1,95.9999970703126
338,84,26288,1,0,0:0:0:0:
217,169,26478,1,0,0:0:0:0:
194,176,26572,1,0,0:0:0:0:
170,177,26667,1,0,0:0:0:0:
147,170,26762,1,0,0:0:0:0:
128,156,26858,2,0,L|123:228,1,47.9999985351563
207,312,27048,2,0,L|218:136,1,143.999995605469
228,140,27427,6,0,B|273:120|273:120|407:174,1,191.999994140625
290,304,27997,1,0,0:0:0:0:
290,304,28092,1,0,0:0:0:0:
290,304,28187,2,0,P|271:228|285:178,2,95.9999970703126
377,238,28756,1,0,0:0:0:0:
377,238,28851,1,0,0:0:0:0:
377,238,28946,5,0,0:0:0:0:
136,140,29326,1,0,0:0:0:0:
160,262,29516,1,0,0:0:0:0:
143,285,29896,5,0,0:0:0:0:
109,118,30086,1,0,0:0:0:0:
404,309,30465,5,0,0:0:0:0:
404,309,30845,2,0,L|417:201,1,80
376,111,31225,2,0,P|333:90|276:87,1,80
281,88,31510,1,0,0:0:0:0:
264,98,31604,1,0,0:0:0:0:
194,189,31794,1,0,0:0:0:0:
79,83,31984,6,0,L|-35:74,1,80
98,175,32364,1,0,0:0:0:0:
199,101,32554,1,0,0:0:0:0:
218,97,32649,1,0,0:0:0:0:
238,97,32744,1,0,0:0:0:0:
256,104,32839,1,0,0:0:0:0:
272,115,32933,1,0,0:0:0:0:
308,267,33123,1,0,0:0:0:0:
346,175,33313,1,0,0:0:0:0:
232,320,33503,6,0,L|49:297,1,160
2,175,34073,1,0,0:0:0:0:
2,175,34168,1,0,0:0:0:0:
2,175,34263,2,0,P|1:121|18:86,1,80
101,147,34642,1,0,0:0:0:0:
26,249,34832,1,0,0:0:0:0:
178,192,35022,6,0,L|288:169,1,80
229,280,35402,1,0,0:0:0:0:
90,210,35592,1,0,0:0:0:0:
87,190,35687,1,0,0:0:0:0:
90,170,35782,1,0,0:0:0:0:
98,151,35877,1,0,0:0:0:0:
112,136,35972,1,0,0:0:0:0:
286,76,36161,1,0,0:0:0:0:
256,175,36351,1,0,0:0:0:0:
148,53,36541,6,0,L|32:60,1,80
0,193,36921,1,0,0:0:0:0:
112,136,37111,1,0,0:0:0:0:
207,232,37301,2,0,P|220:274|211:326,1,80
210,328,37586,1,0,0:0:0:0:
196,342,37680,1,0,0:0:0:0:
306,273,37870,1,0,0:0:0:0:
410,252,38060,6,0,P|462:265|490:287,1,80
498,293,38345,1,0,0:0:0:0:
510,308,38440,1,0,0:0:0:0:
374,349,38630,1,0,0:0:0:0:
306,273,38820,1,0,0:0:0:0:
311,253,38915,1,0,0:0:0:0:
315,233,39010,1,0,0:0:0:0:
319,213,39104,1,0,0:0:0:0:
324,193,39199,1,0,0:0:0:0:
292,94,39389,1,0,0:0:0:0:
184,189,39579,6,0,L|74:207,1,80
220,114,39959,1,0,0:0:0:0:
197,24,40149,1,0,0:0:0:0:
293,160,40339,2,0,L|396:168,1,80
392,162,40623,1,0,0:0:0:0:
410,153,40718,1,0,0:0:0:0:
422,137,40813,1,0,0:0:0:0:
434,121,40908,1,0,0:0:0:0:
203,88,41098,6,0,P|198:144|209:255,1,160
366,334,41668,1,0,0:0:0:0:
366,334,41763,1,0,0:0:0:0:
366,334,41858,2,0,L|431:316,1,40
254,303,42048,1,0,0:0:0:0:
462,242,42237,1,0,0:0:0:0:
323,158,42427,1,0,0:0:0:0:
297,379,42617,5,0,0:0:0:0:
86,195,42997,2,0,L|100:99,1,80
248,95,43377,1,0,0:0:0:0:
169,211,43567,1,0,0:0:0:0:
118,34,43756,1,0,0:0:0:0:
246,179,43946,1,0,0:0:0:0:
264,187,44041,1,0,0:0:0:0:
282,194,44136,6,0,L|395:183,1,80
273,97,44516,1,0,0:0:0:0:
201,256,44706,2,0,P|198:326|211:360,1,80
314,293,45086,1,0,0:0:0:0:
101,264,45275,2,0,L|5:250,1,80
200,334,45655,6,0,L|379:307,1,160
416,214,46225,1,0,0:0:0:0:
416,214,46320,1,0,0:0:0:0:
415,213,46414,2,0,P|376:201|337:201,1,80
482,306,46793,1,0,0:0:0:0:
504,146,46984,1,0,0:0:0:0:
358,310,47174,6,0,L|249:299,1,80
151,216,47554,1,0,0:0:0:0:
264,82,47744,1,0,0:0:0:0:
271,100,47839,1,0,0:0:0:0:
274,119,47934,1,0,0:0:0:0:
272,138,48029,1,0,0:0:0:0:
266,156,48123,1,0,0:0:0:0:
151,216,48313,1,0,0:0:0:0:
168,97,48503,1,0,0:0:0:0:
253,283,48693,5,0,0:0:0:0:
271,303,49073,2,0,L|278:195,1,80
285,205,49358,1,0,0:0:0:0:
291,185,49453,2,0,L|298:77,1,80
178,170,49832,1,0,0:0:0:0:
230,34,50022,1,0,0:0:0:0:
245,21,50117,1,0,0:0:0:0:
263,13,50212,6,0,P|303:8|366:32,1,80
438,120,50592,1,0,0:0:0:0:
291,185,50782,2,0,L|298:77,1,80
382,182,51161,1,0,0:0:0:0:
269,273,51351,1,0,0:0:0:0:
154,205,51541,1,0,0:0:0:0:
154,205,51636,1,0,0:0:0:0:
154,205,51731,6,0,P|103:199|59:214,1,80
4,332,52111,1,0,0:0:0:0:
190,283,52301,1,0,0:0:0:0:
209,286,52396,1,0,0:0:0:0:
228,290,52490,1,0,0:0:0:0:
247,294,52585,1,0,0:0:0:0:
266,296,52680,1,0,0:0:0:0:
111,358,52870,1,0,0:0:0:0:
58,260,53060,1,0,0:0:0:0:
58,260,53155,1,0,0:0:0:0:
58,260,53250,6,0,L|67:188,3,40
118,159,53630,2,0,L|109:87,1,40
168,260,53820,2,0,L|177:188,3,40
228,159,54199,6,0,L|219:87,1,40
282,220,54389,6,0,L|278:260,1,40
338,159,54579,6,0,L|329:87,1,40
392,220,54769,6,0,L|380:331,1,80
233,364,55149,1,0,0:0:0:0:
191,269,55339,1,0,0:0:0:0:
191,269,55434,1,0,0:0:0:0:
191,269,55529,2,0,P|197:226|184:174,1,80
111,305,55908,1,0,0:0:0:0:
274,330,56098,1,0,0:0:0:0:
274,330,56193,1,0,0:0:0:0:
274,330,56288,6,0,L|444:298,1,160
308,180,56858,1,0,0:0:0:0:
295,164,56953,1,0,0:0:0:0:
289,144,57048,1,0,0:0:0:0:
291,124,57142,1,0,0:0:0:0:
302,107,57237,1,0,0:0:0:0:
192,235,57427,2,0,P|144:242|99:224,1,80
149,72,57807,6,0,L|159:189,1,80
192,235,58187,1,0,0:0:0:0:
291,113,58377,1,0,0:0:0:0:
291,113,58472,1,0,0:0:0:0:
291,113,58567,2,0,P|342:96|385:106,1,80
432,168,58946,1,0,0:0:0:0:
369,336,59136,1,0,0:0:0:0:
369,336,59231,1,0,0:0:0:0:
369,336,59326,6,0,B|332:241|332:241|346:170,1,160
256,292,59896,1,0,0:0:0:0:
256,292,59991,1,0,0:0:0:0:
256,292,60086,2,0,P|198:302|154:292,1,80
41,236,60465,1,0,0:0:0:0:
173,139,60655,5,0,0:0:0:0:
173,139,60750,1,0,0:0:0:0:
173,139,60845,2,0,L|177:310,1,160
294,361,61415,2,0,P|302:318|322:282,1,80
336,276,61699,1,0,0:0:0:0:
355,270,61794,1,0,0:0:0:0:
374,268,61889,1,0,0:0:0:0:
393,274,61984,1,0,0:0:0:0:
402,172,62174,6,0,P|325:171|246:231,1,160
407,284,62744,1,0,0:0:0:0:
512,217,62934,2,0,L|487:58,1,160
352,11,63503,2,0,L|260:24,1,80
257,35,63788,1,0,0:0:0:0:
242,48,63883,6,0,P|215:105|215:132,1,80
160,217,64263,1,0,0:0:0:0:
333,130,64453,1,0,0:0:0:0:
333,130,64548,1,0,0:0:0:0:
333,130,64642,1,0,0:0:0:0:
333,130,64737,1,0,0:0:0:0:
333,130,64832,2,0,P|377:136|417:166,1,80
76,335,65402,6,0,L|93:155,1,160
155,67,65972,1,0,0:0:0:0:
155,67,66351,5,0,0:0:0:0:
91,175,66541,1,0,0:0:0:0:
154,336,66731,1,0,0:0:0:0:
274,191,66921,5,0,0:0:0:0:
136,243,67111,1,0,0:0:0:0:
299,162,67301,1,0,0:0:0:0:
266,344,67491,1,0,0:0:0:0:
186,132,67680,2,0,L|66:118,1,120.000004577637
120,278,68060,1,0,0:0:0:0:
249,187,68250,1,0,0:0:0:0:
249,187,68345,1,0,0:0:0:0:
249,187,68440,6,0,P|265:120|241:75,1,120.000004577637
344,254,68820,1,0,0:0:0:0:
193,291,69010,1,0,0:0:0:0:
165,278,69104,1,0,0:0:0:0:
136,269,69199,1,0,0:0:0:0:
106,266,69294,1,0,0:0:0:0:
76,270,69389,1,0,0:0:0:0:
215,308,69579,2,0,P|277:320|335:309,1,120.000004577637
455,165,69959,5,0,0:0:0:0:
414,327,70149,1,0,0:0:0:0:
449,137,70339,1,0,0:0:0:0:
507,365,70529,1,0,0:0:0:0:
507,365,70624,1,0,0:0:0:0:
507,365,70719,2,0,L|371:355,1,120.000004577637
250,317,71098,1,0,0:0:0:0:
361,207,71288,5,0,0:0:0:0:
361,207,71383,1,0,0:0:0:0:
361,207,71478,2,0,L|370:87,1,120.000004577637
262,13,71858,1,0,0:0:0:0:
285,252,72048,1,0,0:0:0:0:
300,277,72142,1,0,0:0:0:0:
326,291,72237,1,0,0:0:0:0:
354,299,72332,1,0,0:0:0:0:
383,296,72427,1,0,0:0:0:0:
264,225,72617,2,0,P|218:186|127:202,1,120.000004577637
39,329,72997,6,0,L|74:199,1,120.000004577637
241,103,73377,1,0,0:0:0:0:
332,290,73567,1,0,0:0:0:0:
332,290,73661,1,0,0:0:0:0:
332,290,73756,2,0,P|268:318|185:278,1,120.000004577637
29,346,74136,1,0,0:0:0:0:
144,215,74326,1,0,0:0:0:0:
144,215,74421,1,0,0:0:0:0:
144,215,74516,6,0,L|264:225,1,120.000004577637
473,147,74896,1,0,0:0:0:0:
335,53,75086,1,0,0:0:0:0:
334,82,75180,1,0,0:0:0:0:
331,111,75275,1,0,0:0:0:0:
330,141,75370,1,0,0:0:0:0:
328,170,75465,1,0,0:0:0:0:
221,56,75655,2,0,P|157:40|81:79,1,120.000004577637
165,255,76035,6,0,P|181:191|142:115,1,120.000004577637,0|0,3:0|3:0,3:0:0:0:
78,197,76415,1,0,0:0:0:0:
256,313,76604,2,0,L|409:305,1,120.000004577637
401,291,76889,1,0,0:0:0:0:
422,270,76984,1,0,0:0:0:0:
434,242,77079,1,0,0:0:0:0:
437,212,77174,1,0,0:0:0:0:
309,276,77364,1,0,0:0:0:0:
227,121,77554,6,0,L|243:-3,1,120.000004577637
311,221,77934,1,0,0:0:0:0:
136,177,78123,1,0,0:0:0:0:
136,177,78218,1,0,0:0:0:0:
136,177,78313,2,0,L|127:94,1,60.0000022888184
47,153,78503,2,0,L|41:213,1,60.0000022888184
154,259,78693,1,0,0:0:0:0:
58,72,78883,1,0,0:0:0:0:
215,17,79073,5,0,0:0:0:0:
136,177,79263,1,0,0:0:0:0:
249,18,79453,1,0,0:0:0:0:
87,48,79642,1,0,0:0:0:0:
274,158,79832,2,0,L|404:137,1,120.000004577637
278,69,80212,1,0,0:0:0:0:
217,227,80402,1,0,0:0:0:0:
217,227,80497,1,0,0:0:0:0:
217,227,80592,6,0,P|147:231|89:184,1,120.000004577637
33,74,80972,1,0,0:0:0:0:
197,14,81161,1,0,3:0:0:0:
192,44,81256,1,0,3:0:0:0:
187,74,81351,1,0,3:0:0:0:
181,103,81446,1,0,3:0:0:0:
176,133,81541,1,0,3:0:0:0:
313,223,81731,2,0,L|453:213,1,120.000004577637
287,115,82111,5,0,0:0:0:0:
204,252,82301,1,0,0:0:0:0:
304,84,82491,1,0,0:0:0:0:
328,303,82680,1,0,0:0:0:0:
125,216,82870,2,0,P|166:174|225:167,1,120.000004577637
59,308,83250,1,0,0:0:0:0:
33,144,83440,1,0,0:0:0:0:
33,144,83535,1,0,0:0:0:0:
33,144,83630,6,0,L|54:-1,2,120.000004577637
203,96,84199,1,0,0:0:0:0:
233,96,84294,1,0,0:0:0:0:
261,103,84389,1,0,0:0:0:0:
286,118,84484,1,0,0:0:0:0:
306,140,84579,1,0,0:0:0:0:
217,310,84769,2,0,L|232:161,1,120.000004577637
378,271,85149,6,0,P|424:281|497:263,1,95.9999970703126
428,180,85529,1,0,0:0:0:0:
478,86,85718,1,0,0:0:0:0:
348,25,85908,2,0,L|228:20,1,95.9999970703126
228,25,86193,1,0,0:0:0:0:
204,30,86288,1,0,0:0:0:0:
76,89,86478,1,0,0:0:0:0:
191,122,86668,6,0,P|235:107|300:117,1,95.9999970703126
371,204,87048,1,0,0:0:0:0:
256,235,87237,1,0,0:0:0:0:
256,235,87332,1,0,0:0:0:0:
256,235,87427,2,0,P|196:249|136:235,1,95.9999970703126
198,146,87807,1,0,0:0:0:0:
306,325,87997,1,0,0:0:0:0:
358,236,88187,6,0,P|366:180|354:129,1,95.9999970703126
385,8,88567,1,0,0:0:0:0:
458,136,88756,1,0,0:0:0:0:
458,160,88851,1,0,0:0:0:0:
456,183,88946,1,0,0:0:0:0:
454,206,89041,1,0,0:0:0:0:
453,230,89136,1,0,0:0:0:0:
317,310,89326,2,0,L|205:303,1,95.9999970703126
60,233,89706,6,0,P|115:235|175:204,1,95.9999970703126
215,143,90086,1,0,0:0:0:0:
381,224,90275,6,0,P|326:226|266:195,1,95.9999970703126
215,143,90655,1,0,0:0:0:0:
230,358,90845,6,0,L|221:221,1,95.9999970703126
256,192,91225,12,0,94263,0:0:0:0:
