osu file format v14

[General]
AudioFilename: audio.mp3
AudioLeadIn: 0
PreviewTime: 127227
Countdown: 0
SampleSet: Soft
StackLeniency: 0.7
Mode: 0
LetterboxInBreaks: 0
WidescreenStoryboard: 1

[Editor]
DistanceSpacing: 1.1
BeatDivisor: 4
GridSize: 16
TimelineZoom: 1.3

[Metadata]
Title:Omoiyo Hitotsuninare
TitleUnicode:想いよひとつになれ
Artist:Aqours
ArtistUnicode:Aqours
Creator:Gravified
Version:Shogun's Easy
Source:ラブライブ!サンシャイン!!
Tags:ShogunMoon Phyloukz Kyle_Y Love Live Sunshine Our Feelings Become One School Idol Project Takami Chika Matsuura Kanan Kurosawa Dia Watanabe You Tsushima Yoshiko Kunikida Hanamaru Ohara Mari Kurosawa Ruby Hata Aki Anju Inami Rikako Aida Nanaka Suwa Arisa Komiya Shuka Saito Aika Kobayashi Kanako Takatsuki Aina Suzuki Ai Furihata Episode 11 Mirai Ticket
BeatmapID:1356935
BeatmapSetID:628381

[Difficulty]
HPDrainRate:2
CircleSize:2.5
OverallDifficulty:2
ApproachRate:3
SliderMultiplier:0.9
SliderTickRate:1

[Events]
//Background and Video events
0,0,"love live sunshine.jpg",0,0
//Break Periods
2,13319,17394
2,61891,70251
2,184749,194537
2,210463,218823
//Storyboard Layer 0 (Background)
//Storyboard Layer 1 (Fail)
//Storyboard Layer 2 (Pass)
//Storyboard Layer 3 (Foreground)
//Storyboard Sound Samples

[TimingPoints]
1692,357.142857142857,4,2,1,30,1,0
1692,-111.111111111111,4,2,1,30,0,0
18834,-111.111111111111,4,2,1,70,0,0
27406,-111.111111111111,4,2,1,60,0,0
38834,-111.111111111111,4,2,1,65,0,0
53120,-111.111111111111,4,2,1,50,0,0
58834,-111.111111111111,4,2,1,65,0,0
61691,-111.111111111111,4,2,1,40,0,0
71691,-111.111111111111,4,2,1,60,0,0
73120,-111.111111111111,4,2,1,70,0,1
84549,-111.111111111111,4,2,1,65,0,0
95977,-111.111111111111,4,2,1,60,0,0
115977,-111.111111111111,4,2,1,65,0,0
118834,-111.111111111111,4,2,1,50,0,0
127406,-111.111111111111,4,2,1,70,0,1
137406,-111.111111111111,4,2,1,70,0,0
138834,-111.111111111111,4,2,1,70,0,1
150263,-111.111111111111,4,2,1,60,0,0
161691,-111.111111111111,4,2,1,65,0,0
184549,-111.111111111111,4,2,1,50,0,0
201691,-111.111111111111,4,2,1,60,0,0
207406,-111.111111111111,4,2,1,65,0,0
210263,-111.111111111111,4,2,1,40,0,0
220263,-111.111111111111,4,2,1,60,0,0
221691,-111.111111111111,4,2,1,70,0,1
233120,-111.111111111111,4,2,1,70,0,0
238834,-111.111111111111,4,2,1,75,0,1
248834,-111.111111111111,4,2,1,75,0,0
250263,-111.111111111111,4,2,1,75,0,1
261691,-111.111111111111,4,2,1,60,0,0
267406,-111.111111111111,4,2,1,70,0,0
275977,348.837209302326,4,2,1,40,1,0
275977,-111.111111111111,4,2,1,40,0,0
277372,394.736842105263,4,2,1,40,1,0
277766,370.37037037037,4,2,1,40,1,0
278136,422.535211267606,4,2,1,40,1,0
278981,461.538461538462,4,2,1,40,1,0
279442,416.666666666667,4,2,1,40,1,0
279858,355.029585798817,4,2,1,40,1,0
280213,394.736842105263,4,2,1,40,1,0
280607,434.782608695652,4,2,1,40,1,0
281476,526.315789473684,4,2,1,40,1,0
282528,750,4,2,1,10,1,0

[Colours]
Combo1 : 38,66,89
Combo2 : 255,128,0
Combo3 : 128,0,0
Combo4 : 184,163,152
Combo5 : 255,255,128
Combo6 : 154,100,68
Combo7 : 255,0,0

[HitObjects]
36,73,1692,6,0,B|116:49|113:115|211:86,1,161.999995056153,4|0,0:0|0:0,0:0:0:0:
368,56,3120,2,0,P|349:143|345:244,1,161.999995056153,2|0,0:0|0:0,0:0:0:0:
386,294,4192,1,0,0:0:0:0:
327,360,4549,2,0,L|220:354,1,80.9999975280763,2|0,0:0|0:0,0:0:0:0:
167,314,5263,2,0,L|82:319,1,80.9999975280763
21,257,5977,2,0,P|12:177|82:107,1,161.999995056153,2|0,0:0|0:0,0:0:0:0:
143,83,7049,1,0,0:0:0:0:
231,92,7406,6,0,B|323:114|310:57|415:89,1,161.999995056153,2|0,0:0|0:0,0:0:0:0:
474,109,8477,1,0,0:0:0:0:
507,191,8834,2,0,L|493:360,1,161.999995056153,2|0,0:0|0:0,0:0:0:0:
406,369,9906,1,0,0:0:0:0:
317,359,10263,2,0,L|309:261,1,80.9999975280763,2|0,0:0|0:0,0:0:0:0:
232,234,10977,2,0,L|147:228,1,80.9999975280763
64,206,11691,6,0,P|36:83|201:69,1,323.999990112305,2|2,0:0|0:0,0:0:0:0:
322,202,18834,6,0,P|379:188|452:217,2,121.499996292114,4|0|8,0:0|0:0|0:0,0:0:0:0:
259,265,20263,2,0,P|215:271|166:260,1,80.9999975280763,0|8,0:0|0:0,0:0:0:0:
93,239,20977,2,0,L|86:156,1,80.9999975280763,0|8,0:0|0:0,0:0:0:0:
105,71,21691,2,0,P|157:48|228:73,2,121.499996292114,4|0|8,0:0|0:0|0:0,0:0:0:0:
165,137,23120,6,0,P|207:157|262:144,1,80.9999975280763,0|8,0:0|0:0,0:0:0:0:
325,128,23834,2,0,L|421:135,1,80.9999975280763,0|8,0:0|0:0,0:0:0:0:
482,179,24549,2,0,B|503:246|470:244|490:306,2,121.499996292114,4|4|0,0:0|0:0|0:0,0:0:0:0:
404,134,25977,2,0,L|283:123,2,121.499996292114,12|4|8,0:0|0:0|0:0,0:0:0:0:
390,222,27406,6,0,L|212:235,1,161.999995056153,4|0,0:0|0:0,0:0:0:0:
142,209,28477,1,8,0:0:0:0:
73,152,28834,2,0,P|59:96|81:30,2,121.499996292114,0|2|8,0:0|0:0|0:0,0:0:0:0:
142,209,30263,2,0,P|152:290|155:377,1,161.999995056153
244,371,31334,1,8,0:0:0:0:
332,359,31691,2,0,L|422:354,1,80.9999975280763,0|8,0:0|0:0,0:0:0:0:
424,266,32406,2,0,L|325:271,1,80.9999975280763,0|8,0:0|0:0,0:0:0:0:
258,241,33120,6,0,P|245:161|293:78,1,161.999995056153,0|8,0:0|0:0,0:0:0:0:
335,21,34191,1,0,0:0:0:0:
395,86,34549,2,0,B|459:98|459:98|542:82,2,121.499996292114,0|2|8,0:0|0:0|0:0,0:0:0:0:
338,154,35977,2,0,L|349:339,1,161.999995056153
266,351,37049,1,8,0:0:0:0:
179,328,37406,2,0,P|139:316|87:319,1,80.9999975280763,0|8,0:0|0:0,0:0:0:0:
24,268,38120,2,0,P|19:227|32:175,1,80.9999975280763,0|8,0:0|0:0,0:0:0:0:
65,108,38834,6,0,L|206:101,1,121.499996292114,4|0,0:0|0:0,0:0:0:0:
275,94,39727,1,0,0:0:0:0:
359,122,40084,2,0,B|373:169|373:169|349:265,1,121.499996292114,4|8,0:0|0:0,0:0:0:0:
284,292,40977,1,0,0:0:0:0:
217,352,41334,1,12,0:0:0:0:
145,299,41691,2,0,P|195:264|298:314,1,161.999995056153,4|0,0:0|0:0,0:0:0:0:
350,353,42763,1,8,0:0:0:0:
420,298,43120,2,0,P|428:256|417:201,1,80.9999975280763,4|8,0:0|0:0,0:0:0:0:
348,169,43834,2,0,P|340:131|354:83,1,80.9999975280763,0|8,0:0|0:0,0:0:0:0:
276,41,44549,6,0,B|193:17|200:73|102:43,2,161.999995056153,4|0|2,0:0|0:0|0:0,0:0:0:0:
351,89,46334,2,0,L|347:198,1,80.9999975280763,8|0,0:0|0:0,0:0:0:0:
385,251,47049,1,8,0:0:0:0:
334,324,47406,2,0,P|256:346|173:317,2,161.999995056153,2|0|2,0:0|0:0|0:0,0:0:0:0:
385,251,49191,2,0,L|488:244,1,80.9999975280763,8|2,0:0|0:0,0:0:0:0:
507,166,49906,1,8,0:0:0:0:
428,124,50263,6,0,P|415:66|446:-17,2,121.499996292114,4|8|8,0:0|0:0|0:0,0:0:0:0:
373,194,51691,2,0,L|382:330,2,121.499996292114,4|8|8,0:0|0:0|0:0,0:0:0:0:
295,149,53120,6,0,P|219:122|121:146,1,161.999995056153,4|0,0:0|0:0,0:0:0:0:
75,196,54191,1,8,0:0:0:0:
124,270,54549,2,0,P|200:297|298:273,1,161.999995056153,4|8,0:0|0:0,0:0:0:0:
345,224,55620,1,8,0:0:0:0:
295,149,55977,2,0,L|291:48,1,80.9999975280763,4|4,0:0|0:0,0:0:0:0:
207,38,56691,2,0,P|167:28|105:33,1,80.9999975280763,0|4,0:0|0:0,0:0:0:0:
53,78,57406,2,0,B|27:166|83:160|39:257,1,161.999995056153,0|2,0:0|0:0,0:0:0:0:
4,315,58477,1,8,0:0:0:0:
84,352,58834,6,0,P|141:371|217:361,2,121.499996292114,4|4|4,0:0|0:0|0:0,0:0:0:0:
4,315,60263,2,0,L|-5:214,1,80.9999975280763,8|8,0:0|0:0,0:0:0:0:
70,184,60977,2,0,L|82:79,1,80.9999975280763,8|8,0:0|0:0,0:0:0:0:
152,53,61691,1,4,0:0:0:0:
162,73,71691,6,0,L|330:56,1,161.999995056153,12|12,0:0|0:0,0:0:0:0:
487,125,73120,6,0,P|497:206|467:297,1,161.999995056153,4|0,0:0|0:0,0:0:0:0:
410,343,74191,1,8,0:0:0:0:
322,360,74549,2,0,B|235:387|243:326|145:362,1,161.999995056153,2|0,0:0|0:0,0:0:0:0:
75,365,75620,1,8,0:0:0:0:
26,290,75977,2,0,P|16:250|29:201,1,80.9999975280763,2|8,0:0|0:0,0:0:0:0:
98,163,76691,2,0,P|108:123|95:74,1,80.9999975280763,2|8,0:0|0:0,0:0:0:0:
172,31,77406,2,0,B|299:23,2,121.499996292114,2|2|8,0:0|0:0|0:0,0:0:0:0:
100,84,78834,6,0,B|88:121|88:121|107:206,2,121.499996292114,4|4|8,0:0|0:0|0:0,0:0:0:0:
179,124,80263,2,0,L|315:116,2,121.499996292114,4|4|8,0:0|0:0|0:0,0:0:0:0:
94,152,81691,2,0,P|84:199|96:249,1,80.9999975280763,0|8,0:0|0:0,0:0:0:0:
172,261,82406,2,0,L|167:359,1,80.9999975280763,0|8,0:0|0:0,0:0:0:0:
253,365,83120,1,8,0:0:0:0:
341,368,83477,1,8,0:0:0:0:
425,340,83834,2,0,L|420:259,1,80.9999975280763,8|8,0:0|0:0,0:0:0:0:
365,188,84549,6,0,L|374:53,2,121.499996292114,4|0|8,0:0|0:0|0:0,0:0:0:0:
288,234,85977,2,0,P|242:240|197:230,1,80.9999975280763,0|8,0:0|0:0,0:0:0:0:
138,178,86691,2,0,P|98:171|58:178,1,80.9999975280763,0|8,0:0|0:0,0:0:0:0:
4,249,87406,2,0,B|-7:297|-7:297|12:375,2,121.499996292114,4|0|8,0:0|0:0|0:0,0:0:0:0:
58,178,88834,2,0,L|52:85,1,80.9999975280763,0|8,0:0|0:0,0:0:0:0:
125,45,89549,1,0,0:0:0:0:
213,48,89906,1,8,0:0:0:0:
264,120,90263,6,0,P|322:134|383:117,2,121.499996292114,4|0|8,0:0|0:0|0:0,0:0:0:0:
175,128,91691,2,0,L|182:227,1,80.9999975280763,0|8,0:0|0:0,0:0:0:0:
263,242,92406,2,0,L|256:339,1,80.9999975280763,0|8,0:0|0:0,0:0:0:0:
335,365,93120,2,0,P|387:374|465:344,2,121.499996292114,4|0|8,0:0|0:0|0:0,0:0:0:0:
257,322,94549,2,0,P|217:310|175:319,1,80.9999975280763,0|8,0:0|0:0,0:0:0:0:
99,357,95263,1,0,0:0:0:0:
14,328,95620,1,8,0:0:0:0:
1,239,95977,6,0,B|-14:153|30:159|2:71,1,161.999995056153,4|0,0:0|0:0,0:0:0:0:
79,31,97049,1,8,0:0:0:0:
153,79,97406,2,0,P|204:95|280:75,2,121.499996292114,0|0|8,0:0|0:0|0:0,0:0:0:0:
79,31,98834,2,0,P|89:112|90:200,1,161.999995056153
151,256,99906,1,8,0:0:0:0:
216,195,100263,2,0,L|313:187,1,80.9999975280763,0|8,0:0|0:0,0:0:0:0:
370,238,100977,2,0,L|465:246,1,80.9999975280763,0|8,0:0|0:0,0:0:0:0:
493,166,101691,6,0,P|482:102|443:53,2,121.499996292114,4|0|8,0:0|0:0|0:0,0:0:0:0:
450,244,103120,2,0,B|444:382,2,121.499996292114,4|0|8,0:0|0:0|0:0,0:0:0:0:
399,170,104548,6,0,P|321:140|237:165,1,161.999995056153,4|0,0:0|0:0,0:0:0:0:
168,199,105620,1,8,0:0:0:0:
116,271,105977,2,0,L|121:359,1,80.9999975280763,0|8,0:0|0:0,0:0:0:0:
208,367,106691,2,0,L|204:280,1,80.9999975280763,0|12,0:0|0:0,0:0:0:0:
260,217,107406,2,0,P|338:202|434:222,2,161.999995056153,4|0|4,0:0|0:0|0:0,0:0:0:0:
188,163,109191,2,0,L|193:73,1,80.9999975280763,8|4,0:0|0:0,0:0:0:0:
113,40,109905,1,8,0:0:0:0:
29,70,110263,6,0,L|19:236,2,161.999995056153,4|0|2,0:0|0:0|0:0,0:0:0:0:
113,40,112049,2,0,P|153:28|200:33,1,80.9999975280763,8|0,0:0|0:0,0:0:0:0:
273,65,112763,1,8,0:0:0:0:
353,102,113120,2,0,B|435:127|428:71|511:95,2,161.999995056153,2|0|2,0:0|0:0|0:0,0:0:0:0:
277,149,114905,2,0,L|273:258,1,80.9999975280763,8|2,0:0|0:0,0:0:0:0:
271,319,115620,1,8,0:0:0:0:
194,364,115977,6,0,P|138:379|75:349,2,121.499996292114,4|8|8,0:0|0:0|0:0,0:0:0:0:
141,292,117405,2,0,L|149:155,2,121.499996292114,4|8|8,0:0|0:0|0:0,0:0:0:0:
53,274,118834,6,0,L|43:103,1,161.999995056153,4|0,0:0|0:0,0:0:0:0:
109,52,119905,1,8,0:0:0:0:
185,97,120263,2,0,P|257:129|341:88,1,161.999995056153,2|0,0:0|0:0,0:0:0:0:
402,47,121334,1,8,0:0:0:0:
466,107,121691,2,0,L|458:191,1,80.9999975280763,4|8,0:0|0:0,0:0:0:0:
396,251,122405,2,0,L|404:348,1,80.9999975280763,0|8,0:0|0:0,0:0:0:0:
313,338,123120,2,0,P|235:317|148:343,1,161.999995056153
74,368,124191,1,8,0:0:0:0:
13,302,124549,6,0,B|-1:263|-1:263|13:173,2,121.499996292114,4|4|4,0:0|0:0|0:0,0:0:0:0:
87,252,125977,2,0,L|102:153,1,80.9999975280763,8|8,0:0|0:0,0:0:0:0:
186,152,126691,2,0,L|175:56,1,80.9999975280763,8|8,0:0|0:0,0:0:0:0:
260,40,127406,6,0,P|338:32|406:96,1,161.999995056153,4|0,0:0|0:0,0:0:0:0:
434,164,128477,1,8,0:0:0:0:
386,239,128834,2,0,B|205:231,1,161.999995056153,2|0,0:0|0:0,0:0:0:0:
159,293,129906,1,8,0:0:0:0:
217,360,130263,2,0,L|310:364,1,80.9999975280763,2|8,0:0|0:0,0:0:0:0:
379,328,130977,2,0,L|472:332,1,80.9999975280763,2|8,0:0|0:0,0:0:0:0:
504,254,131691,2,0,B|523:173|475:181|495:85,1,161.999995056153,2|0,0:0|0:0,0:0:0:0:
429,32,132763,1,8,0:0:0:0:
349,72,133120,6,0,P|274:102|189:70,1,161.999995056153,4|0,0:0|0:0,0:0:0:0:
120,37,134191,1,8,0:0:0:0:
43,82,134549,2,0,B|26:141|26:141|52:255,1,161.999995056153,2|0,0:0|0:0,0:0:0:0:
110,303,135620,1,8,0:0:0:0:
182,251,135977,2,0,P|224:240|271:246,1,80.9999975280763,6|8,0:0|0:0,0:0:0:0:
347,263,136691,2,0,L|354:362,1,80.9999975280763,2|8,0:0|0:0,0:0:0:0:
441,347,137405,2,0,B|427:177,1,161.999995056153,6|0,0:0|0:0,0:0:0:0:
416,96,138477,1,8,0:0:0:0:
334,60,138834,6,0,P|257:34|173:53,1,161.999995056153,4|0,0:0|0:0,0:0:0:0:
137,128,139905,1,8,0:0:0:0:
198,192,140263,2,0,B|211:251|211:251|197:353,1,161.999995056153,2|0,0:0|0:0,0:0:0:0:
110,370,141334,1,8,0:0:0:0:
23,348,141691,2,0,L|15:258,1,80.9999975280763,2|8,0:0|0:0,0:0:0:0:
70,197,142405,2,0,L|80:104,1,80.9999975280763,2|8,0:0|0:0,0:0:0:0:
137,48,143120,2,0,P|212:21|259:23,2,121.499996292114,2|2|8,0:0|0:0|0:0,0:0:0:0:
157,134,144549,6,0,P|217:131|272:107,2,121.499996292114,4|4|8,0:0|0:0|0:0,0:0:0:0:
77,173,145977,2,0,B|65:217|65:217|85:297,2,121.499996292114,4|4|8,0:0|0:0|0:0,0:0:0:0:
157,134,147406,1,4,0:0:0:0:
213,202,147763,2,0,P|255:211|302:198,1,80.9999975280763,8|8,0:0|0:0,0:0:0:0:
367,156,148477,1,8,0:0:0:0:
437,210,148834,2,0,L|431:308,1,80.9999975280763,8|8,0:0|0:0,0:0:0:0:
365,350,149549,1,8,0:0:0:0:
277,332,149906,1,8,0:0:0:0:
203,281,150263,6,0,L|194:113,1,161.999995056153,4|0,0:0|0:0,0:0:0:0:
117,74,151334,1,8,0:0:0:0:
39,117,151691,2,0,L|30:278,1,161.999995056153
116,301,152763,1,8,0:0:0:0:
203,281,153120,2,0,P|247:268|295:277,1,80.9999975280763,0|8,0:0|0:0,0:0:0:0:
359,313,153834,2,0,P|399:316|437:303,1,80.9999975280763,0|8,0:0|0:0,0:0:0:0:
480,225,154549,2,0,B|506:146|450:148|483:58,1,161.999995056153
400,27,155620,1,8,0:0:0:0:
322,70,155977,6,0,P|260:81|196:50,2,121.499996292114,4|0|8,0:0|0:0|0:0,0:0:0:0:
372,143,157406,2,0,L|359:272,2,121.499996292114,0|0|8,0:0|0:0|0:0,0:0:0:0:
322,70,158834,2,0,P|246:38|162:63,1,161.999995056153,4|0,0:0|0:0,0:0:0:0:
111,122,159906,1,8,0:0:0:0:
75,203,160263,2,0,L|82:297,1,80.9999975280763,4|8,0:0|0:0,0:0:0:0:
170,281,160977,2,0,L|163:197,1,80.9999975280763,4|8,0:0|0:0,0:0:0:0:
243,162,161691,6,0,B|321:137|321:137|412:165,1,161.999995056153,4|0,0:0|0:0,0:0:0:0:
476,201,162763,1,8,0:0:0:0:
413,263,163120,2,0,P|404:323|427:396,2,121.499996292114,2|0|8,0:0|0:0|0:0,0:0:0:0:
476,201,164549,2,0,P|485:141|463:76,1,121.499996292114,2|0,0:0|0:0,0:0:0:0:
389,40,165441,1,0,0:0:0:0:
304,68,165799,2,0,L|214:58,2,80.9999975280763,2|0|2,0:0|0:0|0:0,0:0:0:0:
353,141,166870,1,0,0:0:0:0:
239,212,167406,6,0,B|151:247|159:183|64:222,1,161.999995056153,4|0,0:0|0:0,0:0:0:0:
50,299,168477,1,8,0:0:0:0:
114,360,168834,2,0,P|170:371|238:362,2,121.499996292114,2|0|8,0:0|0:0|0:0,0:0:0:0:
50,299,170263,2,0,B|34:257|34:257|54:173,1,121.499996292114,2|4,0:0|0:0,0:0:0:0:
130,141,171156,1,4,0:0:0:0:
212,106,171513,2,0,L|206:23,2,80.9999975280763,2|0|0,0:0|0:0|0:0,0:0:0:0:
297,131,172584,1,0,0:0:0:0:
416,191,173120,6,0,B|434:244|434:244|411:362,1,161.999995056153,4|0,0:0|0:0,0:0:0:0:
326,364,174191,1,8,0:0:0:0:
253,316,174549,2,0,P|185:283|91:304,1,161.999995056153,2|0,0:0|0:0,0:0:0:0:
27,345,175620,1,8,0:0:0:0:
0,259,175977,2,0,B|-17:207|-17:207|9:95,1,161.999995056153,2|0,0:0|0:0,0:0:0:0:
75,45,177049,1,8,0:0:0:0:
146,98,177406,2,0,L|273:91,1,121.499996292114,2|0,0:0|0:0,0:0:0:0:
356,84,178299,1,0,0:0:0:0:
402,209,178834,6,0,B|325:233|328:180|242:204,1,161.999995056153,4|0,0:0|0:0,0:0:0:0:
178,264,179906,1,8,0:0:0:0:
229,336,180263,2,0,P|285:351|356:334,2,121.499996292114,0|2|8,0:0|0:0|0:0,0:0:0:0:
178,264,181691,2,0,L|56:269,1,121.499996292114,4|0,0:0|0:0,0:0:0:0:
18,188,182584,2,0,P|11:148|21:102,1,80.9999975280763,0|2,0:0|0:0,0:0:0:0:
85,50,183299,2,0,B|153:37|148:79|220:57,1,121.499996292114,0|8,0:0|0:0,0:0:0:0:
288,32,184191,1,8,0:0:0:0:
373,59,184549,1,12,0:0:0:0:
63,62,195977,6,0,P|36:128|59:212,2,161.999995056153,4|8|0,0:0|0:0|0:0,0:0:0:0:
150,43,197763,1,0,0:0:0:0:
221,95,198120,2,0,L|316:90,1,80.9999975280763,8|0,0:0|0:0,0:0:0:0:
380,132,198834,2,0,B|399:192|399:192|375:303,2,161.999995056153,0|8|0,0:0|0:0|0:0,0:0:0:0:
301,90,200620,1,0,0:0:0:0:
256,167,200977,2,0,P|213:176|162:162,1,80.9999975280763,8|0,0:0|0:0,0:0:0:0:
96,132,201691,6,0,B|75:215|125:208|102:294,2,161.999995056153,4|8|4,0:0|0:0|0:0,0:0:0:0:
154,64,203477,1,0,0:0:0:0:
208,134,203834,2,0,P|214:176|207:219,1,80.9999975280763,8|0,0:0|0:0,0:0:0:0:
241,296,204549,2,0,P|318:270|403:292,2,161.999995056153,4|8|4,0:0|0:0|0:0,0:0:0:0:
178,359,206334,1,8,0:0:0:0:
102,312,206691,2,0,P|92:270|101:227,1,80.9999975280763,4|8,0:0|0:0,0:0:0:0:
141,155,207406,6,0,L|123:27,2,121.499996292114,4|4|8,0:0|0:0|0:0,0:0:0:0:
227,176,208834,1,0,0:0:0:0:
314,157,209191,2,0,L|326:69,1,80.9999975280763,8|8,0:0|0:0,0:0:0:0:
406,39,209906,1,8,0:0:0:0:
486,78,210263,1,12,0:0:0:0:
253,33,220263,6,0,B|229:110|279:112|248:206,1,161.999995056153,12|12,0:0|0:0,0:0:0:0:
170,350,221691,6,0,P|248:334|328:352,1,161.999995056153,4|0,0:0|0:0,0:0:0:0:
416,354,222762,1,8,0:0:0:0:
494,311,223120,2,0,B|509:255|509:255|490:147,1,161.999995056153,2|0,0:0|0:0,0:0:0:0:
425,92,224191,1,8,0:0:0:0:
338,114,224548,2,0,P|294:124|249:115,1,80.9999975280763,2|8,0:0|0:0,0:0:0:0:
184,69,225262,2,0,P|137:60|94:73,1,80.9999975280763,2|8,0:0|0:0,0:0:0:0:
42,131,225977,2,0,L|53:260,2,121.499996292114,2|2|8,0:0|0:0|0:0,0:0:0:0:
105,67,227406,6,0,P|165:57|223:93,2,121.499996292114,4|4|8,0:0|0:0|0:0,0:0:0:0:
149,144,228834,2,0,B|157:282,2,121.499996292114,4|4|8,0:0|0:0|0:0,0:0:0:0:
216,85,230263,1,4,0:0:0:0:
292,131,230620,2,0,P|334:140|381:127,1,80.9999975280763,8|8,0:0|0:0,0:0:0:0:
440,76,231334,1,8,0:0:0:0:
505,136,231691,2,0,L|499:234,1,80.9999975280763,8|8,0:0|0:0,0:0:0:0:
449,290,232406,1,8,0:0:0:0:
360,294,232763,1,8,0:0:0:0:
282,249,233120,6,0,B|219:237|225:280|152:262,2,121.499996292114,4|0|8,0:0|0:0|0:0,0:0:0:0:
360,294,234549,2,0,B|370:252|370:252|353:159,2,121.499996292114,0|0|8,0:0|0:0|0:0,0:0:0:0:
303,362,235977,2,0,L|221:357,1,80.9999975280763,4|8,0:0|0:0,0:0:0:0:
147,308,236691,2,0,L|62:313,1,80.9999975280763,0|8,0:0|0:0,0:0:0:0:
15,239,237406,2,0,P|1:163|52:83,1,161.999995056153,4|0,0:0|0:0,0:0:0:0:
123,59,238477,1,12,0:0:0:0:
203,96,238834,6,0,B|280:116|280:116|377:88,1,161.999995056153,4|0,0:0|0:0,0:0:0:0:
440,57,239905,1,8,0:0:0:0:
493,128,240262,2,0,P|510:209|492:289,1,161.999995056153,2|0,0:0|0:0,0:0:0:0:
427,345,241334,1,8,0:0:0:0:
344,311,241691,2,0,L|258:306,1,80.9999975280763,2|8,0:0|0:0,0:0:0:0:
188,355,242405,2,0,L|106:359,1,80.9999975280763,2|8,0:0|0:0,0:0:0:0:
38,302,243120,2,0,P|12:228|43:135,1,161.999995056153,2|0,0:0|0:0,0:0:0:0:
112,109,244191,1,8,0:0:0:0:
187,156,244549,6,0,P|207:233|181:308,1,161.999995056153,4|0,0:0|0:0,0:0:0:0:
107,358,245619,1,8,0:0:0:0:
38,302,245977,2,0,B|11:223|11:223|37:130,1,161.999995056153,2|0,0:0|0:0,0:0:0:0:
112,109,247048,1,8,0:0:0:0:
194,75,247405,2,0,L|283:70,1,80.9999975280763,6|8,0:0|0:0,0:0:0:0:
338,132,248119,2,0,P|349:172|339:224,1,80.9999975280763,2|8,0:0|0:0,0:0:0:0:
288,280,248834,2,0,B|204:254|209:308|117:280,1,161.999995056153,6|0,0:0|0:0,0:0:0:0:
46,251,249905,1,8,0:0:0:0:
2,172,250263,6,0,B|-6:110|-6:110|26:8,1,161.999995056153,4|0,0:0|0:0,0:0:0:0:
112,15,251334,1,8,0:0:0:0:
199,35,251692,2,0,P|257:86|340:79,1,161.999995056153,2|0,0:0|0:0,0:0:0:0:
414,35,252763,1,8,0:0:0:0:
479,95,253120,2,0,L|470:179,1,80.9999975280763,2|8,0:0|0:0,0:0:0:0:
399,229,253834,2,0,L|406:321,1,80.9999975280763,2|8,0:0|0:0,0:0:0:0:
334,364,254549,2,0,P|275:374|215:334,2,121.499996292114,2|2|8,0:0|0:0|0:0,0:0:0:0:
290,286,255978,6,0,P|285:219|269:155,2,121.499996292114,4|4|8,0:0|0:0|0:0,0:0:0:0:
223,344,257406,2,0,B|161:357|161:357|87:339,2,121.499996292114,4|4|8,0:0|0:0|0:0,0:0:0:0:
290,286,258835,1,4,0:0:0:0:
360,231,259192,2,0,L|350:132,1,80.9999975280763,8|8,0:0|0:0,0:0:0:0:
300,77,259906,1,8,0:0:0:0:
223,122,260263,2,0,P|182:127|134:115,1,80.9999975280763,8|8,0:0|0:0,0:0:0:0:
73,63,260978,1,8,0:0:0:0:
0,114,261335,1,8,0:0:0:0:
35,195,261691,6,0,B|59:241|59:241|45:362,1,161.999995056153,4|0,0:0|0:0,0:0:0:0:
131,377,262763,1,8,0:0:0:0:
210,336,263120,2,0,P|279:296|368:323,1,161.999995056153
437,348,264191,1,8,0:0:0:0:
497,281,264549,2,0,L|492:200,1,80.9999975280763,0|8,0:0|0:0,0:0:0:0:
415,157,265263,2,0,L|410:67,1,80.9999975280763,0|8,0:0|0:0,0:0:0:0:
333,31,265977,2,0,P|278:16|172:59,1,161.999995056153
117,111,267049,1,8,0:0:0:0:
57,177,267406,6,0,B|41:224|41:224|58:295,2,121.499996292114,4|0|8,0:0|0:0|0:0,0:0:0:0:
130,228,268834,2,0,P|169:234|209:222,1,80.9999975280763,0|8,0:0|0:0,0:0:0:0:
293,196,269549,2,0,L|300:292,1,80.9999975280763,0|8,0:0|0:0,0:0:0:0:
365,335,270263,2,0,P|424:350|482:320,2,121.499996292114,4|0|8,0:0|0:0|0:0,0:0:0:0:
414,260,271691,6,0,L|418:173,1,80.9999975280763,0|8,0:0|0:0,0:0:0:0:
362,109,272406,2,0,P|323:100|273:112,1,80.9999975280763,0|8,0:0|0:0,0:0:0:0:
205,151,273121,2,0,B|68:137,2,121.499996292114,4|4|0,0:0|0:0|0:0,0:0:0:0:
278,201,274549,2,0,L|403:188,2,121.499996292114,12|4|8,0:0|0:0|0:0,0:0:0:0:
228,289,275977,6,0,B|197:323|156:353|84:335|45:284|65:225|65:225|100:252|149:244,1,323.999990112305
256,192,278981,12,0,283465,0:0:0:0:
