osu file format v14

[General]
AudioFilename: audio.mp3
AudioLeadIn: 0
PreviewTime: 127227
Countdown: 0
SampleSet: Soft
StackLeniency: 0.7
Mode: 0
LetterboxInBreaks: 0
WidescreenStoryboard: 1

[Editor]
Bookmarks: 38834,95977,264549
DistanceSpacing: 1.4
BeatDivisor: 4
GridSize: 16
TimelineZoom: 2.899999

[Metadata]
Title:Omoiyo Hitotsuninare
TitleUnicode:想いよひとつになれ
Artist:Aqours
ArtistUnicode:Aqours
Creator:Gravified
Version:Rikoukz' Hard
Source:ラブライブ!サンシャイン!!
Tags:ShogunMoon Phyloukz Kyle_Y Love Live Sunshine Our Feelings Become One School Idol Project Takami Chika Matsuura Kanan Kurosawa Dia Watanabe You Tsushima Yoshiko Kunikida Hanamaru Ohara Mari Kurosawa Ruby Hata Aki Anju Inami Rikako Aida Nanaka Suwa Arisa Komiya Shuka Saito Aika Kobayashi Kanako Takatsuki Aina Suzuki Ai Furihata Episode 11 Mirai Ticket
BeatmapID:1350365
BeatmapSetID:628381

[Difficulty]
HPDrainRate:5
CircleSize:3.5
OverallDifficulty:6
ApproachRate:7.5
SliderMultiplier:1.2
SliderTickRate:1

[Events]
//Background and Video events
0,0,"love live sunshine.jpg",0,0
//Break Periods
2,152962,160866
2,184749,195152
2,264748,266581
//Storyboard Layer 0 (Background)
//Storyboard Layer 1 (Fail)
//Storyboard Layer 2 (Pass)
//Storyboard Layer 3 (Foreground)
//Storyboard Sound Samples

[TimingPoints]
1692,357.142857142857,4,2,1,30,1,0
1692,-133.333333333333,4,2,1,30,0,0
17941,-100,4,2,1,60,0,0
18834,-100,4,2,1,70,0,0
26156,-100,4,2,1,20,0,0
26691,-100,4,2,1,40,0,0
27049,-100,4,2,1,60,0,0
27406,-100,4,2,1,70,0,0
60084,-100,4,2,1,30,0,0
60620,-100,4,2,1,35,0,0
60977,-100,4,2,1,40,0,0
61334,-100,4,2,1,60,0,0
61691,-133.333333333333,4,2,1,40,0,0
71691,-100,4,2,1,70,0,0
73120,-100,4,2,1,70,0,1
84013,-100,4,2,1,50,0,1
84549,-100,4,2,1,70,0,0
125799,-100,4,2,1,30,0,0
126334,-100,4,2,1,35,0,0
126691,-100,4,2,1,40,0,0
127049,-100,4,2,1,60,0,0
127406,-83.3333333333333,4,2,1,70,0,1
137406,-83.3333333333333,4,2,1,70,0,0
138834,-83.3333333333333,4,2,1,70,0,1
149727,-83.3333333333333,4,2,1,50,0,1
150263,-100,4,2,1,70,0,0
152763,-100,4,2,1,50,0,0
153120,-100,4,2,1,70,0,0
195977,-133.333333333333,4,2,1,70,0,0
198477,-133.333333333333,4,2,1,60,0,0
198834,-133.333333333333,4,2,1,70,0,0
199906,-133.333333333333,4,2,1,60,0,0
200263,-133.333333333333,4,2,1,70,0,0
201691,-100,4,2,1,70,0,0
208656,-100,4,2,1,30,0,0
209191,-100,4,2,1,35,0,0
209549,-100,4,2,1,40,0,0
209906,-100,4,2,1,60,0,0
210263,-133.333333333333,4,2,1,40,0,0
220263,-100,4,2,1,70,0,0
221691,-100,4,2,1,70,0,1
233120,-100,4,2,1,70,0,0
238299,-100,4,2,1,50,0,0
238834,-83.3333333333333,4,2,1,70,0,1
248834,-83.3333333333333,4,2,1,70,0,0
250263,-83.3333333333333,4,2,1,70,0,1
261156,-83.3333333333333,4,2,1,70,0,1
261691,-100,4,2,1,70,0,0
274727,-100,4,2,1,20,0,0
275263,-100,4,2,1,40,0,0
275620,-100,4,2,1,60,0,0
275977,348.837209302326,4,2,1,40,1,0
275977,-133.333333333333,4,2,1,40,0,0
277372,394.736842105263,4,2,1,40,1,0
277766,370.37037037037,4,2,1,40,1,0
278136,422.535211267606,4,2,1,40,1,0
278981,461.538461538462,4,2,1,40,1,0
279442,416.666666666667,4,2,1,40,1,0
279858,355.029585798817,4,2,1,40,1,0
280213,394.736842105263,4,2,1,40,1,0
280607,434.782608695652,4,2,1,40,1,0
281476,526.315789473684,4,2,1,40,1,0
282528,750,4,2,1,10,1,0

[Colours]
Combo1 : 38,66,89
Combo2 : 255,128,0
Combo3 : 128,0,0
Combo4 : 184,163,152
Combo5 : 255,255,128
Combo6 : 154,100,68
Combo7 : 255,0,0

[HitObjects]
87,92,1692,6,0,B|170:127|179:61|262:95,1,180.000006866455,0|0,0:0|0:0,0:0:0:0:
261,94,3120,2,0,P|219:167|266:249,1,180.000006866455,0|0,0:0|0:0,0:0:0:0:
366,263,4192,1,0,0:0:0:0:
294,343,4549,2,0,P|254:356|196:353,1,90.0000034332276,0|0,0:0|0:0,0:0:0:0:
115,296,5263,2,0,P|74:283|15:289,1,90.0000034332276,0|0,0:0|0:0,0:0:0:0:
66,187,5977,2,0,P|141:167|105:294,1,270.000010299683,0|0,0:0|0:0,0:0:0:0:
201,358,7406,6,0,B|263:330|319:360|319:360|356:347|368:307,1,180.000006866455,0|0,0:0|0:0,0:0:0:0:
361,323,8834,2,0,P|325:272|359:168,1,180.000006866455,0|0,0:0|0:0,0:0:0:0:
459,128,9906,1,0,0:0:0:0:
372,63,10263,2,0,P|327:57|277:69,1,90.0000034332276,0|0,0:0|0:0,0:0:0:0:
189,118,10977,2,0,P|137:119|86:98,1,90.0000034332276,0|0,0:0|0:0,0:0:0:0:
256,192,11691,12,0,13120,0:0:0:0:
174,329,13834,5,0,0:0:0:0:
147,252,14549,1,0,0:0:0:0:
82,209,15263,1,0,0:0:0:0:
2,213,15977,1,0,0:0:0:0:
228,265,17049,5,0,0:0:0:0:
294,220,17227,1,0,0:0:0:0:
301,298,17406,1,0,0:0:0:0:
206,71,17941,6,0,L|219:28,2,30,0|0|0,0:0|0:0|0:0,0:0:0:0:
255,139,18299,2,0,L|299:139,1,30,0|0,0:0|0:0,0:0:0:0:
322,119,18477,2,0,L|361:176,1,60,8|0,0:0|0:0,0:0:0:0:
400,239,18834,6,0,P|354:208|284:227,1,120,4|8,0:0|0:0,0:0:0:0:
251,292,19370,2,0,L|272:329,2,30,0|0|0,0:0|0:0|0:0,0:0:0:0:
209,218,19727,1,0,0:0:0:0:
124,217,19906,2,0,P|92:233|44:236,1,60,8|0,0:0|0:0,0:0:0:0:
0,187,20263,6,0,P|8:136|55:80,1,120,0|8,0:0|0:0,0:0:0:0:
125,47,20799,1,0,0:0:0:0:
139,54,20888,1,0,0:0:0:0:
153,59,20977,1,0,0:0:0:0:
232,32,21156,1,0,0:0:0:0:
272,105,21334,1,8,0:0:0:0:
351,77,21513,1,0,0:0:0:0:
386,152,21691,6,0,L|358:275,1,120,4|8,0:0|0:0,0:0:0:0:
373,351,22227,2,0,P|334:310|256:308,1,120,0|0,0:0|0:0,0:0:0:0:
295,384,22763,1,8,0:0:0:0:
412,269,23120,6,0,L|382:135,1,120,0|8,0:0|0:0,0:0:0:0:
404,69,23656,1,0,0:0:0:0:
323,91,23834,2,0,P|285:90|242:78,1,60,0|0,0:0|0:0,0:0:0:0:
204,25,24191,2,0,L|163:31,3,30,8|0|0|0,0:0|0:0|0:0|0:0,0:0:0:0:
133,16,24549,6,0,P|115:63|136:132,1,120,4|8,0:0|0:0,0:0:0:0:
202,174,25084,2,0,P|147:179|101:234,1,120,4|0,0:0|0:0,0:0:0:0:
182,255,25620,1,8,0:0:0:0:
262,231,25799,1,0,0:0:0:0:
340,202,25977,2,0,L|385:188,3,30,4|0|8|8,0:0|0:0|0:0|0:0,0:0:0:0:
408,206,26334,2,0,L|417:249,3,30,8|8|8|8,0:0|0:0|0:0|0:0,0:0:0:0:
396,276,26691,2,0,L|387:319,3,30,8|8|8|8,0:0|0:0|0:0|0:0,0:0:0:0:
415,339,27049,2,0,L|458:346,3,30,8|8|8|8,0:0|0:0|0:0|0:0,0:0:0:0:
486,352,27406,5,0,0:0:0:0:
509,185,27763,1,8,0:0:0:0:
452,122,27941,2,0,L|441:49,1,60,0|0,0:0|0:0,0:0:0:0:
371,17,28299,1,0,0:0:0:0:
289,35,28477,1,8,0:0:0:0:
206,53,28656,6,0,L|127:72,2,60,0|0|0,0:0|0:0|0:0,0:0:0:0:
260,116,29191,1,8,0:0:0:0:
236,196,29370,2,0,L|215:269,1,60,0|0,0:0|0:0,0:0:0:0:
135,253,29727,2,0,L|111:171,1,60,0|8,0:0|0:0,0:0:0:0:
84,118,30084,1,0,0:0:0:0:
33,184,30263,6,0,L|70:309,1,120,0|8,0:0|0:0,0:0:0:0:
141,337,30799,1,0,0:0:0:0:
154,343,30888,1,0,0:0:0:0:
168,350,30977,2,0,P|204:346|233:330,1,60,0|0,0:0|0:0,0:0:0:0:
275,267,31334,1,8,0:0:0:0:
347,224,31513,6,0,P|390:185|470:192,1,120,0|0,0:0|0:0,0:0:0:0:
422,259,32049,1,8,0:0:0:0:
352,304,32227,1,0,0:0:0:0:
275,267,32406,2,0,L|244:193,2,60,0|0|8,0:0|0:0|0:0,0:0:0:0:
278,350,32941,1,0,0:0:0:0:
203,310,33120,5,0,0:0:0:0:
346,222,33477,1,8,0:0:0:0:
418,179,33656,2,0,L|492:201,1,60,0|0,0:0|0:0,0:0:0:0:
504,275,34013,1,0,0:0:0:0:
473,353,34191,1,8,0:0:0:0:
396,382,34370,1,0,0:0:0:0:
317,351,34549,6,0,P|280:329|205:332,1,120,0|8,0:0|0:0,0:0:0:0:
138,382,35084,2,0,L|171:253,1,120,0|0,0:0|0:0,0:0:0:0:
134,188,35620,2,0,L|69:195,1,60,8|0,0:0|0:0,0:0:0:0:
21,129,35977,2,0,P|39:83|123:52,1,120,0|8,0:0|0:0,0:0:0:0:
181,68,36513,1,0,0:0:0:0:
185,82,36602,1,0,0:0:0:0:
188,96,36691,1,0,0:0:0:0:
253,148,36870,5,0,0:0:0:0:
312,88,37049,1,8,0:0:0:0:
379,137,37227,2,0,B|418:155|418:155|502:130,1,120,0|0,0:0|0:0,0:0:0:0:
452,58,37763,1,8,0:0:0:0:
378,19,37941,2,0,L|314:6,1,60,0|0,0:0|0:0,0:0:0:0:
243,42,38299,1,0,0:0:0:0:
228,47,38388,1,0,0:0:0:0:
215,51,38477,2,0,L|152:72,1,60,8|0,0:0|0:0,0:0:0:0:
115,143,38834,6,0,B|161:153|161:153|241:126,1,120,4|8,0:0|0:0,0:0:0:0:
308,98,39370,2,0,P|278:139|292:220,1,120,0|0,0:0|0:0,0:0:0:0:
448,230,40084,2,0,P|418:183|337:173,1,120,4|0,0:0|0:0,0:0:0:0:
282,205,40620,1,8,0:0:0:0:
218,261,40799,2,0,P|187:272|139:269,1,60,0|0,0:0|0:0,0:0:0:0:
77,258,41156,1,0,0:0:0:0:
70,246,41245,1,0,0:0:0:0:
62,234,41334,1,12,0:0:0:0:
136,192,41513,1,0,0:0:0:0:
193,130,41691,6,0,B|179:46|179:46|194:3,1,120,0|8,0:0|0:0,0:0:0:0:
264,52,42227,1,0,0:0:0:0:
347,64,42406,2,0,P|405:56|463:11,1,120,0|8,0:0|0:0,0:0:0:0:
439,188,43120,6,0,P|439:234|478:195,1,120,4|8,0:0|0:0,0:0:0:0:
488,121,43656,1,0,0:0:0:0:
404,112,43834,2,0,P|366:146|345:220,1,120,12|8,0:0|0:0,0:0:0:0:
362,292,44370,1,8,0:0:0:0:
347,296,44459,1,8,0:0:0:0:
333,299,44549,6,0,L|265:289,1,60,6|0,0:0|0:0,0:0:0:0:
205,240,44906,2,0,L|137:250,1,60,8|0,0:0|0:0,0:0:0:0:
62,261,45263,2,0,L|52:193,1,60,0|0,0:0|0:0,0:0:0:0:
105,135,45620,2,0,L|115:67,1,60,8|0,0:0|0:0,0:0:0:0:
185,31,45977,2,0,P|230:9|317:27,1,120,2|8,0:0|0:0,0:0:0:0:
363,68,46513,1,0,0:0:0:0:
389,147,46691,2,0,P|361:194|372:267,1,120,0|8,0:0|0:0,0:0:0:0:
430,311,47227,1,0,0:0:0:0:
350,337,47406,6,0,P|311:338|272:326,1,60,2|0,0:0|0:0,0:0:0:0:
217,291,47763,2,0,P|183:290|152:301,1,60,8|0,0:0|0:0,0:0:0:0:
78,270,48120,2,0,P|66:239|72:188,1,60,0|0,0:0|0:0,0:0:0:0:
82,130,48477,1,8,0:0:0:0:
149,79,48656,1,0,0:0:0:0:
232,88,48834,2,0,P|269:111|362:91,1,120,2|8,0:0|0:0,0:0:0:0:
383,30,49370,1,0,0:0:0:0:
298,29,49549,2,0,L|279:153,1,120,0|8,0:0|0:0,0:0:0:0:
384,279,50263,6,0,P|439:274|496:320,1,120,4|8,0:0|0:0,0:0:0:0:
419,356,50799,2,0,P|349:356|305:307,1,120,0|0,0:0|0:0,0:0:0:0:
305,241,51334,1,8,0:0:0:0:
403,104,51691,2,0,P|465:109|511:74,1,120,6|8,0:0|0:0,0:0:0:0:
440,27,52227,2,0,P|392:18|329:60,1,120,0|0,0:0|0:0,0:0:0:0:
327,136,52762,1,8,0:0:0:0:
168,192,53120,6,0,B|142:161|142:161|129:59,1,120,6|0,0:0|0:0,0:0:0:0:
61,25,53656,1,0,0:0:0:0:
49,107,53834,2,0,L|63:230,1,120,10|0,0:0|0:0,0:0:0:0:
133,271,54370,1,0,0:0:0:0:
216,262,54549,5,4,0:0:0:0:
349,363,54906,1,0,0:0:0:0:
372,196,55263,1,10,0:0:0:0:
216,262,55620,1,0,0:0:0:0:
382,283,55977,6,0,P|437:256|461:186,1,120,0|8,0:0|0:0,0:0:0:0:
431,125,56513,2,0,P|382:91|374:16,1,120,0|0,0:0|0:0,0:0:0:0:
452,44,57049,1,8,0:0:0:0:
299,114,57406,2,0,B|256:132|256:132|172:112,1,120,0|8,0:0|0:0,0:0:0:0:
136,46,57941,1,0,0:0:0:0:
101,122,58120,2,0,L|113:193,1,60,0|0,0:0|0:0,0:0:0:0:
128,263,58477,1,8,0:0:0:0:
207,289,58656,1,8,0:0:0:0:
220,294,58745,1,8,0:0:0:0:
231,300,58834,6,0,L|297:293,1,60,4|8,0:0|0:0,0:0:0:0:
360,246,59191,1,8,0:0:0:0:
427,195,59370,2,0,L|418:136,1,60,4|8,0:0|0:0,0:0:0:0:
402,52,59727,1,0,0:0:0:0:
339,107,59906,2,0,L|277:97,1,60,4|8,0:0|0:0,0:0:0:0:
195,104,60263,6,0,L|189:147,3,30,8|8|8|8,0:0|0:0|0:0|0:0,0:0:0:0:
216,167,60620,2,0,L|222:210,3,30,8|8|8|8,0:0|0:0|0:0|0:0,0:0:0:0:
199,233,60977,2,0,L|193:276,3,30,8|8|8|8,0:0|0:0|0:0|0:0,0:0:0:0:
217,298,61334,2,0,L|223:341,3,30,8|8|8|8,0:0|0:0|0:0|0:0,0:0:0:0:
226,358,61691,6,0,P|154:318|50:349,2,180.000006866455,4|0|0,0:0|0:0|0:0,0:0:0:0:
435,304,63834,2,0,L|443:205,1,90.0000034332277,0|0,0:0|0:0,0:0:0:0:
390,119,64549,2,0,P|341:132|287:125,1,90.0000034332277,0|0,0:0|0:0,0:0:0:0:
213,68,65263,2,0,P|171:56|110:63,1,90.0000034332277,0|0,0:0|0:0,0:0:0:0:
52,138,65977,1,0,0:0:0:0:
126,215,66334,1,0,0:0:0:0:
53,295,66691,1,0,0:0:0:0:
123,377,67049,1,0,0:0:0:0:
222,335,67406,6,0,B|264:318|309:339|309:339|332:318|332:318|363:334|403:325,2,180.000006866455,0|0|0,0:0|0:0|0:0,0:0:0:0:
167,125,69549,2,0,L|188:25,1,90.0000034332277,0|0,0:0|0:0,0:0:0:0:
292,52,70263,2,0,P|331:55|392:34,1,90.0000034332277,0|0,0:0|0:0,0:0:0:0:
475,90,70977,2,0,P|479:127|506:179,1,90.0000034332277,0|0,0:0|0:0,0:0:0:0:
412,286,71691,2,8,L|342:278,1,60,8|8,0:0|0:0,0:0:0:0:
228,205,72227,1,0,0:0:0:0:
228,205,72406,2,8,L|218:272,1,60,8|8,0:0|0:0,0:0:0:0:
70,107,73120,6,0,P|102:84|193:98,1,120,6|8,0:0|0:0,0:0:0:0:
262,100,73656,1,0,0:0:0:0:
333,56,73834,2,0,B|411:37|389:73|462:49,1,120,2|8,0:0|0:0,0:0:0:0:
415,216,74549,2,0,P|425:274|489:314,1,120,2|8,0:0|0:0,0:0:0:0:
497,231,75084,1,0,0:0:0:0:
473,150,75263,6,0,P|446:134|399:130,1,60,2|0,0:0|0:0,0:0:0:0:
342,165,75620,2,0,P|329:195|327:229,1,60,10|0,0:0|0:0,0:0:0:0:
274,288,75977,2,0,P|249:305|221:314,1,60,2|0,0:0|0:0,0:0:0:0:
143,281,76334,2,0,P|127:255|122:225,1,60,10|0,0:0|0:0,0:0:0:0:
149,146,76691,2,0,P|177:132|200:104,1,60,2|0,0:0|0:0,0:0:0:0:
191,26,77049,2,0,P|168:12|130:5,1,60,10|0,0:0|0:0,0:0:0:0:
55,29,77406,6,0,P|40:69|77:151,1,120,2|8,0:0|0:0,0:0:0:0:
149,146,77941,1,0,0:0:0:0:
228,117,78120,2,0,L|270:126,3,30,0|0|0|0,0:0|0:0|0:0|0:0,0:0:0:0:
297,109,78477,2,0,L|339:100,3,30,8|0|0|0,0:0|0:0|0:0|0:0,0:0:0:0:
368,95,78834,6,0,B|392:133|392:133|378:217,1,120,4|8,0:0|0:0,0:0:0:0:
435,270,79370,2,0,P|389:257|326:285,1,120,4|0,0:0|0:0,0:0:0:0:
389,339,79906,1,8,0:0:0:0:
486,204,80263,2,0,L|499:123,1,60,4|0,0:0|0:0,0:0:0:0:
427,94,80620,2,0,L|367:94,1,60,8|4,0:0|0:0,0:0:0:0:
288,67,80977,2,0,P|316:107|306:194,1,120,0|8,0:0|0:0,0:0:0:0:
192,290,81691,6,0,L|64:261,1,120,12|8,0:0|0:0,0:0:0:0:
22,197,82227,1,0,0:0:0:0:
98,162,82406,1,8,0:0:0:0:
47,95,82584,1,8,0:0:0:0:
125,64,82763,2,0,L|203:44,1,60,8|8,0:0|0:0,0:0:0:0:
260,81,83120,5,8,0:0:0:0:
298,6,83299,1,0,0:0:0:0:
371,46,83477,1,8,0:0:0:0:
452,26,83656,1,0,0:0:0:0:
511,85,83834,2,0,L|511:157,1,60,8|8,0:0|0:0,0:0:0:0:
444,196,84191,2,8,L|395:185,3,30,8|8|8|8,0:0|0:0|0:0|0:0,0:0:0:0:
372,182,84549,5,12,0:0:0:0:
247,294,84906,1,8,0:0:0:0:
219,209,85084,2,0,L|235:140,2,60,0|0|0,0:0|0:0|0:0,0:0:0:0:
162,275,85620,1,8,0:0:0:0:
80,252,85799,2,0,L|7:274,1,60,0|0,0:0|0:0,0:0:0:0:
1,350,86156,5,0,0:0:0:0:
25,183,86513,1,0,0:0:0:0:
162,275,86870,1,0,0:0:0:0:
210,205,87049,1,8,0:0:0:0:
289,232,87227,2,0,L|360:210,1,60,0|4,0:0|0:0,0:0:0:0:
508,167,87763,5,8,0:0:0:0:
456,101,87941,2,0,L|469:35,2,60,0|0|0,0:0|0:0|0:0,0:0:0:0:
381,140,88477,1,8,0:0:0:0:
300,114,88656,2,0,L|233:97,1,60,0|0,0:0|0:0,0:0:0:0:
170,55,89013,5,0,0:0:0:0:
335,38,89370,2,0,P|376:81|381:140,1,120,0|0,0:0|0:0,0:0:0:0:
319,196,89906,2,0,L|270:214,3,30,12|0|0|0,0:0|0:0|0:0|0:0,0:0:0:0:
251,221,90263,5,4,0:0:0:0:
96,156,90620,1,8,0:0:0:0:
42,221,90799,2,0,L|66:294,2,60,0|0|0,0:0|0:0|0:0,0:0:0:0:
13,142,91334,1,8,0:0:0:0:
66,77,91513,2,0,L|115:26,1,60,0|0,0:0|0:0,0:0:0:0:
187,60,91870,5,0,0:0:0:0:
354,53,92227,1,0,0:0:0:0:
512,0,92584,1,0,0:0:0:0:
465,70,92763,1,8,0:0:0:0:
511,139,92941,2,0,L|511:220,1,60,0|4,0:0|0:0,0:0:0:0:
391,317,93477,5,8,0:0:0:0:
319,272,93656,2,0,L|242:272,2,60,0|0|0,0:0|0:0|0:0,0:0:0:0:
390,229,94191,1,8,0:0:0:0:
390,144,94370,2,0,L|390:74,1,60,0|0,0:0|0:0,0:0:0:0:
389,0,94727,5,0,0:0:0:0:
232,57,95084,2,0,P|185:66|111:37,1,120,0|0,0:0|0:0,0:0:0:0:
35,55,95620,2,0,L|18:94,3,30,8|0|0|0,0:0|0:0|0:0|0:0,0:0:0:0:
4,120,95977,5,4,0:0:0:0:
95,261,96334,1,8,0:0:0:0:
171,225,96513,1,0,0:0:0:0:
185,229,96602,1,0,0:0:0:0:
196,232,96691,2,0,L|269:250,1,60,0|0,0:0|0:0,0:0:0:0:
313,179,97049,2,0,L|386:161,1,60,8|0,0:0|0:0,0:0:0:0:
416,93,97406,6,0,P|451:139|447:201,1,120,0|8,0:0|0:0,0:0:0:0:
379,248,97941,2,0,P|423:243|489:293,1,120,0|0,0:0|0:0,0:0:0:0:
411,326,98477,2,0,P|379:332|339:320,1,60,8|0,0:0|0:0,0:0:0:0:
296,263,98834,6,0,B|287:184|287:184|255:146,1,120,0|8,0:0|0:0,0:0:0:0:
177,140,99370,1,0,0:0:0:0:
191,224,99549,2,0,P|237:262|296:263,1,120,0|8,0:0|0:0,0:0:0:0:
379,248,100084,1,0,0:0:0:0:
457,278,100263,6,0,P|470:306|472:354,2,60,0|0|8,0:0|0:0|0:0,0:0:0:0:
445,194,100799,1,0,0:0:0:0:
450,181,100888,1,0,0:0:0:0:
455,169,100977,1,0,0:0:0:0:
421,91,101156,2,0,L|347:96,1,60,0|8,0:0|0:0,0:0:0:0:
285,58,101513,1,0,0:0:0:0:
207,27,101691,6,0,P|240:72|235:150,1,120,4|8,0:0|0:0,0:0:0:0:
181,193,102227,2,0,P|212:183|296:224,1,120,0|0,0:0|0:0,0:0:0:0:
223,266,102763,1,8,0:0:0:0:
58,230,103120,6,0,L|47:102,1,120,4|8,0:0|0:0,0:0:0:0:
12,33,103656,2,0,P|48:56|129:53,1,120,0|0,0:0|0:0,0:0:0:0:
189,4,104191,1,8,0:0:0:0:
201,87,104370,1,0,0:0:0:0:
269,37,104549,6,0,P|320:11|389:19,1,120,4|8,0:0|0:0,0:0:0:0:
449,64,105084,2,0,L|465:134,1,60,0|0,0:0|0:0,0:0:0:0:
398,176,105441,2,0,L|382:246,1,60,0|8,0:0|0:0,0:0:0:0:
400,317,105799,6,0,P|376:290|290:276,1,120,4|0,0:0|0:0,0:0:0:0:
227,320,106334,1,8,0:0:0:0:
144,304,106513,2,0,L|131:226,1,60,0|0,0:0|0:0,0:0:0:0:
84,176,106870,1,0,0:0:0:0:
87,163,106959,1,0,0:0:0:0:
89,150,107049,1,12,0:0:0:0:
110,68,107227,1,0,0:0:0:0:
188,36,107406,6,0,B|229:24|229:24|317:52,1,120,4|8,0:0|0:0,0:0:0:0:
380,79,107941,1,0,0:0:0:0:
382,93,108031,1,0,0:0:0:0:
385,108,108120,2,0,L|394:175,1,60,0|0,0:0|0:0,0:0:0:0:
456,222,108477,1,8,0:0:0:0:
376,250,108656,1,0,0:0:0:0:
297,280,108834,6,0,P|250:254|169:270,1,120,4|8,0:0|0:0,0:0:0:0:
314,364,109549,2,0,P|342:352|364:332,1,60,12|8,0:0|0:0,0:0:0:0:
376,250,109906,2,8,L|368:215,3,30,8|8|8|8,0:0|0:0|0:0|0:0,0:0:0:0:
358,179,110263,6,0,L|432:189,1,60,4|0,0:0|0:0,0:0:0:0:
459,114,110620,2,0,L|385:104,1,60,8|0,0:0|0:0,0:0:0:0:
336,52,110977,2,0,L|262:42,1,60,0|0,0:0|0:0,0:0:0:0:
234,116,111334,2,0,L|308:126,1,60,8|0,0:0|0:0,0:0:0:0:
358,179,111691,6,0,P|366:221|323:296,1,120,2|8,0:0|0:0,0:0:0:0:
252,310,112227,1,0,0:0:0:0:
178,265,112406,2,0,B|124:244|115:287|43:256,1,120,0|8,0:0|0:0,0:0:0:0:
92,185,112941,1,0,0:0:0:0:
130,110,113120,6,0,L|201:100,1,60,2|0,0:0|0:0,0:0:0:0:
224,25,113477,2,0,L|290:51,1,60,8|0,0:0|0:0,0:0:0:0:
351,2,113834,2,0,L|395:58,1,60,0|0,0:0|0:0,0:0:0:0:
439,116,114191,1,8,0:0:0:0:
401,191,114370,1,0,0:0:0:0:
363,266,114549,6,0,P|318:256|251:290,1,120,2|8,0:0|0:0,0:0:0:0:
242,369,115084,1,0,0:0:0:0:
322,341,115263,2,0,L|294:214,1,120,0|8,0:0|0:0,0:0:0:0:
189,94,115977,6,0,P|128:98|75:53,1,120,4|8,0:0|0:0,0:0:0:0:
4,32,116513,2,0,P|29:68|28:154,1,120,0|0,0:0|0:0,0:0:0:0:
0,219,117049,1,8,0:0:0:0:
153,286,117406,2,0,P|193:262|284:271,1,120,6|8,0:0|0:0,0:0:0:0:
348,266,117941,2,0,P|302:226|295:153,1,120,0|0,0:0|0:0,0:0:0:0:
316,90,118477,1,0,0:0:0:0:
462,172,118834,6,0,L|449:306,1,120,2|0,0:0|0:0,0:0:0:0:
384,344,119370,1,0,0:0:0:0:
300,337,119549,2,0,B|261:309|261:309|167:319,1,120,10|0,0:0|0:0,0:0:0:0:
106,330,120084,1,0,0:0:0:0:
22,342,120263,5,4,0:0:0:0:
85,186,120620,1,0,0:0:0:0:
189,316,120977,2,0,L|336:303,1,120,10|0,0:0|0:0,0:0:0:0:
427,187,121691,6,0,P|409:140|343:108,1,120,0|8,0:0|0:0,0:0:0:0:
266,101,122227,2,0,P|311:68|389:60,1,120,0|0,0:0|0:0,0:0:0:0:
456,72,122763,1,8,0:0:0:0:
341,195,123120,2,0,L|357:320,1,120,0|8,0:0|0:0,0:0:0:0:
303,379,123655,1,0,0:0:0:0:
225,345,123834,2,0,L|151:339,1,60,0|0,0:0|0:0,0:0:0:0:
81,330,124191,1,8,0:0:0:0:
61,248,124370,1,8,0:0:0:0:
55,232,124459,1,8,0:0:0:0:
49,218,124548,6,0,L|63:150,1,60,12|8,0:0|0:0,0:0:0:0:
121,100,124905,1,8,0:0:0:0:
194,140,125084,2,0,L|263:134,1,60,4|8,0:0|0:0,0:0:0:0:
337,129,125441,1,0,0:0:0:0:
421,126,125620,2,0,L|435:194,1,60,4|8,0:0|0:0,0:0:0:0:
394,259,125977,6,8,L|355:254,3,30,8|8|8|8,0:0|0:0|0:0|0:0,0:0:0:0:
326,235,126334,2,8,L|287:240,3,30,8|8|8|8,0:0|0:0|0:0|0:0,0:0:0:0:
258,258,126691,2,8,L|219:253,3,30,8|8|8|8,0:0|0:0|0:0|0:0,0:0:0:0:
189,235,127049,2,8,L|150:240,3,30,8|8|8|8,0:0|0:0|0:0|0:0,0:0:0:0:
117,267,127406,6,0,P|128:227|87:128,1,143.999995605469,6|8,0:0|0:0,0:0:0:0:
0,102,127941,1,0,0:0:0:0:
133,45,128120,2,0,P|208:45|283:96,1,143.999995605469,2|8,0:0|0:0,0:0:0:0:
308,170,128656,1,0,0:0:0:0:
241,296,128834,2,0,P|211:241|220:141,1,143.999995605469,2|8,0:0|0:0,0:0:0:0:
266,77,129370,1,0,0:0:0:0:
419,93,129549,6,0,P|460:86|497:59,1,71.9999978027344,2|0,0:0|0:0,0:0:0:0:
337,133,129906,2,0,P|322:172|327:217,1,71.9999978027344,10|0,0:0|0:0,0:0:0:0:
345,47,130263,2,0,P|323:16|283:-6,1,71.9999978027344,2|0,0:0|0:0,0:0:0:0:
168,57,130620,2,0,P|130:53|87:70,1,71.9999978027344,10|0,0:0|0:0,0:0:0:0:
53,196,130977,2,0,P|26:223|11:266,1,71.9999978027344,2|0,0:0|0:0,0:0:0:0:
139,332,131334,2,0,P|165:304|180:261,1,71.9999978027344,10|0,0:0|0:0,0:0:0:0:
283,174,131691,6,0,P|355:154|428:181,3,143.999995605469,2|8|0|8,0:0|0:0|0:0|0:0,0:0:0:0:
481,253,132941,1,0,0:0:0:0:
343,296,133120,6,0,P|303:258|285:159,1,143.999995605469,6|8,0:0|0:0,0:0:0:0:
322,81,133656,1,0,0:0:0:0:
201,165,133834,2,0,P|132:157|66:105,1,143.999995605469,2|8,0:0|0:0,0:0:0:0:
34,20,134370,1,0,0:0:0:0:
0,168,134549,2,0,P|12:234|69:298,1,143.999995605469,2|8,0:0|0:0,0:0:0:0:
159,302,135084,1,0,0:0:0:0:
300,251,135263,2,0,P|362:226|460:237,1,143.999995605469,10|10,0:0|0:0,0:0:0:0:
508,301,135799,1,0,0:0:0:0:
498,158,135977,6,0,L|511:81,1,71.9999978027344,6|0,0:0|0:0,0:0:0:0:
393,0,136334,2,0,L|404:70,1,71.9999978027344,10|0,0:0|0:0,0:0:0:0:
357,161,136691,1,2,0:0:0:0:
338,159,136781,1,8,0:0:0:0:
320,156,136870,1,0,0:0:0:0:
203,74,137049,2,0,L|114:87,1,71.9999978027344,10|0,0:0|0:0,0:0:0:0:
35,115,137406,5,6,0:0:0:0:
0,209,137584,1,0,0:0:0:0:
60,289,137763,1,8,0:0:0:0:
94,194,137941,1,0,0:0:0:0:
162,268,138120,2,0,L|242:247,1,71.9999978027344,8|8,0:0|0:0,0:0:0:0:
325,218,138477,5,8,0:0:0:0:
342,212,138566,1,8,0:0:0:0:
358,205,138656,1,8,0:0:0:0:
374,199,138745,1,8,0:0:0:0:
390,192,138834,6,0,B|425:178|425:178|462:75,1,143.999995605469,6|8,0:0|0:0,0:0:0:0:
395,0,139370,1,0,0:0:0:0:
262,66,139549,2,0,B|223:86|223:86|105:55,1,143.999995605469,2|8,0:0|0:0,0:0:0:0:
28,35,140084,1,0,0:0:0:0:
107,154,140263,2,0,B|131:191|131:191|109:306,1,143.999995605469,2|8,0:0|0:0,0:0:0:0:
33,351,140799,1,0,0:0:0:0:
184,341,140977,6,0,P|222:343|278:375,1,71.9999978027344,2|0,0:0|0:0,0:0:0:0:
305,228,141334,2,0,P|336:248|369:304,1,71.9999978027344,10|0,0:0|0:0,0:0:0:0:
465,192,141691,2,0,P|482:225|482:290,1,71.9999978027344,2|0,0:0|0:0,0:0:0:0:
377,163,142049,2,0,P|384:119|407:75,1,71.9999978027344,10|0,0:0|0:0,0:0:0:0:
267,27,142406,2,0,P|225:22|191:26,1,71.9999978027344,2|0,0:0|0:0,0:0:0:0:
97,165,142763,2,0,P|90:121|67:77,1,71.9999978027344,10|0,0:0|0:0,0:0:0:0:
57,245,143120,6,0,P|102:262|227:249,1,143.999995605469,2|8,0:0|0:0,0:0:0:0:
270,192,143656,1,0,0:0:0:0:
265,174,143745,1,0,0:0:0:0:
259,157,143834,1,0,0:0:0:0:
306,67,144013,1,0,0:0:0:0:
391,119,144191,1,8,0:0:0:0:
451,38,144370,1,0,0:0:0:0:
475,182,144549,6,0,P|456:226|460:334,1,143.999995605469,4|8,0:0|0:0,0:0:0:0:
320,366,145084,2,0,P|264:344|162:358,1,143.999995605469,4|0,0:0|0:0,0:0:0:0:
80,346,145620,1,8,0:0:0:0:
139,264,145799,1,0,0:0:0:0:
281,262,145977,6,0,L|311:344,1,71.9999978027344,4|0,0:0|0:0,0:0:0:0:
402,221,146334,2,0,P|412:180|406:138,1,71.9999978027344,8|4,0:0|0:0,0:0:0:0:
332,28,146691,2,0,P|322:69|328:111,1,71.9999978027344,0|0,0:0|0:0,0:0:0:0:
244,160,147049,1,8,0:0:0:0:
143,165,147227,1,0,0:0:0:0:
64,101,147406,2,0,P|115:58|200:45,1,143.999995605469,12|8,0:0|0:0,0:0:0:0:
285,71,147941,5,0,0:0:0:0:
351,147,148120,1,8,0:0:0:0:
340,247,148299,1,8,0:0:0:0:
277,325,148477,1,8,0:0:0:0:
209,249,148656,1,8,0:0:0:0:
109,232,148834,6,0,L|33:263,1,71.9999978027344,8|0,0:0|0:0,0:0:0:0:
22,358,149191,1,8,0:0:0:0:
122,367,149370,1,0,0:0:0:0:
224,374,149549,2,0,L|285:316,1,71.9999978027344,8|8,0:0|0:0,0:0:0:0:
342,248,149906,5,8,0:0:0:0:
324,246,149995,1,8,0:0:0:0:
306,244,150084,1,8,0:0:0:0:
288,242,150174,1,8,0:0:0:0:
273,240,150263,6,0,B|212:222|163:264|163:264|135:237|135:237|101:262|49:289|-25:268|-51:158|4:102|80:90|136:139|136:139|116:70|134:11|210:-47|273:134|152:143|80:30,1,840,4|8,0:0|0:0,0:0:0:0:
84,270,161691,6,0,B|139:241|197:280|197:280|220:257|220:257|267:279|314:249,1,240,0|0,0:0|0:0,0:0:0:0:
260,182,162584,1,0,0:0:0:0:
212,112,162763,1,8,0:0:0:0:
165,42,162941,2,0,B|121:26|121:26|49:41,1,120,0|0,0:0|0:0,0:0:0:0:
170,155,163656,2,0,L|213:110,1,60,0|0,0:0|0:0,0:0:0:0:
295,109,164013,2,0,L|340:161,2,60,0|8|0,0:0|0:0|0:0,0:0:0:0:
254,182,164549,6,0,B|239:235|272:239|254:303,1,120,0|8,0:0|0:0,0:0:0:0:
190,353,165084,2,0,P|238:322|306:329,1,120,0|0,0:0|0:0,0:0:0:0:
369,371,165620,1,8,0:0:0:0:
440,326,165799,2,0,P|464:285|460:209,1,120,0|0,0:0|0:0,0:0:0:0:
412,147,166334,1,8,0:0:0:0:
334,115,166513,2,0,P|396:95|427:42,1,120,0|0,0:0|0:0,0:0:0:0:
343,30,167049,1,8,0:0:0:0:
266,63,167227,1,8,0:0:0:0:
261,77,167316,1,8,0:0:0:0:
258,88,167406,6,0,B|247:130|247:130|272:218,1,120,4|8,0:0|0:0,0:0:0:0:
337,251,167941,2,0,L|363:242,2,20,0|0|0,0:0|0:0|0:0,0:0:0:0:
328,278,168120,2,0,L|309:354,1,60,0|0,0:0|0:0,0:0:0:0:
241,380,168477,1,8,0:0:0:0:
171,333,168656,6,0,P|122:293|52:300,1,120,0|0,0:0|0:0,0:0:0:0:
12,356,169191,1,8,0:0:0:0:
95,376,169370,2,0,L|145:246,1,120,0|0,0:0|0:0,0:0:0:0:
171,186,169906,1,8,0:0:0:0:
145,106,170084,1,0,0:0:0:0:
139,93,170174,1,0,0:0:0:0:
133,81,170263,1,4,0:0:0:0:
298,55,170620,5,8,0:0:0:0:
273,135,170799,1,4,0:0:0:0:
341,288,171156,5,4,0:0:0:0:
181,339,171513,2,0,L|64:311,1,120,4|0,0:0|0:0,0:0:0:0:
45,228,172049,1,8,0:0:0:0:
86,155,172227,1,0,0:0:0:0:
169,142,172406,1,0,0:0:0:0:
232,195,172584,1,0,0:0:0:0:
316,200,172763,2,0,L|348:180,3,30,8|0|0|0,0:0|0:0|0:0|0:0,0:0:0:0:
377,161,173120,6,0,B|396:200|396:200|381:291,1,120,4|8,0:0|0:0,0:0:0:0:
239,361,173834,1,0,0:0:0:0:
163,323,174013,1,0,0:0:0:0:
79,326,174191,2,0,P|66:296|66:256,1,60,8|0,0:0|0:0,0:0:0:0:
108,196,174549,2,0,P|160:192|223:149,1,120,0|8,0:0|0:0,0:0:0:0:
243,77,175084,1,0,0:0:0:0:
301,137,175263,5,0,0:0:0:0:
278,217,175441,1,0,0:0:0:0:
253,297,175620,1,8,0:0:0:0:
228,377,175799,2,0,P|205:326|132:301,1,120,0|0,0:0|0:0,0:0:0:0:
146,383,176334,1,8,0:0:0:0:
313,369,176691,5,0,0:0:0:0:
366,304,176870,1,0,0:0:0:0:
416,236,177049,2,0,L|392:158,1,60,8|0,0:0|0:0,0:0:0:0:
281,288,177584,5,0,0:0:0:0:
254,208,177763,1,8,0:0:0:0:
226,129,177941,1,0,0:0:0:0:
195,275,178299,5,0,0:0:0:0:
112,262,178477,1,8,0:0:0:0:
28,256,178656,1,0,0:0:0:0:
26,241,178745,1,0,0:0:0:0:
24,226,178834,6,0,L|1:94,1,120,4|8,0:0|0:0,0:0:0:0:
47,36,179370,2,0,P|98:24|172:71,1,120,0|0,0:0|0:0,0:0:0:0:
176,133,179906,2,0,P|201:80|272:56,1,120,8|0,0:0|0:0,0:0:0:0:
335,76,180441,1,0,0:0:0:0:
415,100,180620,1,8,0:0:0:0:
479,254,180977,2,0,B|443:265|443:265|353:242,1,120,0|8,0:0|0:0,0:0:0:0:
350,161,181513,1,0,0:0:0:0:
286,215,181691,6,0,P|280:253|336:323,1,120,4|8,0:0|0:0,0:0:0:0:
404,340,182227,1,0,0:0:0:0:
419,345,182316,1,0,0:0:0:0:
434,350,182406,1,0,0:0:0:0:
506,308,182584,2,0,L|478:253,1,60,0|8,0:0|0:0,0:0:0:0:
435,182,182941,2,0,L|456:101,1,60,4|0,0:0|0:0,0:0:0:0:
431,41,183299,6,0,L|440:5,2,30,8|0|0,0:0|0:0|0:0,0:0:0:0:
371,100,183656,2,0,L|362:136,2,30,0|0|0,0:0|0:0|0:0,0:0:0:0:
348,18,184013,2,0,L|308:9,5,30,0|0|0|0|0|0,0:0|0:0|0:0|0:0|0:0|0:0,0:0:0:0:
277,0,184549,1,4,0:0:0:0:
115,47,195977,6,0,L|221:60,1,90.0000034332277,0|0,0:0|0:0,0:0:0:0:
310,75,196691,1,8,0:0:0:0:
184,176,197227,1,0,0:0:0:0:
184,176,197406,2,0,L|168:271,1,90.0000034332277,0|0,0:0|0:0,0:0:0:0:
148,370,198120,1,8,0:0:0:0:
252,344,198477,1,0,0:0:0:0:
252,344,198656,1,0,0:0:0:0:
252,344,198834,6,0,L|357:364,1,90.0000034332277,0|0,0:0|0:0,0:0:0:0:
446,384,199549,1,8,0:0:0:0:
416,280,199906,1,0,0:0:0:0:
416,280,200084,1,0,0:0:0:0:
416,280,200263,2,0,L|393:187,1,90.0000034332277,0|0,0:0|0:0,0:0:0:0:
367,84,200977,1,8,0:0:0:0:
367,84,201691,6,0,L|285:72,1,60,4|0,0:0|0:0,0:0:0:0:
246,17,202049,2,0,L|168:47,1,60,0|0,0:0|0:0,0:0:0:0:
112,7,202406,2,0,L|60:72,1,60,8|0,0:0|0:0,0:0:0:0:
25,122,202763,1,0,0:0:0:0:
108,131,202941,6,0,L|180:136,2,60,0|4|0,0:0|0:0|0:0,0:0:0:0:
60,200,203477,2,0,L|76:267,1,60,0|0,0:0|0:0,0:0:0:0:
158,262,203834,2,0,L|205:312,1,60,8|0,0:0|0:0,0:0:0:0:
283,311,204191,1,0,0:0:0:0:
332,243,204370,6,0,L|333:171,2,60,0|4|0,0:0|0:0|0:0,0:0:0:0:
370,317,204906,1,8,0:0:0:0:
453,322,205084,2,0,L|524:327,2,60,0|0|0,0:0|0:0|0:0,0:0:0:0:
416,245,205620,2,0,L|418:178,1,60,8|0,0:0|0:0,0:0:0:0:
400,102,205977,5,4,0:0:0:0:
316,108,206156,1,0,0:0:0:0:
232,118,206334,1,8,0:0:0:0:
132,253,206691,5,4,0:0:0:0:
69,96,207049,1,8,0:0:0:0:
117,27,207227,1,8,0:0:0:0:
129,28,207316,1,8,0:0:0:0:
140,30,207406,6,0,L|208:36,1,60,4|8,0:0|0:0,0:0:0:0:
271,79,207763,1,8,0:0:0:0:
354,71,207941,2,0,L|425:67,1,60,4|8,0:0|0:0,0:0:0:0:
482,117,208299,1,0,0:0:0:0:
511,195,208477,2,0,L|494:268,1,60,4|8,0:0|0:0,0:0:0:0:
420,288,208834,6,0,L|380:283,3,30,8|8|8|8,0:0|0:0|0:0|0:0,0:0:0:0:
355,259,209191,2,0,L|315:264,3,30,8|8|8|8,0:0|0:0|0:0|0:0,0:0:0:0:
291,236,209549,2,0,L|297:199,3,30,8|8|8|8,0:0|0:0|0:0|0:0,0:0:0:0:
274,169,209906,2,0,L|268:132,3,30,8|8|8|8,0:0|0:0|0:0|0:0,0:0:0:0:
263,108,210263,6,0,P|307:89|430:149,2,180.000006866455,4|0|0,0:0|0:0|0:0,0:0:0:0:
366,297,212406,2,0,L|471:283,1,90.0000034332277,0|0,0:0|0:0,0:0:0:0:
380,207,213120,2,0,P|332:209|287:245,1,90.0000034332277,0|0,0:0|0:0,0:0:0:0:
192,257,213834,2,0,P|144:252|104:222,1,90.0000034332277,0|0,0:0|0:0,0:0:0:0:
73,127,214549,6,0,L|168:114,1,90.0000034332277,0|0,0:0|0:0,0:0:0:0:
219,23,215263,2,0,L|314:36,1,90.0000034332277,0|0,0:0|0:0,0:0:0:0:
399,92,215977,6,0,B|432:184|373:177|402:274,2,180.000006866455,0|0|0,0:0|0:0|0:0,0:0:0:0:
214,204,218120,2,0,L|312:228,1,90.0000034332277,0|0,0:0|0:0,0:0:0:0:
400,268,218834,2,0,P|368:312|329:331,1,90.0000034332277,0|0,0:0|0:0,0:0:0:0:
233,288,219549,2,0,P|232:237|205:194,1,90.0000034332277,0|0,0:0|0:0,0:0:0:0:
83,143,220263,6,0,L|144:128,1,60,8|8,0:0|0:0,0:0:0:0:
262,50,220799,1,0,0:0:0:0:
262,50,220977,2,0,L|323:65,1,60,8|8,0:0|0:0,0:0:0:0:
460,228,221691,6,0,P|439:284|378:325,1,120,6|8,0:0|0:0,0:0:0:0:
310,303,222227,1,0,0:0:0:0:
259,236,222405,2,0,P|209:194|142:197,1,120,2|8,0:0|0:0,0:0:0:0:
113,354,223120,2,0,L|235:310,1,120,2|8,0:0|0:0,0:0:0:0:
310,303,223655,1,0,0:0:0:0:
387,336,223834,6,0,L|439:366,1,60,2|0,0:0|0:0,0:0:0:0:
507,316,224191,2,0,L|506:255,1,60,10|0,0:0|0:0,0:0:0:0:
429,223,224549,2,0,L|377:253,1,60,2|0,0:0|0:0,0:0:0:0:
300,218,224906,2,0,L|299:157,1,60,10|0,0:0|0:0,0:0:0:0:
368,108,225263,2,0,L|419:138,1,60,2|0,0:0|0:0,0:0:0:0:
429,223,225620,2,0,L|377:253,1,60,10|0,0:0|0:0,0:0:0:0:
310,303,225977,6,0,P|269:264|192:263,1,120,2|8,0:0|0:0,0:0:0:0:
131,292,226512,1,0,0:0:0:0:
49,270,226691,2,0,P|33:237|28:188,1,60,0|0,0:0|0:0,0:0:0:0:
60,136,227048,2,0,L|104:142,3,30,0|0|0|0,0:0|0:0|0:0|0:0,0:0:0:0:
126,160,227405,6,0,B|255:137,1,120,4|8,0:0|0:0,0:0:0:0:
287,66,227941,2,0,P|294:115|354:160,1,120,4|0,0:0|0:0,0:0:0:0:
370,77,228477,1,8,0:0:0:0:
210,24,228834,2,0,L|128:38,1,60,4|0,0:0|0:0,0:0:0:0:
68,49,229191,2,0,L|68:120,1,60,8|4,0:0|0:0,0:0:0:0:
11,171,229548,2,0,P|65:164|120:200,1,120,0|8,0:0|0:0,0:0:0:0:
230,322,230262,6,0,P|296:328|353:277,1,120,4|8,0:0|0:0,0:0:0:0:
272,248,230798,1,0,0:0:0:0:
187,245,230977,2,0,P|156:273|154:363,1,120,0|8,0:0|0:0,0:0:0:0:
64,366,231513,1,0,0:0:0:0:
46,369,231602,1,0,0:0:0:0:
28,372,231691,2,0,B|0:291|0:291|9:248,1,120,0|8,0:0|0:0,0:0:0:0:
124,136,232406,6,0,L|208:136,1,60,0|0,0:0|0:0,0:0:0:0:
255,180,232763,1,8,0:0:0:0:
297,107,232941,1,0,0:0:0:0:
340,34,233120,2,0,L|420:34,2,60,4|0|8,0:0|0:0|0:0,0:0:0:0:
380,110,233656,2,0,B|468:109|468:109|511:138,1,120,0|0,0:0|0:0,0:0:0:0:
457,202,234191,1,8,0:0:0:0:
419,277,234370,2,0,L|285:277,2,120,0|0|0,0:0|0:0|0:0,0:0:0:0:
271,356,235441,5,0,0:0:0:0:
217,291,235620,1,8,0:0:0:0:
164,225,235799,1,0,0:0:0:0:
153,213,235888,1,0,0:0:0:0:
144,203,235977,1,4,0:0:0:0:
236,62,236334,6,0,P|264:49|309:48,1,60,8|0,0:0|0:0,0:0:0:0:
352,104,236691,2,0,P|349:134|327:174,1,60,8|0,0:0|0:0,0:0:0:0:
256,186,237049,2,0,P|230:168|207:129,1,60,8|0,0:0|0:0,0:0:0:0:
137,107,237406,2,0,P|102:182|119:289,1,180,4|0,0:0|0:0,0:0:0:0:
194,296,238120,2,0,P|219:279|254:270,1,60,8|8,0:0|0:0,0:0:0:0:
329,289,238477,2,0,L|337:332,3,30,8|8|8|8,0:0|0:0|0:0|0:0,0:0:0:0:
370,354,238834,6,0,L|395:201,1,143.999995605469,6|8,0:0|0:0,0:0:0:0:
465,141,239369,1,0,0:0:0:0:
347,58,239548,2,0,L|203:72,1,143.999995605469,2|8,0:0|0:0,0:0:0:0:
111,31,240084,1,0,0:0:0:0:
142,169,240262,2,0,L|286:152,1,143.999995605469,2|8,0:0|0:0,0:0:0:0:
378,141,240798,1,0,0:0:0:0:
483,238,240977,6,0,L|497:324,1,71.9999978027344,2|0,0:0|0:0,0:0:0:0:
354,317,241334,2,0,L|323:398,1,71.9999978027344,10|0,0:0|0:0,0:0:0:0:
191,335,241691,2,0,L|123:390,1,71.9999978027344,2|0,0:0|0:0,0:0:0:0:
69,248,242049,2,0,L|20:191,1,71.9999978027344,10|0,0:0|0:0,0:0:0:0:
144,121,242406,2,0,L|130:47,1,71.9999978027344,2|0,0:0|0:0,0:0:0:0:
278,67,242763,2,0,L|302:-3,1,71.9999978027344,10|0,0:0|0:0,0:0:0:0:
376,125,243119,6,0,P|448:149|520:116,3,143.999995605469,2|8|0|8,0:0|0:0|0:0|0:0,0:0:0:0:
442,50,244369,1,0,0:0:0:0:
429,190,244548,6,0,L|483:328,1,143.999995605469,6|8,0:0|0:0,0:0:0:0:
398,381,245084,1,0,0:0:0:0:
266,317,245263,2,0,L|128:371,1,143.999995605469,2|8,0:0|0:0,0:0:0:0:
34,344,245798,1,0,0:0:0:0:
120,228,245977,2,0,L|66:90,1,143.999995605469,2|8,0:0|0:0,0:0:0:0:
122,10,246512,1,0,0:0:0:0:
244,80,246691,2,0,L|382:26,1,143.999995605469,2|10,0:0|0:0,0:0:0:0:
473,59,247227,1,0,0:0:0:0:
443,200,247405,6,0,P|449:238|481:286,1,71.9999978027344,6|0,0:0|0:0,0:0:0:0:
358,359,247762,2,0,P|371:328|373:288,1,71.9999978027344,10|0,0:0|0:0,0:0:0:0:
292,229,248119,1,2,0:0:0:0:
275,231,248209,1,8,0:0:0:0:
256,235,248298,1,0,0:0:0:0:
168,181,248477,2,0,L|98:168,1,71.9999978027344,10|0,0:0|0:0,0:0:0:0:
31,90,248834,5,6,0:0:0:0:
110,28,249012,1,0,0:0:0:0:
209,43,249191,1,8,0:0:0:0:
256,131,249369,1,0,0:0:0:0:
168,181,249548,2,0,L|103:233,1,71.9999978027344,8|8,0:0|0:0,0:0:0:0:
163,310,249905,5,8,0:0:0:0:
179,313,249994,1,8,0:0:0:0:
193,316,250084,1,8,0:0:0:0:
207,319,250173,1,8,0:0:0:0:
221,322,250262,6,0,P|283:307|344:256,1,143.999995605469,6|8,0:0|0:0,0:0:0:0:
357,156,250798,1,0,0:0:0:0:
484,224,250977,2,0,P|484:288|441:369,1,143.999995605469,2|8,0:0|0:0,0:0:0:0:
351,381,251512,1,0,0:0:0:0:
221,322,251691,2,0,P|163:300|81:300,1,143.999995605469,2|8,0:0|0:0,0:0:0:0:
10,371,252227,1,0,0:0:0:0:
31,223,252405,6,0,P|29:186|7:131,1,71.9999978027344,2|0,0:0|0:0,0:0:0:0:
108,38,252762,2,0,P|109:83|123:125,1,71.9999978027344,8|0,0:0|0:0,0:0:0:0:
258,109,253120,2,0,P|266:74|265:38,1,71.9999978027344,2|0,0:0|0:0,0:0:0:0:
358,155,253477,2,0,P|344:188|340:224,1,71.9999978027344,10|0,0:0|0:0,0:0:0:0:
295,360,253834,2,0,P|261:366|219:359,1,71.9999978027344,2|0,0:0|0:0,0:0:0:0:
75,339,254191,2,0,P|110:332|145:338,1,71.9999978027344,10|0,0:0|0:0,0:0:0:0:
183,206,254548,6,0,B|203:134|165:138|186:63,1,143.999995605469,2|8,0:0|0:0,0:0:0:0:
270,8,255084,1,0,0:0:0:0:
286,11,255173,1,0,0:0:0:0:
303,15,255262,1,0,0:0:0:0:
394,58,255441,2,0,L|441:49,5,35.9999989013672,0|0|0|0|0|0,0:0|0:0|0:0|0:0|0:0|0:0,0:0:0:0:
479,43,255977,6,0,B|500:78|500:78|483:191,1,143.999995605469,4|8,0:0|0:0,0:0:0:0:
457,328,256512,2,0,P|410:282|318:280,1,143.999995605469,0|0,0:0|0:0,0:0:0:0:
261,343,257048,1,8,0:0:0:0:
232,246,257227,1,0,0:0:0:0:
318,127,257405,6,0,L|407:145,1,71.9999978027344,4|0,0:0|0:0,0:0:0:0:
312,24,257762,2,0,P|272:31|244:50,1,71.9999978027344,0|4,0:0|0:0,0:0:0:0:
113,87,258120,2,0,P|81:84|45:67,1,71.9999978027344
20,165,258477,1,8,0:0:0:0:
0,260,258655,1,0,0:0:0:0:
121,332,258834,2,0,B|168:355|168:355|271:330,1,143.999995605469,12|8,0:0|0:0,0:0:0:0:
352,366,259369,5,0,0:0:0:0:
446,329,259548,1,8,0:0:0:0:
482,234,259727,1,8,0:0:0:0:
453,137,259905,1,8,0:0:0:0:
361,94,260084,1,8,0:0:0:0:
267,131,260262,6,0,L|281:223,1,71.9999978027344,8|0,0:0|0:0,0:0:0:0:
205,273,260619,1,8,2:0:0:0:
134,200,260798,1,0,2:0:0:0:
61,129,260977,2,0,L|39:209,1,71.9999978027344,8|8,0:0|0:0,0:0:0:0:
41,299,261334,5,8,0:0:0:0:
59,299,261423,1,8,0:0:0:0:
77,298,261512,1,8,0:0:0:0:
93,297,261602,1,8,0:0:0:0:
107,296,261691,2,0,B|173:288|192:221|192:221|198:289|257:313|257:313|372:153|457:266|429:388|300:413|147:228|456:215|321:25|321:25|334:107|279:163,1,960,0|0,0:0|0:0,0:0:0:0:
142,173,267406,6,0,P|191:146|273:159,1,120,4|8,0:0|0:0,0:0:0:0:
314,206,267941,2,0,L|296:68,1,120,0|0,0:0|0:0,0:0:0:0:
284,4,268477,1,8,0:0:0:0:
155,111,268834,6,0,L|131:237,1,120,0|8,0:0|0:0,0:0:0:0:
183,295,269370,1,0,0:0:0:0:
199,293,269459,1,0,0:0:0:0:
215,291,269549,2,0,L|292:279,1,60,0|0,0:0|0:0,0:0:0:0:
345,326,269906,2,0,L|423:335,1,60,8|0,0:0|0:0,0:0:0:0:
469,279,270263,6,0,P|466:227|400:166,1,120,4|8,0:0|0:0,0:0:0:0:
340,182,270799,2,0,P|389:159|411:83,1,120,0|0,0:0|0:0,0:0:0:0:
329,98,271334,1,8,0:0:0:0:
206,213,271691,6,0,L|232:340,1,120,0|8,0:0|0:0,0:0:0:0:
159,376,272227,5,0,0:0:0:0:
86,333,272406,2,0,L|18:323,1,60,0|0,0:0|0:0,0:0:0:0:
13,241,272763,2,0,L|6:203,3,30,0|0|0|0,0:0|0:0|0:0|0:0,0:0:0:0:
20,171,273120,6,0,L|38:50,1,120,4|8,0:0|0:0,0:0:0:0:
112,14,273656,2,0,L|236:82,1,120,4|8,0:0|0:0,0:0:0:0:
255,149,274191,1,8,0:0:0:0:
300,78,274370,1,0,0:0:0:0:
345,6,274549,6,0,L|423:6,1,60,4|8,0:0|0:0,0:0:0:0:
475,52,274906,2,0,L|482:89,3,30,8|8|8|8,0:0|0:0|0:0|0:0,0:0:0:0:
454,114,275263,2,0,L|447:151,3,30,8|8|8|8,0:0|0:0|0:0|0:0,0:0:0:0:
470,179,275620,2,0,L|477:216,3,30,8|8|8|8,0:0|0:0|0:0|0:0,0:0:0:0:
483,251,275977,6,0,P|443:233|383:243,3,90.0000034332277,4|0|0|0,0:0|0:0|0:0|0:0,0:0:0:0:
292,307,277372,1,0,0:0:0:0:
140,281,277766,2,0,L|82:273,2,40,0|0|0,0:0|0:0|0:0,0:0:0:0:
179,266,278136,2,0,P|205:219|201:138,1,120,0|0,0:0|0:0,0:0:0:0:
256,192,278981,12,0,283278,0:0:0:0:
