osu file format v14

[General]
AudioFilename: audio.mp3
AudioLeadIn: 0
PreviewTime: 127227
Countdown: 0
SampleSet: Soft
StackLeniency: 0.7
Mode: 0
LetterboxInBreaks: 0
WidescreenStoryboard: 0

[Editor]
DistanceSpacing: 1
BeatDivisor: 4
GridSize: 4
TimelineZoom: 2.899999

[Metadata]
Title:Omoiyo Hitotsuninare
TitleUnicode:想いよひとつになれ
Artist:Aqours
ArtistUnicode:Aqours
Creator:Gravified
Version:Dreamers
Source:ラブライブ!サンシャイン!!
Tags:ShogunMoon Phyloukz Kyle_Y Love Live Sunshine Our Feelings Become One School Idol Project Takami Chika Matsuura Kanan Kurosawa Dia Watanabe You Tsushima Yoshiko Kunikida Hanamaru Ohara Mari Kurosawa Ruby Hata Aki Anju Inami Rikako Aida Nanaka Suwa Arisa Komiya Shuka Saito Aika Kobayashi Kanako Takatsuki Aina Suzuki Ai Furihata Episode 11 Mirai Ticket
BeatmapID:1324809
BeatmapSetID:628381

[Difficulty]
HPDrainRate:7
CircleSize:4
OverallDifficulty:8.5
ApproachRate:9.2
SliderMultiplier:1.7
SliderTickRate:1

[Events]
//Background and Video events
0,0,"love live sunshine.jpg",0,0
//Break Periods
2,184749,194871
//Storyboard Layer 0 (Background)
//Storyboard Layer 1 (Fail)
//Storyboard Layer 2 (Pass)
//Storyboard Layer 3 (Foreground)
//Storyboard Sound Samples

[TimingPoints]
1692,357.142857142857,4,2,1,30,1,0
1692,-133.333333333333,4,2,1,30,0,0
11691,-166.666666666667,4,2,1,30,0,0
17941,-100,4,2,1,60,0,0
18477,-83.3333333333333,4,2,1,60,0,0
18745,-83.3333333333333,4,2,1,40,0,0
18834,-100,4,2,1,70,0,0
23924,-100,4,2,1,30,0,0
24013,-100,4,2,1,70,0,0
24549,-90.9090909090909,4,2,1,70,0,0
24816,-100,4,2,1,40,0,0
24906,-90.9090909090909,4,2,1,70,0,0
25352,-90.9090909090909,4,2,1,40,0,0
25441,-100,4,2,1,70,0,0
26156,-100,4,2,1,40,0,0
26334,-100,4,2,1,50,0,0
26691,-100,4,2,1,60,0,0
27049,-100,4,2,1,70,0,0
27406,-100,4,2,1,70,0,0
37495,-100,4,2,1,40,0,0
37584,-100,4,2,1,70,0,0
39102,-100,4,2,1,40,0,0
39191,-100,4,2,1,70,0,0
44816,-100,4,2,1,40,0,0
44906,-100,4,2,1,70,0,0
47674,-100,4,2,1,40,0,0
47763,-100,4,2,1,70,0,0
49906,-133.333333333333,4,2,1,70,0,0
50174,-133.333333333333,4,2,1,30,0,0
50263,-90.9090909090909,4,2,1,70,0,0
50531,-90.9090909090909,4,2,1,40,0,0
50620,-90.9090909090909,4,2,1,70,0,0
51959,-90.9090909090909,4,2,1,40,0,0
52049,-90.9090909090909,4,2,1,70,0,0
53120,-133.333333333333,4,2,1,70,0,0
54549,-100,4,2,1,70,0,0
54816,-100,4,2,1,40,0,0
54906,-100,4,2,1,70,0,0
55174,-100,4,2,1,40,0,0
55263,-100,4,2,1,70,0,0
55977,-100,4,2,1,70,0,0
60084,-100,4,2,1,30,0,0
60620,-95.2380952380952,4,2,1,35,0,0
60977,-90.9090909090909,4,2,1,40,0,0
61334,-83.3333333333333,4,2,1,60,0,0
61691,-133.333333333333,4,2,1,40,0,0
71691,-100,4,2,1,70,0,0
72495,-100,4,2,1,40,0,0
72584,-100,4,2,1,70,0,0
72674,-100,4,2,1,40,0,0
73120,-83.3333333333333,4,2,1,70,0,1
78745,-83.3333333333333,4,2,1,40,0,1
78834,-83.3333333333333,4,2,1,70,0,1
84013,-83.3333333333333,4,2,1,50,0,1
84549,-100,4,2,1,70,0,0
104816,-100,4,2,1,40,0,0
104906,-100,4,2,1,70,0,0
110531,-100,4,2,1,40,0,0
110620,-100,4,2,1,70,0,0
113388,-100,4,2,1,40,0,0
113477,-100,4,2,1,70,0,0
115620,-133.333333333333,4,2,1,70,0,0
115888,-133.333333333333,4,2,1,30,0,0
115977,-90.9090909090909,4,2,1,70,0,0
116245,-90.9090909090909,4,2,1,40,0,0
116334,-90.9090909090909,4,2,1,70,0,0
117674,-90.9090909090909,4,2,1,40,0,0
117763,-90.9090909090909,4,2,1,70,0,0
118834,-133.333333333333,4,2,1,70,0,0
120263,-100,4,2,1,70,0,0
120531,-133.333333333333,4,2,1,40,0,0
120620,-100,4,2,1,70,0,0
120888,-133.333333333333,4,2,1,40,0,0
120977,-100,4,2,1,70,0,0
121691,-100,4,2,1,70,0,0
125799,-100,4,2,1,30,0,0
126334,-95.2380952380952,4,2,1,35,0,0
126691,-90.9090909090909,4,2,1,40,0,0
127049,-83.3333333333333,4,2,1,60,0,0
127406,-83.3333333333333,4,2,1,70,0,1
137406,-83.3333333333333,4,2,1,70,0,0
138834,-83.3333333333333,4,2,1,70,0,1
149727,-83.3333333333333,4,2,1,50,0,1
150263,-100,4,2,1,70,0,0
151334,-133.333333333333,4,2,1,70,0,0
151602,-133.333333333333,4,2,1,40,0,0
151691,-100,4,2,1,70,0,0
152763,-100,4,2,1,50,0,0
153120,-100,4,2,1,70,0,0
157049,-133.333333333333,4,2,1,70,0,0
157316,-133.333333333333,4,2,1,40,0,0
157406,-100,4,2,1,70,0,0
158477,-133.333333333333,4,2,1,70,0,0
158745,-133.333333333333,4,2,1,40,0,0
158834,-90.9090909090909,4,2,1,70,0,0
159191,-100,4,2,1,70,0,0
160531,-100,4,2,1,40,0,0
160620,-100,4,2,1,70,0,0
160799,-100,4,2,1,40,0,0
160888,-100,4,2,1,70,0,0
181334,-133.333333333333,4,2,1,70,0,0
181513,-100,4,2,1,70,0,0
184549,-133.333333333333,4,2,1,70,0,0
195977,-111.111111111111,4,2,1,70,0,0
197584,-111.111111111111,4,2,1,40,0,0
197763,-100,4,2,1,70,0,0
198477,-111.111111111111,4,2,1,60,0,0
198834,-111.111111111111,4,2,1,70,0,0
199906,-111.111111111111,4,2,1,60,0,0
200263,-111.111111111111,4,2,1,70,0,0
201334,-133.333333333333,4,2,1,70,0,0
201602,-133.333333333333,4,2,1,40,0,0
201691,-100,4,2,1,70,0,0
208656,-100,4,2,1,30,0,0
209191,-95.2380952380952,4,2,1,35,0,0
209549,-90.9090909090909,4,2,1,40,0,0
209906,-83.3333333333333,4,2,1,60,0,0
210263,-133.333333333333,4,2,1,40,0,0
210977,-133.333333333333,4,2,1,40,0,0
220263,-100,4,2,1,70,0,0
221066,-100,4,2,1,40,0,0
221156,-100,4,2,1,70,0,0
221245,-100,4,2,1,40,0,0
221691,-90.9090909090909,4,2,1,70,0,1
227316,-90.9090909090909,4,2,1,40,0,1
227406,-90.9090909090909,4,2,1,70,0,1
233120,-100,4,2,1,70,0,0
238299,-100,4,2,1,50,0,0
238834,-83.3333333333333,4,2,1,70,0,1
248834,-83.3333333333333,4,2,1,70,0,0
250263,-83.3333333333333,4,2,1,70,0,1
261156,-83.3333333333333,4,2,1,70,0,1
261781,-100,4,2,1,10,0,0
262763,-100,4,2,1,10,0,0
262941,-100,4,2,1,10,0,0
263120,-100,4,2,1,10,0,0
263299,-100,4,2,1,10,0,0
263477,-100,4,2,1,10,0,0
263656,-100,4,2,1,10,0,0
263834,-100,4,2,1,10,0,0
264013,-100,4,2,1,10,0,0
264191,-100,4,2,1,70,0,0
273120,-90.9090909090909,4,2,1,70,0,0
273388,-90.9090909090909,4,2,1,40,0,0
273477,-90.9090909090909,4,2,1,70,0,0
273924,-90.9090909090909,4,2,1,40,0,0
274013,-90.9090909090909,4,2,1,70,0,0
274727,-95.2380952380952,4,2,1,20,0,0
275263,-90.9090909090909,4,2,1,40,0,0
275620,-83.3333333333333,4,2,1,60,0,0
275977,348.837209302326,4,2,1,40,1,0
275977,-111.111111111111,4,2,1,40,0,0
277372,394.736842105263,4,2,1,45,1,0
277766,370.37037037037,4,2,1,35,1,0
277766,-111.111111111111,4,2,1,35,0,0
278136,422.535211267606,4,2,1,35,1,0
278558,-100,4,2,1,25,0,0
278981,461.538461538462,4,2,1,40,1,0
279442,416.666666666667,4,2,1,30,1,0
279858,355.029585798817,4,2,1,30,1,0
280213,394.736842105263,4,2,1,30,1,0
280607,434.782608695652,4,2,1,35,1,0
281041,-100,4,2,1,25,0,0
281476,526.315789473684,4,2,1,30,1,0
282002,-100,4,2,1,20,0,0
282528,750,4,2,1,10,1,0

[Colours]
Combo1 : 38,66,89
Combo2 : 255,128,0
Combo3 : 128,0,0
Combo4 : 184,163,152
Combo5 : 255,255,128
Combo6 : 154,100,68
Combo7 : 255,0,0

[HitObjects]
356,76,1692,6,0,B|385:133|385:133|366:195,1,127.500004863739
120,156,2406,2,0,L|251:144,1,127.500004863739
336,332,3120,6,0,B|395:408|472:356|472:300|456:264|380:252|368:308,1,255.000009727478
504,372,4192,1,0,0:0:0:0:
268,300,4549,5,0,0:0:0:0:
444,224,4906,1,0,0:0:0:0:
336,332,5263,1,0,0:0:0:0:
280,152,5620,1,0,0:0:0:0:
280,152,5799,1,0,0:0:0:0:
280,152,5977,6,0,L|405:173,1,127.500004863739
271,26,6691,2,0,L|145:49,1,127.500004863739
36,228,7406,6,0,P|12:288|36:344,1,127.500004863739
144,163,8120,2,0,P|168:103|144:47,1,127.500004863739
24,296,8834,6,0,P|116:368|212:296,1,255.000009727478
212,295,9906,1,0,0:0:0:0:
41,162,10263,5,0,0:0:0:0:
285,202,10620,1,0,0:0:0:0:
285,202,10977,2,0,P|229:226|169:202,1,127.500004863739
68,56,11691,6,0,B|52:4|-62:81|68:165|68:165|229:133|139:19|107:62,1,407.999987548829
116,76,13834,5,0,0:0:0:0:
124,96,14549,1,0,0:0:0:0:
136,120,15263,1,0,0:0:0:0:
148,148,15977,1,0,0:0:0:0:
160,176,17049,5,0,0:0:0:0:
24,116,17227,1,0,0:0:0:0:
89,255,17406,2,0,L|98:359,1,101.999996887207
264,344,17941,5,0,0:0:0:0:
307,340,18031,1,0,0:0:0:0:
351,336,18120,1,0,0:0:0:0:
180,200,18299,1,0,0:0:0:0:
144,196,18388,1,0,0:0:0:0:
100,188,18477,6,0,P|28:172|16:236,1,152.999995330811,8|0,0:0|0:0,0:0:0:0:
180,200,18834,6,0,B|267:192|267:192|320:128,1,170,4|8,0:0|0:0,0:0:0:0:
172,128,19370,1,0,0:0:0:0:
153,130,19459,1,0,0:0:0:0:
133,132,19548,1,0,0:0:0:0:
212,268,19727,1,0,0:0:0:0:
268,64,19906,2,0,L|181:57,1,85,8|0,0:0|0:0,0:0:0:0:
284,232,20263,6,0,L|369:225,1,85
488,336,20620,1,8,0:0:0:0:
502,169,20799,1,0,0:0:0:0:
505,125,20888,1,0,0:0:0:0:
509,80,20977,1,0,0:0:0:0:
376,152,21156,1,0,0:0:0:0:
495,253,21334,1,8,0:0:0:0:
300,364,21512,1,0,0:0:0:0:
300,364,21602,1,0,0:0:0:0:
300,364,21691,6,0,B|383:371|383:371|444:308,1,170,4|8,0:0|0:0,0:0:0:0:
304,248,22227,1,0,0:0:0:0:
285,246,22316,1,0,0:0:0:0:
265,244,22405,1,0,0:0:0:0:
136,336,22584,1,0,0:0:0:0:
43,151,22763,2,0,P|83:167|123:151,1,85,8|0,0:0|0:0,0:0:0:0:
280,176,23120,6,0,P|240:160|200:176,1,85
35,235,23477,2,0,L|42:151,1,85,8|0,0:0|0:0,0:0:0:0:
45,125,23745,1,0,0:0:0:0:
48,92,23834,2,0,L|32:50,1,42.5
120,153,24013,1,0,0:0:0:0:
232,56,24191,5,8,0:0:0:0:
264,24,24281,1,0,0:0:0:0:
304,12,24370,1,0,0:0:0:0:
344,24,24459,1,0,0:0:0:0:
368,64,24549,6,0,B|408:100|468:84|468:84|448:52,1,140.25000428009,4|0,0:0|0:0,0:0:0:0:
424,12,24906,1,8,0:0:0:0:
220,176,25084,2,0,B|176:168|140:132|140:132|144:180,1,140.25000428009,4|0,0:0|0:0,0:0:0:0:
148,212,25441,1,0,0:0:0:0:
320,144,25620,1,8,0:0:0:0:
260,300,25799,1,0,0:0:0:0:
143,179,25977,6,0,L|186:183,1,42.5,4|0,0:0|0:0,0:0:0:0:
340,264,26156,2,0,L|297:267,1,42.5,8|8,0:0|0:0,0:0:0:0:
156,276,26334,6,0,L|148:233,1,42.5,8|8,0:0|0:0,0:0:0:0:
320,144,26513,2,0,L|327:101,1,42.5,8|8,0:0|0:0,0:0:0:0:
188,52,26691,5,8,0:0:0:0:
144,60,26781,1,8,0:0:0:0:
99,52,26870,2,8,P|78:47|61:35,1,42.5
12,157,27049,1,8,0:0:0:0:
2,202,27138,1,8,0:0:0:0:
14,244,27227,1,8,0:0:0:0:
44,281,27316,1,8,0:0:0:0:
88,293,27406,6,0,P|129:297|166:279,1,85
56,373,27763,1,8,0:0:0:0:
120,209,27941,1,0,0:0:0:0:
120,209,28031,1,0,0:0:0:0:
120,209,28120,1,0,0:0:0:0:
172,353,28299,1,0,0:0:0:0:
24,260,28477,1,8,0:0:0:0:
236,268,28656,1,0,0:0:0:0:
236,268,28834,6,0,L|320:260,1,85
172,353,29191,1,8,0:0:0:0:
240,188,29370,1,0,0:0:0:0:
272,184,29459,1,0,0:0:0:0:
304,180,29549,1,0,0:0:0:0:
164,244,29727,1,0,0:0:0:0:
280,108,29906,1,8,0:0:0:0:
304,328,30084,1,0,0:0:0:0:
304,328,30263,6,0,L|135:314,1,170,0|8,0:0|0:0,0:0:0:0:
20,200,30799,1,0,0:0:0:0:
52,197,30888,1,0,0:0:0:0:
83,194,30977,1,0,0:0:0:0:
134,313,31156,1,0,0:0:0:0:
176,132,31334,1,8,0:0:0:0:
108,332,31513,6,0,P|95:289|102:245,1,85
260,216,31870,1,0,0:0:0:0:
64,128,32049,1,8,0:0:0:0:
180,284,32226,1,0,0:0:0:0:
192,244,32316,1,0,0:0:0:0:
180,204,32405,5,0,0:0:0:0:
108,332,32584,1,0,0:0:0:0:
64,128,32763,1,8,0:0:0:0:
260,216,32941,1,0,0:0:0:0:
260,216,33120,6,0,L|429:202,1,170,0|8,0:0|0:0,0:0:0:0:
264,88,33656,1,0,0:0:0:0:
225,73,33745,1,0,0:0:0:0:
184,80,33834,1,0,0:0:0:0:
260,216,34013,1,0,0:0:0:0:
312,12,34191,1,8,0:0:0:0:
400,168,34370,1,0,0:0:0:0:
260,216,34549,6,0,B|240:224|224:240|224:240|212:224|192:216,1,85
309,77,34906,2,0,L|392:84,1,85,8|0,0:0|0:0,0:0:0:0:
396,126,35173,1,0,0:0:0:0:
400,168,35262,1,0,0:0:0:0:
244,120,35441,1,0,0:0:0:0:
444,32,35620,1,8,0:0:0:0:
336,212,35799,1,0,0:0:0:0:
180,52,35977,6,0,P|252:98|327:68,1,170,0|8,0:0|0:0,0:0:0:0:
196,156,36513,1,0,0:0:0:0:
180,196,36602,1,0,0:0:0:0:
196,236,36691,1,0,0:0:0:0:
336,200,36870,1,0,0:0:0:0:
120,152,37049,1,8,0:0:0:0:
336,200,37227,2,0,L|347:327,1,127.5
348,368,37584,5,0,0:0:0:0:
444,176,37763,1,8,0:0:0:0:
272,296,37941,1,0,0:0:0:0:
272,296,38031,1,0,0:0:0:0:
272,296,38120,2,0,P|228:302|186:288,1,85
171,250,38388,1,0,0:0:0:0:
182,207,38477,1,8,0:0:0:0:
208,368,38656,1,0,0:0:0:0:
0,268,38834,6,0,L|127:256,1,127.5,4|0,0:0|0:0,0:0:0:0:
182,207,39191,2,0,P|188:163|174:121,1,85,8|0,0:0|0:0,0:0:0:0:
68,304,39549,1,0,0:0:0:0:
256,248,39727,1,0,0:0:0:0:
40,184,39906,1,8,0:0:0:0:
112,384,40084,6,0,P|157:315|130:238,1,170,4|0,0:0|0:0,0:0:0:0:
20,344,40620,1,8,0:0:0:0:
224,376,40799,1,0,0:0:0:0:
264,384,40889,1,0,0:0:0:0:
303,369,40978,1,0,0:0:0:0:
170,246,41156,1,0,0:0:0:0:
129,237,41246,1,0,0:0:0:0:
90,252,41335,1,8,0:0:0:0:
260,308,41513,1,0,0:0:0:0:
380,208,41691,6,0,L|395:36,1,170,0|8,0:0|0:0,0:0:0:0:
296,284,42227,1,0,0:0:0:0:
328,312,42316,1,0,0:0:0:0:
369,320,42406,2,0,P|413:319|452:298,1,85
312,184,42763,2,0,P|267:186|228:207,1,85,8|0,0:0|0:0,0:0:0:0:
20,291,43120,6,0,L|103:284,1,85,4|0,0:0|0:0,0:0:0:0:
252,120,43477,2,0,L|168:112,1,85,8|0,0:0|0:0,0:0:0:0:
123,107,43745,1,0,0:0:0:0:
79,103,43834,1,12,0:0:0:0:
231,203,44013,1,8,0:0:0:0:
256,28,44191,1,8,0:0:0:0:
296,16,44281,1,8,0:0:0:0:
336,24,44370,1,8,0:0:0:0:
372,48,44459,1,8,0:0:0:0:
400,80,44549,6,0,P|464:56|492:4,1,127.5,4|0,0:0|0:0,0:0:0:0:
400,80,44906,2,0,P|411:120|404:162,1,85,8|0,0:0|0:0,0:0:0:0:
196,164,45174,1,0,0:0:0:0:
215,119,45263,2,0,P|256:112|297:125,1,85
188,248,45620,1,8,0:0:0:0:
132,52,45799,1,0,0:0:0:0:
60,216,45977,6,0,B|118:185|175:226|175:226|163:176,1,170,2|8,0:0|0:0,0:0:0:0:
108,320,46513,1,0,0:0:0:0:
105,351,46602,1,0,0:0:0:0:
102,383,46691,1,0,0:0:0:0:
240,312,46870,1,0,0:0:0:0:
12,264,47049,1,8,0:0:0:0:
180,368,47227,1,0,0:0:0:0:
312,264,47406,6,0,L|300:136,1,127.5,2|0,0:0|0:0,0:0:0:0:
216,204,47763,2,0,P|174:210|133:199,1,85,8|0,0:0|0:0,0:0:0:0:
220,96,48031,1,0,0:0:0:0:
252,60,48120,2,0,P|292:49|334:55,1,85
380,232,48477,1,8,0:0:0:0:
436,80,48656,1,0,0:0:0:0:
404,316,48834,6,0,B|353:327|318:292|318:292|292:328|255:330,1,170,2|8,0:0|0:0,0:0:0:0:
380,232,49370,1,0,0:0:0:0:
411,229,49459,1,0,0:0:0:0:
443,226,49548,1,0,0:0:0:0:
252,164,49727,1,0,0:0:0:0:
371,327,49906,6,0,L|379:232,1,95.6250036478044,8|0,0:0|0:0,0:0:0:0:
303,87,50263,6,0,B|295:174|295:174|340:206,1,140.25000428009,4|0,0:0|0:0,0:0:0:0:
379,231,50620,1,8,0:0:0:0:
260,52,50799,2,0,B|248:173|248:173|311:217,1,187.000005706787
420,92,51334,1,8,0:0:0:0:
328,280,51513,1,0,0:0:0:0:
404,128,51691,6,0,B|317:136|317:136|285:91,1,140.25000428009,6|0,0:0|0:0,0:0:0:0:
260,52,52049,1,8,0:0:0:0:
439,171,52227,1,0,0:0:0:0:
391,175,52316,1,0,0:0:0:0:
343,179,52406,1,0,0:0:0:0:
356,52,52584,5,0,0:0:0:0:
391,175,52763,1,8,0:0:0:0:
472,96,52941,1,8,0:0:0:0:
452,260,53120,6,0,P|392:280|333:260,1,127.500004863739,2|0,0:0|0:0,0:0:0:0:
252,140,53656,1,0,0:0:0:0:
252,140,53834,2,0,P|311:119|370:139,1,127.500004863739,10|0,0:0|0:0,0:0:0:0:
280,40,54370,1,0,0:0:0:0:
312,212,54549,6,0,B|318:291|318:291|343:249,1,127.5,6|0,0:0|0:0,0:0:0:0:
370,139,54906,2,0,P|310:118|251:139,1,127.5,8|0,0:0|0:0,0:0:0:0:
228,288,55263,5,10,0:0:0:0:
68,164,55441,1,0,0:0:0:0:
312,212,55620,1,8,0:0:0:0:
312,212,55977,6,0,P|238:172|159:197,1,170,2|8,0:0|0:0,0:0:0:0:
228,288,56513,1,0,0:0:0:0:
239,328,56602,1,0,0:0:0:0:
232,370,56691,1,0,0:0:0:0:
88,324,56870,1,0,0:0:0:0:
304,284,57049,1,8,0:0:0:0:
160,196,57227,1,0,0:0:0:0:
386,153,57406,6,0,P|426:227|401:306,1,170,0|8,0:0|0:0,0:0:0:0:
316,236,57941,1,0,0:0:0:0:
276,225,58030,1,0,0:0:0:0:
234,232,58119,1,0,0:0:0:0:
184,340,58299,1,0,0:0:0:0:
120,152,58477,1,8,0:0:0:0:
316,236,58656,1,8,0:0:0:0:
360,232,58745,1,8,0:0:0:0:
403,229,58834,5,8,0:0:0:0:
248,192,59013,1,8,0:0:0:0:
448,148,59191,1,8,0:0:0:0:
340,300,59370,2,0,L|332:384,1,85,4|8,0:0|0:0,0:0:0:0:
448,224,59727,5,0,0:0:0:0:
259,84,59906,2,0,P|218:71|176:75,1,85,4|0,0:0|0:0,0:0:0:0:
139,96,60174,1,8,0:0:0:0:
111,128,60263,1,8,0:0:0:0:
99,168,60352,1,8,0:0:0:0:
103,212,60441,1,8,0:0:0:0:
123,248,60531,1,8,0:0:0:0:
159,276,60620,1,8,0:0:0:0:
203,288,60709,1,8,0:0:0:0:
247,280,60799,1,8,0:0:0:0:
283,256,60888,1,8,0:0:0:0:
280,208,60977,5,8,0:0:0:0:
236,200,61066,1,8,0:0:0:0:
192,220,61156,1,8,0:0:0:0:
172,264,61245,1,8,0:0:0:0:
180,316,61334,5,8,0:0:0:0:
224,344,61424,1,8,0:0:0:0:
276,348,61513,1,8,0:0:0:0:
320,320,61602,1,8,0:0:0:0:
352,272,61691,6,0,P|376:212|356:152,1,127.500004863739,4|0,0:0|0:0,3:0:0:0:
154,206,62406,2,0,P|212:230|272:212,1,127.5,0|0,0:0|0:0,3:0:0:0:
87,126,63120,6,0,B|100:285|100:285|159:198,1,255.000009727478
8,192,64191,1,0,0:0:0:0:
137,356,64549,5,0,0:0:0:0:
212,155,64906,1,0,0:0:0:0:
8,192,65263,1,0,0:0:0:0:
124,280,65620,1,0,0:0:0:0:
124,280,65977,6,0,B|169:322|169:322|217:278,1,127.500004863739
348,212,66691,2,0,B|302:254|302:254|254:210,1,127.500004863739
64,136,67406,6,0,P|124:112|180:132,1,127.500004863739
384,104,68120,2,0,P|324:128|268:108,1,127.500004863739
450,24,68834,6,0,B|437:183|437:183|378:96,1,255.000009727478
383,103,69906,1,0,0:0:0:0:
504,236,70263,5,0,0:0:0:0:
308,232,70620,1,0,0:0:0:0:
456,80,70977,1,0,0:0:0:0:
480,312,71334,1,0,0:0:0:0:
208,176,71692,5,8,0:0:0:0:
512,216,71870,1,8,0:0:0:0:
352,384,72227,5,0,0:0:0:0:
352,384,72316,1,0,0:0:0:0:
352,384,72406,2,0,L|355:341,1,42.5,8|0,0:0|0:0,0:0:0:0:
56,160,72584,2,0,L|59:202,1,42.5,8|0,0:0|0:0,0:0:0:0:
116,44,73120,6,0,P|61:27|16:35,1,101.999996887207,6|0,0:0|0:0,0:0:0:0:
120,212,73477,1,8,0:0:0:0:
240,92,73656,2,0,L|290:87,1,50.9999984436036
412,104,73834,2,0,P|357:120|312:112,1,101.999996887207,2|0,0:0|0:0,0:0:0:0:
180,4,74191,1,8,0:0:0:0:
264,164,74370,1,0,0:0:0:0:
456,24,74549,6,0,B|354:15,1,101.999996887207,2|0,0:0|0:0,0:0:0:0:
312,232,74906,1,8,0:0:0:0:
400,116,75084,1,0,0:0:0:0:
192,276,75263,6,0,B|295:266,1,101.999996887207,2|0,0:0|0:0,0:0:0:0:
480,160,75620,2,0,B|376:150,1,101.999996887207,10|0,0:0|0:0,0:0:0:0:
312,112,75888,1,0,0:0:0:0:
312,112,75977,6,0,P|362:118|410:103,1,101.999996887207,2|0,0:0|0:0,0:0:0:0:
176,16,76334,1,10,0:0:0:0:
288,192,76513,1,0,0:0:0:0:
424,24,76691,1,2,0:0:0:0:
224,132,76870,1,0,0:0:0:0:
423,180,77049,2,0,B|451:188|463:204|463:204|471:176|503:168|503:168,1,101.999996887207,10|0,0:0|0:0,0:0:0:0:
288,280,77406,6,0,P|238:286|190:271,1,101.999996887207,2|0,0:0|0:0,0:0:0:0:
244,84,77763,1,8,0:0:0:0:
384,184,77941,1,0,0:0:0:0:
423,180,78031,1,0,0:0:0:0:
463,177,78120,1,0,0:0:0:0:
273,133,78299,5,0,0:0:0:0:
221,128,78388,1,0,0:0:0:0:
169,123,78477,1,8,0:0:0:0:
117,119,78566,1,0,0:0:0:0:
65,114,78656,2,0,P|68:88|80:64,1,50.9999984436036
326,139,78834,6,0,P|242:185|169:123,1,203.999993774414,4|8,0:0|0:0,0:0:0:0:
392,100,79370,2,0,L|442:95,1,50.9999984436036,4|0,0:0|0:0,0:0:0:0:
340,64,79549,2,0,L|236:54,1,101.999996887207
384,184,79906,1,8,0:0:0:0:
464,12,80084,1,0,0:0:0:0:
232,144,80263,6,0,L|435:126,1,203.999993774414,4|8,0:0|0:0,0:0:0:0:
272,236,80799,1,4,0:0:0:0:
272,236,80888,1,0,0:0:0:0:
272,236,80977,2,0,P|221:242|174:225,1,101.999996887207
280,24,81334,1,8,0:0:0:0:
174,225,81513,1,0,0:0:0:0:
435,305,81691,5,12,0:0:0:0:
356,160,81870,1,0,0:0:0:0:
308,376,82049,1,8,0:0:0:0:
356,160,82227,1,0,0:0:0:0:
156,340,82406,5,8,0:0:0:0:
412,225,82584,1,8,0:0:0:0:
186,57,82763,1,8,0:0:0:0:
280,320,82941,1,8,0:0:0:0:
422,113,83120,5,8,0:0:0:0:
216,220,83299,1,0,0:0:0:0:
416,276,83477,5,8,0:0:0:0:
169,145,83656,1,0,0:0:0:0:
380,48,83834,5,8,0:0:0:0:
216,220,84013,1,8,0:0:0:0:
168,232,84102,1,8,0:0:0:0:
120,216,84191,1,8,0:0:0:0:
88,176,84281,1,8,0:0:0:0:
92,124,84370,1,8,0:0:0:0:
64,80,84459,1,8,0:0:0:0:
16,68,84549,1,12,0:0:0:0:
24,84,84906,5,8,0:0:0:0:
164,152,85084,1,0,0:0:0:0:
180,160,85174,1,0,0:0:0:0:
196,168,85263,2,0,L|203:84,1,85
64,148,85620,1,8,0:0:0:0:
240,236,85799,2,0,L|247:152,1,85
400,272,86156,6,0,P|440:284|481:277,1,85,0|8,0:0|0:0,0:0:0:0:
247,151,86513,2,0,P|206:140|164:147,1,85
304,275,86870,1,0,0:0:0:0:
368,75,87049,1,8,0:0:0:0:
247,151,87227,1,0,0:0:0:0:
416,8,87406,6,0,L|409:93,1,85,4|0,0:0|0:0,0:0:0:0:
260,52,87763,1,8,0:0:0:0:
432,164,87941,1,0,0:0:0:0:
449,158,88031,1,0,0:0:0:0:
466,153,88120,1,0,0:0:0:0:
308,112,88299,1,0,0:0:0:0:
396,320,88477,1,8,0:0:0:0:
466,153,88656,6,0,P|478:113|472:71,1,85
280,184,89013,2,0,P|269:224|275:266,1,85,0|8,0:0|0:0,0:0:0:0:
380,352,89370,5,0,0:0:0:0:
380,352,89459,2,0,B|412:336|428:316|428:316|456:348|484:352,1,127.5
275,266,89906,2,0,L|191:258,1,85,12|0,0:0|0:0,0:0:0:0:
147,254,90174,1,0,0:0:0:0:
103,250,90263,5,4,0:0:0:0:
216,188,90441,1,0,0:0:0:0:
120,344,90620,1,8,0:0:0:0:
107,185,90799,1,0,0:0:0:0:
123,177,90889,1,0,0:0:0:0:
139,169,90978,2,0,L|146:253,1,85
4,292,91334,1,8,0:0:0:0:
172,132,91513,2,0,L|179:216,1,85
16,112,91870,6,0,P|4:71|11:30,1,85,0|8,0:0|0:0,0:0:0:0:
179,216,92227,2,0,P|190:256|184:298,1,85
48,224,92584,1,0,0:0:0:0:
256,180,92763,1,8,0:0:0:0:
183,298,92941,1,0,0:0:0:0:
104,88,93120,6,0,L|188:95,1,85,4|0,0:0|0:0,0:0:0:0:
328,224,93477,1,8,0:0:0:0:
268,28,93656,1,0,0:0:0:0:
251,34,93746,1,0,0:0:0:0:
234,39,93835,1,0,0:0:0:0:
348,152,94013,1,0,0:0:0:0:
492,24,94191,1,8,0:0:0:0:
492,24,94370,6,0,L|408:31,1,85
280,180,94727,2,0,L|364:187,1,85,0|8,0:0|0:0,0:0:0:0:
480,112,95084,5,0,0:0:0:0:
480,112,95174,2,0,B|448:124|432:148|432:148|416:120|376:108,1,127.5
279,179,95531,1,0,0:0:0:0:
251,214,95620,1,8,0:0:0:0:
241,255,95709,1,0,0:0:0:0:
249,296,95799,1,0,0:0:0:0:
272,334,95888,1,0,0:0:0:0:
310,355,95977,6,0,L|393:347,1,85,4|0,0:0|0:0,0:0:0:0:
220,212,96334,2,0,P|180:201|138:207,1,85,8|0,0:0|0:0,0:0:0:0:
248,284,96602,1,0,0:0:0:0:
248,284,96691,2,0,L|331:276,1,85
496,208,97049,1,8,0:0:0:0:
394,346,97227,1,0,0:0:0:0:
292,172,97406,6,0,L|299:87,1,85
432,272,97763,1,8,0:0:0:0:
432,272,97941,2,0,L|424:189,1,85
280,272,98299,1,0,0:0:0:0:
500,232,98477,1,8,0:0:0:0:
364,148,98656,1,0,0:0:0:0:
412,352,98834,6,0,P|387:273|426:200,1,170,0|8,0:0|0:0,0:0:0:0:
320,304,99370,1,0,0:0:0:0:
279,315,99459,1,0,0:0:0:0:
237,308,99548,1,0,0:0:0:0:
328,152,99727,1,0,0:0:0:0:
412,352,99906,2,0,L|497:344,1,85,8|0,0:0|0:0,0:0:0:0:
280,228,100263,5,0,0:0:0:0:
280,228,100441,2,0,L|195:221,1,85,0|8,0:0|0:0,0:0:0:0:
348,124,100799,1,0,0:0:0:0:
391,120,100888,1,0,0:0:0:0:
435,116,100977,1,0,0:0:0:0:
280,84,101156,1,0,0:0:0:0:
420,196,101334,1,8,0:0:0:0:
460,28,101513,1,0,0:0:0:0:
444,248,101691,6,0,B|401:272|323:245|382:218|293:222|282:232,1,170,4|8,0:0|0:0,0:0:0:0:
112,292,102227,1,0,0:0:0:0:
153,303,102316,1,0,0:0:0:0:
195,296,102405,1,0,0:0:0:0:
252,168,102584,1,0,0:0:0:0:
184,372,102763,1,8,0:0:0:0:
64,232,102941,1,0,0:0:0:0:
282,231,103120,6,0,P|320:152|264:100,1,170,4|8,0:0|0:0,0:0:0:0:
56,148,103656,1,0,0:0:0:0:
56,148,103745,1,0,0:0:0:0:
56,148,103834,2,0,P|97:160|139:155,1,85
220,12,104191,1,8,0:0:0:0:
282,231,104370,1,0,0:0:0:0:
508,168,104549,6,0,L|381:156,1,127.5,4|0,0:0|0:0,0:0:0:0:
360,92,104906,2,0,P|353:50|364:9,1,85,8|0,0:0|0:0,0:0:0:0:
404,28,105174,1,0,0:0:0:0:
444,44,105263,1,0,0:0:0:0:
276,48,105441,1,0,0:0:0:0:
512,8,105620,1,8,0:0:0:0:
389,197,105799,6,0,L|403:28,1,170,4|0,0:0|0:0,0:0:0:0:
504,172,106334,1,8,0:0:0:0:
328,76,106513,1,0,0:0:0:0:
290,60,106602,1,0,0:0:0:0:
249,69,106691,1,0,0:0:0:0:
344,233,106870,1,0,0:0:0:0:
382,249,106959,1,0,0:0:0:0:
423,240,107049,1,12,0:0:0:0:
392,100,107227,1,0,0:0:0:0:
284,304,107406,6,0,B|293:196|293:196|244:156,1,170,4|8,0:0|0:0,0:0:0:0:
100,260,107941,1,0,0:0:0:0:
141,269,108031,1,0,0:0:0:0:
179,253,108120,1,0,0:0:0:0:
76,140,108299,1,0,0:0:0:0:
112,336,108477,2,0,P|153:348|195:343,1,85,8|0,0:0|0:0,0:0:0:0:
368,164,108834,6,0,P|410:159|450:171,1,85,4|0,0:0|0:0,0:0:0:0:
296,280,109191,2,0,P|253:284|213:272,1,85,8|0,0:0|0:0,0:0:0:0:
180,248,109459,1,0,0:0:0:0:
167,205,109549,1,12,0:0:0:0:
252,368,109727,5,8,0:0:0:0:
328,196,109906,1,8,0:0:0:0:
367,180,109995,1,8,0:0:0:0:
407,186,110084,1,8,0:0:0:0:
440,210,110174,1,8,0:0:0:0:
488,193,110263,6,0,P|505:126|480:73,1,127.5,4|0,0:0|0:0,0:0:0:0:
360,76,110620,2,0,P|320:88|278:84,1,85,8|0,0:0|0:0,0:0:0:0:
244,56,110888,1,0,0:0:0:0:
236,16,110977,1,0,0:0:0:0:
288,160,111156,1,0,0:0:0:0:
432,26,111334,1,8,0:0:0:0:
277,83,111513,1,0,0:0:0:0:
428,216,111691,6,0,B|477:262|477:262|514:218|474:166,1,170,2|8,0:0|0:0,0:0:0:0:
276,192,112227,1,0,0:0:0:0:
276,192,112316,1,0,0:0:0:0:
276,192,112406,1,0,0:0:0:0:
412,136,112584,1,0,0:0:0:0:
196,104,112763,1,8,0:0:0:0:
264,284,112941,1,0,0:0:0:0:
351,106,113120,6,0,B|434:98|434:98|409:136,1,127.5,2|0,0:0|0:0,0:0:0:0:
308,192,113477,2,0,B|260:197|260:197|229:171,1,85,8|0,0:0|0:0,0:0:0:0:
84,80,113745,1,0,0:0:0:0:
87,36,113834,2,0,B|116:12|116:12|164:16,1,85
184,220,114191,1,8,0:0:0:0:
224,64,114370,1,0,0:0:0:0:
240,288,114549,6,0,P|215:209|272:156,1,170,2|8,0:0|0:0,0:0:0:0:
120,192,115084,1,0,0:0:0:0:
89,195,115173,1,0,0:0:0:0:
57,198,115262,1,0,0:0:0:0:
164,344,115441,1,0,0:0:0:0:
272,155,115620,6,0,L|367:147,1,95.6250036478044,8|0,0:0|0:0,0:0:0:0:
511,222,115977,6,0,B|424:230|424:230|392:185,1,140.25000428009,4|0,0:0|0:0,0:0:0:0:
367,146,116334,1,8,0:0:0:0:
436,304,116513,1,0,0:0:0:0:
405,307,116602,1,0,0:0:0:0:
373,310,116691,1,0,0:0:0:0:
464,144,116870,1,0,0:0:0:0:
512,348,117049,1,8,0:0:0:0:
464,144,117227,1,0,0:0:0:0:
512,348,117406,6,0,B|520:261|520:261|475:229,1,140.25000428009,4|0,0:0|0:0,0:0:0:0:
436,204,117763,1,8,0:0:0:0:
284,292,117941,1,0,0:0:0:0:
332,288,118030,1,0,0:0:0:0:
379,284,118120,1,0,0:0:0:0:
219,205,118299,5,0,0:0:0:0:
328,187,118477,1,8,0:0:0:0:
284,292,118656,1,8,0:0:0:0:
260,96,118834,6,0,P|317:72|378:87,1,127.500004863739,2|0,0:0|0:0,0:0:0:0:
347,256,119370,1,0,0:0:0:0:
484,152,119549,2,0,L|421:146,1,63.7500024318696,10|0,0:0|0:0,0:0:0:0:
304,184,119906,1,0,0:0:0:0:
421,146,120084,1,0,0:0:0:0:
423,324,120263,6,0,P|447:266|432:205,1,127.5,6|0,0:0|0:0,0:0:0:0:
347,256,120620,2,0,B|303:252|275:224|275:224|267:244|251:264,1,127.5
355,140,120977,5,8,0:0:0:0:
163,184,121156,1,0,0:0:0:0:
379,56,121334,1,8,0:0:0:0:
379,56,121691,6,0,P|403:134|364:207,1,170,6|8,0:0|0:0,0:0:0:0:
216,160,122227,1,0,0:0:0:0:
177,145,122317,1,0,0:0:0:0:
137,153,122406,1,0,0:0:0:0:
188,284,122584,1,0,0:0:0:0:
140,76,122763,1,8,0:0:0:0:
188,284,122941,1,0,0:0:0:0:
340,120,123120,6,0,P|419:96|491:136,1,170,0|8,0:0|0:0,0:0:0:0:
360,220,123656,1,0,0:0:0:0:
321,235,123745,1,0,0:0:0:0:
281,227,123834,1,0,0:0:0:0:
284,72,124013,1,0,0:0:0:0:
212,284,124191,1,8,0:0:0:0:
199,88,124370,1,12,0:0:0:0:
241,80,124460,1,8,0:0:0:0:
284,72,124549,5,8,0:0:0:0:
172,224,124727,1,8,0:0:0:0:
108,12,124906,1,8,0:0:0:0:
64,292,125084,5,4,0:0:0:0:
292,240,125263,1,8,0:0:0:0:
144,152,125441,1,0,0:0:0:0:
372,288,125620,6,0,P|383:247|377:205,1,85,4|8,0:0|0:0,0:0:0:0:
356,168,125888,1,8,0:0:0:0:
316,148,125977,1,8,0:0:0:0:
272,148,126066,1,8,0:0:0:0:
232,164,126156,1,8,0:0:0:0:
204,196,126245,1,8,0:0:0:0:
196,240,126334,1,8,0:0:0:0:
204,284,126424,1,8,0:0:0:0:
228,320,126513,1,8,0:0:0:0:
268,340,126602,1,8,0:0:0:0:
316,340,126691,5,8,0:0:0:0:
356,316,126781,1,8,0:0:0:0:
384,280,126870,1,8,0:0:0:0:
388,232,126959,1,8,0:0:0:0:
372,184,127049,5,8,0:0:0:0:
336,148,127138,1,8,0:0:0:0:
328,96,127227,1,8,0:0:0:0:
344,48,127316,1,8,0:0:0:0:
392,12,127406,6,0,P|448:16|488:40,1,101.999996887207,6|0,0:0|0:0,0:0:0:0:
372,184,127763,1,8,0:0:0:0:
224,316,127941,1,0,0:0:0:0:
224,316,128031,1,0,0:0:0:0:
224,316,128120,2,0,P|175:331|125:325,1,101.999996887207,2|0,0:0|0:0,0:0:0:0:
296,188,128477,1,8,0:0:0:0:
396,360,128656,1,0,0:0:0:0:
504,156,128834,6,0,L|402:164,1,101.999996887207,2|0,0:0|0:0,0:0:0:0:
264,36,129191,2,0,L|162:28,1,101.999996887207,8|0,0:0|0:0,0:0:0:0:
120,24,129459,1,0,0:0:0:0:
80,20,129549,1,2,0:0:0:0:
212,183,129727,5,0,0:0:0:0:
392,91,129906,1,10,0:0:0:0:
162,28,130084,1,0,0:0:0:0:
200,268,130263,5,2,0:0:0:0:
430,331,130441,1,0,0:0:0:0:
116,300,130620,1,10,0:0:0:0:
316,268,130799,1,0,0:0:0:0:
355,264,130888,1,0,0:0:0:0:
395,261,130977,1,2,0:0:0:0:
216,368,131156,5,0,0:0:0:0:
300,108,131334,1,10,0:0:0:0:
364,344,131513,1,0,0:0:0:0:
108,196,131691,6,0,P|102:145|117:97,1,101.999996887207,2|0,0:0|0:0,0:0:0:0:
256,225,132049,2,0,P|262:276|247:324,1,101.999996887207,8|0,0:0|0:0,0:0:0:0:
247,323,132316,1,0,0:0:0:0:
247,323,132406,1,0,0:0:0:0:
108,196,132584,1,0,0:0:0:0:
344,200,132763,1,8,0:0:0:0:
20,256,132941,1,0,0:0:0:0:
20,256,133031,1,0,0:0:0:0:
20,256,133120,6,0,P|5:207|11:157,1,101.999996887207,6|0,0:0|0:0,0:0:0:0:
168,312,133477,1,8,0:0:0:0:
108,196,133656,2,0,L|158:201,1,50.9999984436036
279,184,133834,2,0,P|224:168|179:176,1,101.999996887207,2|0,0:0|0:0,0:0:0:0:
284,332,134191,1,8,0:0:0:0:
344,132,134370,1,0,0:0:0:0:
508,308,134549,6,0,P|453:324|408:316,1,101.999996887207,2|0,0:0|0:0,0:0:0:0:
279,184,134906,2,0,P|228:177|180:192,1,101.999996887207,8|0,0:0|0:0,0:0:0:0:
452,216,135263,5,10,0:0:0:0:
212,104,135441,1,0,0:0:0:0:
496,32,135620,1,10,0:0:0:0:
212,104,135799,1,0,0:0:0:0:
408,324,135977,5,6,0:0:0:0:
460,112,136156,1,0,0:0:0:0:
504,360,136334,1,10,0:0:0:0:
264,312,136513,1,0,0:0:0:0:
416,160,136691,5,2,0:0:0:0:
419,192,136781,1,8,0:0:0:0:
422,224,136870,1,0,0:0:0:0:
180,148,137049,1,10,0:0:0:0:
360,352,137227,1,8,0:0:0:0:
400,368,137316,1,8,0:0:0:0:
440,356,137406,6,0,P|499:279|443:196,1,203.999993774414,6|8,0:0|0:0,0:0:0:0:
320,232,137941,1,0,0:0:0:0:
416,276,138120,1,8,0:0:0:0:
216,312,138299,1,8,0:0:0:0:
388,180,138477,5,8,0:0:0:0:
348,148,138566,1,8,0:0:0:0:
296,148,138656,1,8,0:0:0:0:
256,176,138745,1,8,0:0:0:0:
216,220,138834,6,0,P|165:217|121:193,1,101.999996887207,6|0,0:0|0:0,0:0:0:0:
320,72,139191,1,8,0:0:0:0:
328,244,139370,2,0,L|378:249,1,50.9999984436036
499,232,139549,2,0,P|444:216|399:224,1,101.999996887207,2|0,0:0|0:0,0:0:0:0:
440,328,139906,1,8,0:0:0:0:
484,140,140084,1,0,0:0:0:0:
268,240,140263,6,0,L|259:341,1,101.999996887207,2|0,0:0|0:0,0:0:0:0:
428,188,140620,2,0,L|419:87,1,101.999996887207,8|0,0:0|0:0,0:0:0:0:
364,32,140888,1,0,0:0:0:0:
364,32,140977,2,0,P|371:83|356:131,1,101.999996887207,2|0,0:0|0:0,0:0:0:0:
145,64,141334,2,0,P|195:57|244:72,1,101.999996887207,10|0,0:0|0:0,0:0:0:0:
316,296,141691,5,2,0:0:0:0:
188,160,141870,1,0,0:0:0:0:
432,112,142049,1,10,0:0:0:0:
316,296,142227,1,0,0:0:0:0:
276,299,142316,1,0,0:0:0:0:
236,302,142406,1,2,0:0:0:0:
280,100,142584,5,0,0:0:0:0:
352,364,142763,1,10,0:0:0:0:
504,184,142941,1,0,0:0:0:0:
228,203,143120,6,0,P|220:253|235:301,1,101.999996887207,2|0,0:0|0:0,0:0:0:0:
280,100,143477,1,8,0:0:0:0:
104,152,143656,1,0,0:0:0:0:
64,149,143745,1,0,0:0:0:0:
24,146,143834,1,0,0:0:0:0:
264,24,144013,5,0,0:0:0:0:
104,152,144191,1,8,0:0:0:0:
360,216,144370,1,0,0:0:0:0:
80,72,144549,6,0,P|21:149|77:232,1,203.999993774414,4|8,0:0|0:0,0:0:0:0:
336,172,145084,1,4,0:0:0:0:
336,172,145174,1,0,0:0:0:0:
336,172,145263,2,0,P|287:156|237:162,1,101.999996887207
428,88,145620,1,8,0:0:0:0:
168,120,145799,1,0,0:0:0:0:
460,4,145977,6,0,L|442:208,1,203.999993774414,4|8,0:0|0:0,0:0:0:0:
268,152,146513,1,4,0:0:0:0:
268,152,146602,1,0,0:0:0:0:
268,152,146691,2,0,L|372:142,1,101.999996887207
432,296,147049,1,8,0:0:0:0:
376,72,147227,1,0,0:0:0:0:
173,246,147406,5,12,0:0:0:0:
330,169,147584,1,0,0:0:0:0:
188,68,147763,1,8,0:0:0:0:
238,293,147941,1,0,0:0:0:0:
328,60,148120,5,8,0:0:0:0:
96,180,148299,1,8,0:0:0:0:
384,236,148477,1,8,0:0:0:0:
96,180,148656,1,8,0:0:0:0:
392,28,148834,5,8,0:0:0:0:
336,308,149013,1,0,0:0:0:0:
168,96,149191,5,8,0:0:0:0:
112,376,149370,1,0,0:0:0:0:
272,204,149549,5,8,0:0:0:0:
196,24,149727,1,8,0:0:0:0:
144,24,149816,1,8,0:0:0:0:
104,56,149906,1,8,0:0:0:0:
92,104,149995,1,8,0:0:0:0:
112,148,150084,1,8,0:0:0:0:
148,184,150174,1,8,0:0:0:0:
164,224,150263,6,0,P|170:265|159:306,1,85,4|0,0:0|0:0,0:0:0:0:
44,256,150620,1,8,0:0:0:0:
232,180,150799,1,0,0:0:0:0:
232,180,150888,1,0,0:0:0:0:
232,180,150977,2,0,L|239:96,1,85
120,240,151334,6,0,B|114:303|114:303|84:321,1,95.6250036478044,8|0,0:0|0:0,0:0:0:0:
44,256,151691,6,0,L|36:165,1,85
201,301,152049,1,8,0:0:0:0:
118,167,152227,1,0,0:0:0:0:
118,167,152316,1,0,0:0:0:0:
118,167,152406,2,0,P|77:160|36:171,1,85
201,301,152763,5,8,0:0:0:0:
245,297,152852,1,8,0:0:0:0:
288,293,152941,1,8,0:0:0:0:
332,289,153031,1,8,0:0:0:0:
376,284,153120,6,0,B|415:280|415:280|444:245,1,85
240,136,153477,2,0,B|201:140|201:140|172:175,1,85,8|0,0:0|0:0,0:0:0:0:
268,216,153745,1,0,0:0:0:0:
268,216,153834,2,0,B|307:212|307:212|336:177,1,85
412,356,154191,2,0,B|451:352|451:352|480:317,1,85,8|0,0:0|0:0,0:0:0:0:
456,112,154549,6,0,L|463:199,1,85
268,112,154906,1,8,0:0:0:0:
380,248,155084,1,0,0:0:0:0:
383,206,155174,1,0,0:0:0:0:
387,163,155263,1,0,0:0:0:0:
244,248,155441,1,0,0:0:0:0:
464,304,155620,1,8,0:0:0:0:
428,128,155799,1,8,0:0:0:0:
416,88,155888,1,8,0:0:0:0:
376,60,155977,6,0,P|297:34|223:73,1,170,4|8,0:0|0:0,0:0:0:0:
340,224,156513,1,0,0:0:0:0:
336,180,156602,1,0,0:0:0:0:
308,148,156691,1,0,0:0:0:0:
164,180,156870,1,0,0:0:0:0:
380,112,157049,6,0,L|479:120,1,95.6250036478044,8|0,0:0|0:0,0:0:0:0:
420,52,157406,6,0,P|379:62|337:54,1,85
208,16,157763,1,8,0:0:0:0:
328,168,157941,1,0,0:0:0:0:
328,168,158031,1,0,0:0:0:0:
328,168,158120,1,0,0:0:0:0:
496,52,158299,1,0,0:0:0:0:
261,115,158477,6,0,P|244:156|252:208,1,95.6250036478044,8|0,0:0|0:0,0:0:0:0:
261,115,158834,6,0,B|325:83|381:135|381:135|369:79,1,187.000005706787,4|8,0:0|0:0,0:0:0:0:
308,204,159370,1,0,0:0:0:0:
308,204,159459,1,0,0:0:0:0:
308,204,159549,1,0,0:0:0:0:
264,36,159727,1,0,0:0:0:0:
224,240,159906,1,8,0:0:0:0:
392,148,160084,1,0,0:0:0:0:
144,104,160263,6,0,P|114:159|133:218,1,127.5,4|0,0:0|0:0,0:0:0:0:
152,240,160620,2,0,P|107:238|68:217,1,85,8|0,0:0|0:0,0:0:0:0:
272,160,160888,1,0,0:0:0:0:
272,160,160977,2,0,P|317:162|356:183,1,85,12|0,0:0|0:0,0:0:0:0:
287,348,161334,1,8,0:0:0:0:
249,367,161424,1,0,0:0:0:0:
209,364,161513,1,0,0:0:0:0:
173,345,161602,1,0,0:0:0:0:
152,308,161691,6,0,P|176:239|232:286,1,170,4|8,0:0|0:0,0:0:0:0:
96,364,162227,2,0,L|53:367,2,42.5
287,348,162584,1,0,0:0:0:0:
272,177,162763,1,8,0:0:0:0:
132,271,162941,6,0,L|139:355,1,85
264,261,163299,2,0,L|271:176,1,85,0|8,0:0|0:0,0:0:0:0:
96,184,163656,1,0,0:0:0:0:
96,184,163745,1,0,0:0:0:0:
96,184,163834,1,0,0:0:0:0:
304,220,164013,1,0,0:0:0:0:
132,271,164191,2,0,P|90:277|49:265,1,85,8|0,0:0|0:0,0:0:0:0:
112,348,164459,1,0,0:0:0:0:
112,348,164549,6,0,P|153:341|194:353,1,85
49,265,164906,1,8,0:0:0:0:
216,280,165084,1,0,0:0:0:0:
257,286,165174,1,0,0:0:0:0:
297,275,165263,1,0,0:0:0:0:
160,144,165441,5,0,0:0:0:0:
228,356,165620,1,8,0:0:0:0:
332,192,165799,1,0,0:0:0:0:
332,192,165977,6,0,L|324:279,1,85
504,208,166334,1,8,0:0:0:0:
292,136,166513,1,0,0:0:0:0:
288,178,166602,1,0,0:0:0:0:
284,220,166691,1,0,0:0:0:0:
464,152,166870,1,0,0:0:0:0:
248,84,167049,1,8,0:0:0:0:
156,272,167227,1,8,0:0:0:0:
156,272,167316,1,8,0:0:0:0:
156,272,167406,6,0,P|100:224|116:136,1,170,4|8,0:0|0:0,0:0:0:0:
260,112,167941,1,0,0:0:0:0:
260,112,168031,1,0,0:0:0:0:
260,112,168120,1,0,0:0:0:0:
88,32,168299,1,0,0:0:0:0:
292,4,168477,1,8,0:0:0:0:
176,192,168656,6,0,L|183:108,1,85
364,20,169013,2,0,L|371:103,1,85,0|8,0:0|0:0,0:0:0:0:
252,264,169370,1,0,0:0:0:0:
255,221,169459,1,0,0:0:0:0:
259,179,169549,1,0,0:0:0:0:
428,160,169727,1,0,0:0:0:0:
184,224,169906,1,8,0:0:0:0:
428,376,170084,1,0,0:0:0:0:
428,376,170174,1,0,0:0:0:0:
428,376,170263,6,0,P|446:338|447:295,1,85,4|0,0:0|0:0,0:0:0:0:
260,368,170620,1,8,0:0:0:0:
424,224,170799,5,4,0:0:0:0:
60,140,171156,1,4,0:0:0:0:
384,372,171513,1,4,0:0:0:0:
468,41,171870,5,0,0:0:0:0:
424,44,171960,1,0,0:0:0:0:
380,48,172049,1,8,0:0:0:0:
220,161,172227,1,0,0:0:0:0:
263,165,172316,1,0,0:0:0:0:
307,169,172406,1,0,0:0:0:0:
388,8,172584,5,0,0:0:0:0:
380,48,172674,1,0,0:0:0:0:
392,88,172763,1,8,0:0:0:0:
424,116,172852,1,0,0:0:0:0:
464,124,172941,1,0,0:0:0:0:
504,112,173031,1,0,0:0:0:0:
496,60,173120,6,0,L|324:45,1,170,4|8,0:0|0:0,0:0:0:0:
192,128,173656,2,0,L|149:131,2,42.5
364,120,174013,1,0,0:0:0:0:
200,32,174191,1,8,0:0:0:0:
416,24,174370,1,0,0:0:0:0:
371,204,174549,5,0,0:0:0:0:
371,204,174727,2,0,L|363:116,1,85,0|8,0:0|0:0,0:0:0:0:
480,196,175084,1,0,0:0:0:0:
476,240,175174,1,0,0:0:0:0:
473,284,175263,1,0,0:0:0:0:
304,248,175441,1,0,0:0:0:0:
480,196,175620,1,8,0:0:0:0:
292,64,175799,1,0,0:0:0:0:
292,64,175977,6,0,L|204:72,1,85
20,176,176334,2,0,L|104:183,1,85,8|0,0:0|0:0,0:0:0:0:
148,188,176602,1,0,0:0:0:0:
191,191,176691,1,0,0:0:0:0:
292,64,176870,1,0,0:0:0:0:
52,36,177049,1,8,0:0:0:0:
179,137,177227,6,0,L|262:144,1,85
450,90,177584,1,0,0:0:0:0:
323,191,177763,2,0,L|238:198,1,85,8|0,0:0|0:0,0:0:0:0:
196,204,178031,1,0,0:0:0:0:
156,208,178120,1,0,0:0:0:0:
224,80,178299,1,0,0:0:0:0:
184,280,178477,1,8,0:0:0:0:
76,144,178656,1,8,0:0:0:0:
76,144,178745,1,8,0:0:0:0:
76,144,178834,6,0,P|149:106|227:132,1,170,4|8,0:0|0:0,0:0:0:0:
376,196,179370,1,0,0:0:0:0:
338,215,179460,1,0,0:0:0:0:
297,203,179549,1,0,0:0:0:0:
444,108,179727,1,0,0:0:0:0:
408,320,179906,1,8,0:0:0:0:
297,203,180084,1,0,0:0:0:0:
512,152,180263,5,0,0:0:0:0:
408,320,180441,1,0,0:0:0:0:
312,96,180620,1,8,0:0:0:0:
448,240,180799,1,0,0:0:0:0:
479,238,180888,1,0,0:0:0:0:
511,235,180977,1,0,0:0:0:0:
392,108,181156,1,0,0:0:0:0:
292,324,181334,6,0,L|356:332,1,63.7500024318696,8|0,0:0|0:0,0:0:0:0:
512,360,181602,5,0,0:0:0:0:
512,360,181691,2,0,B|400:369|400:369|355:332,1,170,4|8,0:0|0:0,0:0:0:0:
208,236,182227,1,0,0:0:0:0:
243,229,182317,1,0,0:0:0:0:
274,224,182406,1,0,0:0:0:0:
144,344,182584,2,0,L|61:328,1,85,0|8,0:0|0:0,0:0:0:0:
274,224,182941,6,0,P|348:186|426:212,1,170,4|8,0:0|0:0,0:0:0:0:
462,232,183388,1,8,0:0:0:0:
506,228,183477,1,8,0:0:0:0:
356,292,183656,1,8,0:0:0:0:
342,330,183745,1,8,0:0:0:0:
354,373,183834,1,8,0:0:0:0:
462,232,184013,5,8,0:0:0:0:
490,200,184102,1,8,0:0:0:0:
470,164,184191,1,8,0:0:0:0:
494,132,184281,1,8,0:0:0:0:
474,96,184370,1,8,0:0:0:0:
502,64,184459,1,8,0:0:0:0:
482,28,184549,5,4,0:0:0:0:
364,88,195441,5,0,0:0:0:0:
240,164,195620,1,0,0:0:0:0:
364,88,195799,1,0,0:0:0:0:
240,164,195977,6,0,P|304:136|335:199,1,152.999995330811,4|0,0:0|0:0,0:0:0:0:
176,84,196691,2,0,P|111:111|80:48,1,152.999995330811,8|0,0:0|0:0,0:0:0:0:
220,4,197227,1,0,0:0:0:0:
240,164,197406,2,0,L|233:239,2,76.4999976654053
240,164,198120,1,8,0:0:0:0:
364,72,198477,5,0,0:0:0:0:
164,84,198656,1,0,0:0:0:0:
292,12,198834,2,0,B|328:80|272:184|272:184|324:224|392:196,1,305.999990661621,0|8,0:0|0:0,0:0:0:0:
340,92,199906,5,0,0:0:0:0:
140,104,200084,1,0,0:0:0:0:
258,22,200263,2,0,B|292:64|284:108|284:108|316:112|344:88,2,152.999995330811,0|0|8,0:0|0:0|0:0,0:0:0:0:
140,104,201334,6,0,L|131:200,1,95.6250036478044
124,240,201691,5,4,0:0:0:0:
56,132,201870,1,0,0:0:0:0:
216,292,202049,5,0,0:0:0:0:
210,151,202228,1,0,0:0:0:0:
284,376,202406,5,8,0:0:0:0:
355,238,202585,1,0,0:0:0:0:
132,184,202763,1,0,0:0:0:0:
248,284,202941,1,0,0:0:0:0:
404,168,203120,6,0,P|446:162|487:173,1,85,4|0,0:0|0:0,0:0:0:0:
284,376,203477,2,0,P|242:382|201:371,1,85
320,220,203834,2,0,L|327:136,1,85,8|0,0:0|0:0,0:0:0:0:
340,24,204191,1,0,0:0:0:0:
244,188,204370,1,0,0:0:0:0:
480,132,204549,6,0,L|472:48,1,85,4|0,0:0|0:0,0:0:0:0:
300,96,204906,1,8,0:0:0:0:
408,228,205084,1,0,0:0:0:0:
404,271,205174,1,0,0:0:0:0:
400,315,205263,1,0,0:0:0:0:
256,140,205441,2,0,L|264:56,1,85,0|8,0:0|0:0,0:0:0:0:
392,116,205799,1,0,0:0:0:0:
92,184,205977,5,12,0:0:0:0:
327,255,206156,1,8,0:0:0:0:
271,15,206334,1,8,0:0:0:0:
271,15,206691,2,0,B|315:90|315:90|271:163,1,170,12|8,0:0|0:0,0:0:0:0:
52,92,207227,5,0,0:0:0:0:
52,92,207316,1,0,0:0:0:0:
52,92,207406,1,4,0:0:0:0:
296,60,207584,1,8,0:0:0:0:
112,8,207763,1,8,0:0:0:0:
368,124,207941,2,0,L|375:40,1,85,4|8,0:0|0:0,0:0:0:0:
164,112,208299,1,0,0:0:0:0:
396,200,208477,6,0,L|403:116,1,85,4|8,0:0|0:0,0:0:0:0:
392,72,208745,1,8,0:0:0:0:
356,48,208834,1,8,0:0:0:0:
312,44,208924,1,8,0:0:0:0:
272,56,209013,1,8,0:0:0:0:
240,84,209102,1,8,0:0:0:0:
220,124,209191,1,8,0:0:0:0:
224,168,209281,1,8,0:0:0:0:
244,208,209370,1,8,0:0:0:0:
276,236,209459,1,8,0:0:0:0:
300,196,209549,5,8,0:0:0:0:
270,158,209638,1,8,0:0:0:0:
223,146,209728,1,8,0:0:0:0:
180,160,209817,1,8,0:0:0:0:
148,200,209906,5,8,0:0:0:0:
148,252,209996,1,8,0:0:0:0:
176,296,210085,1,8,0:0:0:0:
224,312,210174,1,8,0:0:0:0:
276,292,210263,6,0,P|333:268|392:288,1,127.500004863739,4|0,0:0|0:0,0:0:0:0:
176,296,210977,2,0,P|124:330|62:321,1,127.500004863739
188,140,211691,6,0,B|174:298|174:298|120:218,1,255.000009727478
255,265,212763,1,0,0:0:0:0:
77,161,213120,5,0,0:0:0:0:
255,265,213477,1,0,0:0:0:0:
77,374,213834,1,0,0:0:0:0:
120,218,214191,1,0,0:0:0:0:
120,218,214549,6,0,B|168:261|168:261|216:217,1,127.500004863739
380,204,215263,2,0,B|332:160|332:160|284:203,1,127.500004863739
120,304,215977,6,0,P|58:313|6:278,1,127.500004863739
212,272,216691,2,0,P|273:262|325:297,1,127.500004863739
120,304,217406,6,0,B|105:145|105:145|172:213,1,255.000009727478
171,213,218477,1,0,0:0:0:0:
20,152,218834,5,0,0:0:0:0:
216,148,219191,1,0,0:0:0:0:
56,280,219549,1,0,0:0:0:0:
12,56,219906,1,0,0:0:0:0:
228,352,220263,5,8,0:0:0:0:
340,64,220441,1,8,0:0:0:0:
396,264,220799,5,0,0:0:0:0:
396,264,220888,1,0,0:0:0:0:
396,264,220977,2,0,L|400:216,1,42.5,8|0,0:0|0:0,0:0:0:0:
104,28,221156,2,0,L|108:75,1,42.5,8|0,0:0|0:0,0:0:0:0:
228,352,221691,6,0,L|235:258,1,93.5000028533936,6|0,0:0|0:0,0:0:0:0:
84,184,222049,1,8,0:0:0:0:
224,172,222227,2,0,L|271:168,1,46.7500014266968
396,136,222406,2,0,P|351:121|298:128,1,93.5000028533936,2|0,0:0|0:0,0:0:0:0:
235,258,222763,1,8,0:0:0:0:
184,48,222941,1,0,0:0:0:0:
472,192,223120,6,0,P|486:147|479:94,1,93.5000028533936,2|0,0:0|0:0,0:0:0:0:
308,200,223477,1,8,0:0:0:0:
416,328,223656,1,0,0:0:0:0:
416,328,223745,1,0,0:0:0:0:
416,328,223834,2,0,L|511:336,1,93.5000028533936,2|0,0:0|0:0,0:0:0:0:
336,168,224191,2,0,L|242:176,1,93.5000028533936,10|0,0:0|0:0,0:0:0:0:
184,128,224459,1,0,0:0:0:0:
184,128,224549,6,0,P|232:132|276:120,1,93.5000028533936,2|0,0:0|0:0,0:0:0:0:
116,24,224906,1,10,0:0:0:0:
124,176,225084,1,0,0:0:0:0:
127,211,225174,1,0,0:0:0:0:
130,247,225263,1,2,0:0:0:0:
275,120,225441,1,0,0:0:0:0:
56,220,225620,1,10,0:0:0:0:
116,24,225799,1,0,0:0:0:0:
328,176,225977,6,0,P|342:219|338:266,1,93.5000028533936,2|0,0:0|0:0,0:0:0:0:
392,96,226334,1,8,0:0:0:0:
244,232,226513,1,0,0:0:0:0:
208,235,226602,1,0,0:0:0:0:
172,239,226691,1,0,0:0:0:0:
248,84,226870,5,0,0:0:0:0:
296,88,226959,1,0,0:0:0:0:
344,92,227049,1,8,0:0:0:0:
392,96,227138,1,0,0:0:0:0:
439,101,227227,2,0,P|436:128|424:148,1,46.7500014266968
193,81,227406,6,0,P|271:39|343:91,1,187.000005706787,4|8,0:0|0:0,0:0:0:0:
144,172,227941,1,4,0:0:0:0:
105,191,228031,1,0,0:0:0:0:
64,178,228120,1,0,0:0:0:0:
232,240,228299,1,0,0:0:0:0:
172,40,228477,1,8,0:0:0:0:
105,191,228656,1,0,0:0:0:0:
330,156,228834,6,0,L|143:172,1,187.000005706787,4|8,0:0|0:0,0:0:0:0:
319,238,229370,1,4,0:0:0:0:
319,238,229459,1,0,0:0:0:0:
319,238,229549,2,0,L|412:246,1,93.5000028533936
225,365,229906,1,8,0:0:0:0:
189,133,230084,1,0,0:0:0:0:
413,247,230263,6,0,P|465:175|423:96,1,187.000005706787,4|8,0:0|0:0,0:0:0:0:
277,133,230799,1,0,0:0:0:0:
243,149,230888,1,0,0:0:0:0:
206,140,230977,1,0,0:0:0:0:
105,53,231156,1,0,0:0:0:0:
209,225,231334,1,8,0:0:0:0:
289,61,231513,1,0,0:0:0:0:
325,61,231602,1,0,0:0:0:0:
361,61,231691,5,0,0:0:0:0:
285,237,231870,1,0,0:0:0:0:
261,25,232049,1,8,0:0:0:0:
385,273,232227,1,0,0:0:0:0:
229,165,232406,5,0,0:0:0:0:
265,165,232495,1,8,0:0:0:0:
301,165,232584,1,0,0:0:0:0:
149,269,232763,1,8,0:0:0:0:
373,117,232941,1,8,0:0:0:0:
373,117,233031,1,8,0:0:0:0:
373,117,233120,6,0,P|385:158|380:200,1,85,4|0,0:0|0:0,0:0:0:0:
221,61,233477,1,8,0:0:0:0:
445,89,233656,2,0,L|469:49,2,42.5
380,199,234013,5,0,0:0:0:0:
261,77,234191,2,0,L|176:69,1,85,8|0,0:0|0:0,0:0:0:0:
349,277,234727,2,0,L|432:269,1,85,0|8,0:0|0:0,0:0:0:0:
433,268,235084,1,0,0:0:0:0:
180,228,235441,5,0,0:0:0:0:
256,324,235620,1,8,0:0:0:0:
348,188,235799,1,0,0:0:0:0:
348,188,235888,1,0,0:0:0:0:
348,188,235977,5,4,0:0:0:0:
108,176,236156,1,0,0:0:0:0:
232,20,236334,1,8,0:0:0:0:
264,240,236513,1,0,0:0:0:0:
44,328,236691,5,8,0:0:0:0:
77,98,236870,1,0,0:0:0:0:
280,212,237049,1,8,0:0:0:0:
13,250,237227,1,0,0:0:0:0:
304,369,237406,5,4,0:0:0:0:
280,212,237584,1,8,0:0:0:0:
155,308,237763,1,8,0:0:0:0:
280,292,237941,1,0,0:0:0:0:
76,244,238120,1,8,0:0:0:0:
260,372,238299,5,8,0:0:0:0:
304,369,238388,1,8,0:0:0:0:
340,348,238477,1,8,0:0:0:0:
364,312,238566,1,8,0:0:0:0:
404,300,238656,1,8,0:0:0:0:
448,320,238745,1,8,0:0:0:0:
484,368,238834,6,0,P|508:323|510:273,1,101.999996887207,6|0,0:0|0:0,0:0:0:0:
340,348,239191,1,8,0:0:0:0:
200,188,239370,1,0,0:0:0:0:
200,188,239459,1,0,0:0:0:0:
200,188,239549,2,0,P|151:173|101:179,1,101.999996887207,2|0,0:0|0:0,0:0:0:0:
304,84,239906,1,8,0:0:0:0:
140,268,240084,1,0,0:0:0:0:
36,72,240263,6,0,L|138:64,1,101.999996887207,2|0,0:0|0:0,0:0:0:0:
264,224,240620,2,0,L|366:232,1,101.999996887207,8|0,0:0|0:0,0:0:0:0:
408,236,240888,1,0,0:0:0:0:
448,240,240977,1,2,0:0:0:0:
288,120,241156,5,0,0:0:0:0:
376,308,241334,1,10,0:0:0:0:
448,80,241513,1,0,0:0:0:0:
212,104,241691,5,2,0:0:0:0:
140,332,241870,1,0,0:0:0:0:
440,236,242049,1,10,0:0:0:0:
240,212,242227,1,0,0:0:0:0:
200,209,242316,1,0,0:0:0:0:
161,205,242406,1,2,0:0:0:0:
303,351,242584,5,0,0:0:0:0:
252,77,242763,1,10,0:0:0:0:
440,236,242941,1,0,0:0:0:0:
188,376,243120,6,0,P|137:382|89:367,1,101.999996887207,2|0,0:0|0:0,0:0:0:0:
4,180,243477,2,0,P|55:174|103:189,1,101.999996887207,8|0,0:0|0:0,0:0:0:0:
102,188,243745,1,0,0:0:0:0:
102,188,243834,1,0,0:0:0:0:
89,367,244013,1,0,0:0:0:0:
28,104,244191,1,8,0:0:0:0:
344,260,244370,1,0,0:0:0:0:
344,260,244459,1,0,0:0:0:0:
344,260,244549,6,0,P|295:246|245:252,1,101.999996887207,6|0,0:0|0:0,0:0:0:0:
156,76,244906,1,8,0:0:0:0:
268,176,245084,2,0,L|218:170,1,50.9999984436036
96,188,245263,2,0,P|151:203|196:196,1,101.999996887207,2|0,0:0|0:0,0:0:0:0:
44,84,245620,1,8,0:0:0:0:
60,256,245799,1,0,0:0:0:0:
144,24,245977,6,0,P|158:72|152:122,1,101.999996887207,2|0,0:0|0:0,0:0:0:0:
36,272,246334,2,0,P|21:320|28:370,1,101.999996887207,8|0,0:0|0:0,0:0:0:0:
28,370,246602,1,0,0:0:0:0:
28,370,246691,5,2,0:0:0:0:
284,276,246870,1,0,0:0:0:0:
20,152,247049,1,10,0:0:0:0:
208,280,247227,1,0,0:0:0:0:
432,88,247406,5,6,0:0:0:0:
284,276,247584,1,0,0:0:0:0:
100,68,247763,1,10,0:0:0:0:
344,140,247941,1,0,0:0:0:0:
168,332,248120,5,2,0:0:0:0:
165,300,248210,1,8,0:0:0:0:
162,268,248299,1,0,0:0:0:0:
416,364,248477,1,10,0:0:0:0:
240,152,248656,1,8,0:0:0:0:
228,192,248745,1,8,0:0:0:0:
234,234,248834,6,0,P|299:305|391:264,1,203.999993774414,6|8,0:0|0:0,0:0:0:0:
420,120,249370,1,0,0:0:0:0:
234,234,249549,6,0,L|284:220,1,50.9999984436036,8|0,0:0|0:0,0:0:0:0:
460,196,249727,2,0,L|410:182,1,50.9999984436036,8|0,0:0|0:0,0:0:0:0:
293,64,249906,5,8,0:0:0:0:
289,116,249995,1,8,0:0:0:0:
284,168,250084,1,8,0:0:0:0:
283,220,250174,1,8,0:0:0:0:
278,280,250263,6,0,P|320:307|370:315,1,101.999996887207,6|0,0:0|0:0,0:0:0:0:
284,168,250620,1,8,0:0:0:0:
168,272,250799,2,0,L|118:278,1,50.9999984436036
4,260,250978,2,0,P|59:245|104:252,1,101.999996887207,2|0,0:0|0:0,0:0:0:0:
240,372,251334,1,8,0:0:0:0:
284,168,251513,1,0,0:0:0:0:
102,251,251691,6,0,L|111:352,1,101.999996887207,2|0,0:0|0:0,0:0:0:0:
308,208,252049,2,0,L|317:107,1,101.999996887207,8|0,0:0|0:0,0:0:0:0:
360,184,252317,1,0,0:0:0:0:
360,183,252406,2,0,P|409:191|458:175,1,101.999996887207,2|0,0:0|0:0,0:0:0:0:
244,16,252763,2,0,P|193:9|145:24,1,101.999996887207,8|0,0:0|0:0,0:0:0:0:
264,216,253120,5,2,0:0:0:0:
340,44,253299,1,0,0:0:0:0:
396,280,253477,1,10,0:0:0:0:
220,152,253656,1,0,0:0:0:0:
180,155,253745,1,0,0:0:0:0:
140,158,253835,1,2,0:0:0:0:
336,208,254013,5,0,0:0:0:0:
164,8,254191,1,10,0:0:0:0:
128,240,254370,1,0,0:0:0:0:
396,136,254549,6,0,P|411:88|404:38,1,101.999996887207,2|0,0:0|0:0,0:0:0:0:
252,152,254906,1,8,0:0:0:0:
424,212,255084,1,0,0:0:0:0:
464,209,255173,1,0,0:0:0:0:
504,206,255262,1,0,0:0:0:0:
380,100,255441,6,0,L|328:90,1,50.9999984436036
158,167,255620,2,0,L|209:157,1,50.9999984436036,8|0,0:0|0:0,0:0:0:0:
322,55,255799,2,0,L|270:45,1,50.9999984436036
224,224,255977,6,0,P|305:275|381:216,1,203.999993774414,4|8,0:0|0:0,0:0:0:0:
152,84,256513,1,4,0:0:0:0:
152,84,256602,1,0,0:0:0:0:
152,84,256691,2,0,P|102:79|54:95,1,101.999996887207
224,224,257049,1,8,0:0:0:0:
332,48,257227,1,0,0:0:0:0:
116,192,257406,6,0,L|323:174,1,203.999993774414,4|8,0:0|0:0,0:0:0:0:
448,328,257941,1,4,0:0:0:0:
448,328,258030,1,0,0:0:0:0:
448,328,258120,2,0,L|344:318,1,101.999996887207
160,300,258477,1,8,0:0:0:0:
244,56,258656,1,0,0:0:0:0:
44,252,258834,5,12,0:0:0:0:
252,232,259013,1,0,0:0:0:0:
104,132,259191,1,8,0:0:0:0:
308,100,259370,1,0,0:0:0:0:
152,252,259549,5,8,0:0:0:0:
244,56,259727,1,8,0:0:0:0:
252,332,259906,1,8,0:0:0:0:
160,136,260084,1,8,0:0:0:0:
436,176,260263,5,8,0:0:0:0:
193,30,260441,1,0,0:0:0:0:
303,288,260620,5,8,0:0:0:0:
367,15,260799,1,0,0:0:0:0:
155,199,260977,5,8,0:0:0:0:
372,96,261156,1,8,0:0:0:0:
351,141,261245,1,8,0:0:0:0:
306,165,261334,1,8,0:0:0:0:
255,156,261424,1,8,0:0:0:0:
225,118,261513,1,8,0:0:0:0:
181,94,261602,1,8,0:0:0:0:
132,92,261691,1,4,0:0:0:0:
256,192,261781,12,8,264191,0:0:0:0:
48,240,264549,6,0,L|40:327,1,85
190,201,264906,2,0,L|197:113,1,85,8|0,0:0|0:0,0:0:0:0:
198,117,265174,1,0,0:0:0:0:
198,117,265263,1,0,0:0:0:0:
20,168,265441,1,0,0:0:0:0:
248,260,265620,1,8,0:0:0:0:
40,324,265799,1,0,0:0:0:0:
316,380,265977,6,0,P|330:340|323:299,1,85
148,352,266334,1,8,0:0:0:0:
256,228,266513,1,0,0:0:0:0:
287,225,266602,1,0,0:0:0:0:
319,222,266691,1,0,0:0:0:0:
199,348,266871,5,0,0:0:0:0:
148,352,266960,1,0,0:0:0:0:
103,328,267049,1,8,0:0:0:0:
95,280,267138,1,0,0:0:0:0:
123,244,267227,1,8,0:0:0:0:
164,236,267316,1,8,0:0:0:0:
208,272,267406,6,0,B|292:280|292:280|366:238,1,170,4|8,0:0|0:0,0:0:0:0:
315,148,267941,1,0,0:0:0:0:
315,148,268031,1,0,0:0:0:0:
315,148,268120,1,0,0:0:0:0:
488,224,268299,1,0,0:0:0:0:
292,284,268477,2,0,L|208:276,1,85,8|0,0:0|0:0,0:0:0:0:
428,116,268834,6,0,L|512:108,1,85
364,248,269191,1,8,0:0:0:0:
296,56,269370,1,0,0:0:0:0:
292,100,269459,1,0,0:0:0:0:
288,143,269548,1,0,0:0:0:0:
468,80,269727,1,0,0:0:0:0:
232,4,269906,1,8,0:0:0:0:
332,248,270084,1,0,0:0:0:0:
332,248,270174,1,0,0:0:0:0:
332,248,270263,6,0,B|338:163|338:163|392:98,1,170,4|8,0:0|0:0,0:0:0:0:
236,200,270799,1,0,0:0:0:0:
236,200,270888,1,0,0:0:0:0:
236,200,270977,2,0,L|152:206,1,85
344,296,271334,2,0,P|384:310|425:303,1,85,8|0,0:0|0:0,0:0:0:0:
296,128,271691,6,0,P|259:107|217:107,1,85
392,220,272049,2,0,L|399:136,1,85,8|0,0:0|0:0,0:0:0:0:
399,135,272316,1,0,0:0:0:0:
399,135,272406,1,0,0:0:0:0:
504,268,272584,1,0,0:0:0:0:
336,312,272763,5,8,0:0:0:0:
300,288,272852,1,0,0:0:0:0:
256,288,272941,1,0,0:0:0:0:
216,308,273031,1,0,0:0:0:0:
188,348,273120,6,0,B|136:344|116:296|116:296|88:312|92:336,1,140.25000428009,4|0,0:0|0:0,0:0:0:0:
104,380,273477,1,8,0:0:0:0:
200,208,273656,2,0,B|249:179|295:199|295:199|272:164,1,140.25000428009,4|0,0:0|0:0,0:0:0:0:
248,140,274013,1,0,0:0:0:0:
316,308,274191,1,8,0:0:0:0:
352,92,274370,1,0,0:0:0:0:
64,164,274549,5,4,0:0:0:0:
36,300,274727,1,8,0:0:0:0:
60,336,274816,1,8,0:0:0:0:
100,352,274906,1,8,0:0:0:0:
144,348,274995,1,8,0:0:0:0:
180,324,275084,1,8,0:0:0:0:
200,284,275174,1,8,0:0:0:0:
208,240,275263,5,8,0:0:0:0:
240,204,275352,1,8,0:0:0:0:
284,188,275441,1,8,0:0:0:0:
328,200,275531,1,8,0:0:0:0:
364,236,275620,5,8,0:0:0:0:
372,288,275710,1,8,0:0:0:0:
352,336,275799,1,8,0:0:0:0:
308,360,275888,1,8,0:0:0:0:
256,336,275977,6,0,B|241:258|241:258|298:209,1,152.999995330811,4|0,0:0|0:0,0:0:0:0:
160,60,276674,2,0,B|174:137|174:137|117:186,1,152.999995330811
376,84,277372,5,0,0:0:0:0:
160,60,277766,6,0,L|108:55,3,50.9999984436036
256,160,278558,5,0,0:0:0:0:
444,24,278981,5,0,0:0:0:0:
264,80,279442,5,0,0:0:0:0:
456,140,279858,5,0,0:0:0:0:
308,184,280213,5,0,0:0:0:0:
380,48,280607,5,0,0:0:0:0:
428,212,281041,1,0,0:0:0:0:
332,108,281476,5,0,0:0:0:0:
496,60,282002,1,0,0:0:0:0:
208,28,283278,6,0,L|184:25,2,21.25
