osu file format v14

[General]
AudioFilename: audio.mp3
AudioLeadIn: -2300
PreviewTime: -1
Countdown: 0
SampleSet: Soft
StackLeniency: 0.7
Mode: 3
LetterboxInBreaks: 0
SpecialStyle: 0
WidescreenStoryboard: 0

[Editor]
DistanceSpacing: 1
BeatDivisor: 4
GridSize: 4
TimelineZoom: 1.2

[Metadata]
Title:Omoi yo Hitotsu ni Nare
TitleUnicode:Omoi yo Hitotsu ni Nare
Artist:Aqours
ArtistUnicode:Aqours
Creator:indyinyou
Version:Drum track
Source:Love Live! Sunshine!!
Tags:
BeatmapID:1422336
BeatmapSetID:672878

[Difficulty]
HPDrainRate:9
CircleSize:7
OverallDifficulty:9
ApproachRate:5
SliderMultiplier:1.4
SliderTickRate:1

[Events]
//Background and Video events
0,0,"BG.jpg",0,0
Video,1515,"mv.avi"
//Break Periods
2,44752,107608
//Storyboard Layer 0 (Background)
//Storyboard Layer 1 (Fail)
//Storyboard Layer 2 (Pass)
//Storyboard Layer 3 (Foreground)
//Storyboard Sound Samples

[TimingPoints]
1695,357.142857142857,4,2,0,70,1,0
84570,357.142857142857,4,2,0,70,1,0
98855,333.333333333333,4,2,0,70,1,0
99188,355.029585798817,4,2,0,70,1,0
100253,402.684563758389,4,2,0,70,1,0
100655,355.029585798817,4,2,0,70,1,0
101010,434.782608695652,4,2,0,70,1,0
101444,422.535211267606,4,2,0,70,1,0
101866,444.444444444444,4,2,0,70,1,0
102310,419.58041958042,4,2,0,70,1,0
102729,340.909090909091,4,2,0,70,1,0
103069,422.535211267606,4,2,0,70,1,0
103914,434.782608695652,4,2,0,70,1,0
104348,526.315789473684,4,2,0,70,1,0
104874,731.707317073171,4,2,0,70,1,0

[HitObjects]
402,192,18302,5,0,0:0:0:70:Kick.wav
402,192,18391,1,0,0:0:0:70:Kick.wav
329,192,18480,1,0,0:0:0:70:Snare.wav
36,192,18480,1,0,0:0:0:70:Crash L1.wav
256,192,18837,1,0,0:0:0:70:Kick.wav
475,192,18837,1,0,0:0:0:70:Crash R1.wav
36,192,18837,1,0,0:0:0:70:Crash L1.wav
36,192,19016,1,0,0:0:0:70:Hat Pedal.wav
329,192,19194,1,0,0:0:0:70:Snare.wav
182,192,19194,1,0,0:0:0:70:Hat Closed 1.wav
36,192,19373,1,0,0:0:0:70:Hat Pedal.wav
402,192,19462,1,0,0:0:0:70:Kick.wav
329,192,19462,1,0,0:0:0:70:Snare.wav
402,192,19552,1,0,0:0:0:70:Kick.wav
182,192,19552,1,0,0:0:0:70:Hat Closed 1.wav
36,192,19730,1,0,0:0:0:70:Hat Pedal.wav
402,192,19730,1,0,0:0:0:70:Kick.wav
329,192,19909,1,0,0:0:0:70:Snare.wav
182,192,19909,1,0,0:0:0:70:Hat Closed 1.wav
402,192,20087,1,0,0:0:0:70:Kick.wav
36,192,20087,1,0,0:0:0:70:Hat Pedal.wav
182,192,20266,1,0,0:0:0:70:Hat Closed 1.wav
402,192,20444,1,0,0:0:0:70:Kick.wav
36,192,20444,1,0,0:0:0:70:Hat Pedal.wav
329,192,20623,1,0,0:0:0:70:Snare.wav
182,192,20623,1,0,0:0:0:70:Hat Closed 1.wav
36,192,20802,1,0,0:0:0:70:Hat Pedal.wav
329,192,20891,1,0,0:0:0:70:Snare.wav
402,192,20980,1,0,0:0:0:70:Kick.wav
182,192,20980,1,0,0:0:0:70:Hat Closed 1.wav
402,192,21159,1,0,0:0:0:70:Kick.wav
36,192,21159,1,0,0:0:0:70:Hat Pedal.wav
329,192,21337,1,0,0:0:0:70:Snare.wav
182,192,21337,1,0,0:0:0:70:Hat Closed 1.wav
36,192,21516,1,0,0:0:0:70:Hat Semi.wav
36,192,21605,1,0,0:0:0:70:Hat Semi.wav
182,192,21694,1,0,0:0:0:70:Hat Open.wav
256,192,21694,1,0,0:0:0:70:Kick.wav
475,192,21694,1,0,0:0:0:70:Crash R1.wav
36,192,21873,1,0,0:0:0:70:Hat Pedal.wav
329,192,22052,1,0,0:0:0:70:Snare.wav
182,192,22052,1,0,0:0:0:70:Hat Closed 1.wav
36,192,22230,1,0,0:0:0:70:Hat Pedal.wav
329,192,22319,1,0,0:0:0:70:Snare.wav
402,192,22319,1,0,0:0:0:70:Kick.wav
402,192,22409,1,0,0:0:0:70:Kick.wav
182,192,22409,1,0,0:0:0:70:Hat Closed 1.wav
402,192,22587,1,0,0:0:0:70:Kick.wav
36,192,22587,1,0,0:0:0:70:Hat Pedal.wav
329,192,22766,1,0,0:0:0:70:Snare.wav
182,192,22766,1,0,0:0:0:70:Hat Closed 1.wav
402,192,22944,1,0,0:0:0:70:Kick.wav
36,192,22944,1,0,0:0:0:70:Hat Pedal.wav
182,192,23123,1,0,0:0:0:70:Hat Closed 1.wav
402,192,23302,1,0,0:0:0:70:Kick.wav
36,192,23302,1,0,0:0:0:70:Hat Pedal.wav
182,192,23480,1,0,0:0:0:70:Hat Closed 1.wav
329,192,23480,1,0,0:0:0:70:Snare.wav
36,192,23659,1,0,0:0:0:70:Hat Pedal.wav
329,192,23748,1,0,0:0:0:70:Snare.wav
402,192,23837,1,0,0:0:0:70:Kick.wav
182,192,23837,1,0,0:0:0:70:Hat Closed 1.wav
402,192,24016,1,0,0:0:0:70:Kick.wav
36,192,24016,1,0,0:0:0:70:Hat Pedal.wav
329,192,24194,1,0,0:0:0:70:Snare.wav
182,192,24194,1,0,0:0:0:70:Hat Closed 1.wav
36,192,24373,1,0,0:0:0:70:Hat Semi.wav
36,192,24462,1,0,0:0:0:70:Hat Semi.wav
182,192,24552,1,0,0:0:0:70:Hat Open.wav
256,192,24552,1,0,0:0:0:70:Kick.wav
36,192,24552,1,0,0:0:0:70:Crash L1.wav
36,192,24730,1,0,0:0:0:70:Hat Pedal.wav
329,192,24909,1,0,0:0:0:70:Snare.wav
182,192,24909,1,0,0:0:0:70:Hat Closed 1.wav
329,192,25087,1,0,0:0:0:30:Crash R1.wav
256,192,25087,1,0,0:0:0:70:Kick.wav
475,192,25087,1,0,0:0:0:70:Crash R1.wav
182,192,25266,1,0,0:0:0:70:Hat Closed 1.wav
402,192,25444,1,0,0:0:0:70:Kick.wav
36,192,25444,1,0,0:0:0:70:Hat Pedal.wav
329,192,25623,1,0,0:0:0:70:Snare.wav
182,192,25623,1,0,0:0:0:70:Hat Closed 1.wav
402,192,25802,1,0,0:0:0:70:Kick.wav
36,192,25802,1,0,0:0:0:70:Hat Semi.wav
36,192,25891,1,0,0:0:0:70:Hat Semi.wav
182,192,25980,1,0,0:0:0:70:Hat Open.wav
402,192,25980,1,0,0:0:0:70:Kick.wav
36,192,25980,1,0,0:0:0:70:Crash L1.wav
329,192,26159,1,0,0:0:0:100:Snare.wav
329,192,26248,1,0,0:0:0:100:Snare.wav
329,192,26337,1,0,0:0:0:100:Snare.wav
402,192,26337,1,0,0:0:0:70:Kick.wav
329,192,26427,1,0,0:0:0:100:Snare.wav
329,192,26516,1,0,0:0:0:100:Snare.wav
329,192,26605,1,0,0:0:0:100:Snare.wav
329,192,26694,1,0,0:0:0:100:Snare.wav
402,192,26694,1,0,0:0:0:70:Kick.wav
329,192,26784,1,0,0:0:0:100:Snare.wav
329,192,26873,1,0,0:0:0:100:Snare.wav
329,192,26962,1,0,0:0:0:100:Snare.wav
329,192,27052,1,0,0:0:0:100:Snare.wav
402,192,27052,1,0,0:0:0:70:Kick.wav
329,192,27141,1,0,0:0:0:100:Snare.wav
329,192,27230,1,0,0:0:0:100:Snare.wav
329,192,27319,1,0,0:0:0:100:Snare.wav
256,192,27409,1,0,0:0:0:70:Kick.wav
36,192,27409,1,0,0:0:0:70:Crash L1.wav
182,192,27409,1,0,0:0:0:30:Crash L1.wav
329,192,27766,1,0,0:0:0:70:Snare.wav
182,192,27766,1,0,0:0:0:70:Hat Closed 1.wav
36,192,27944,1,0,0:0:0:70:Hat Closed 2.wav
329,192,28034,1,0,0:0:0:70:Snare.wav
402,192,28123,1,0,0:0:0:70:Kick.wav
182,192,28123,1,0,0:0:0:70:Hat Closed 1.wav
402,192,28302,1,0,0:0:0:70:Kick.wav
36,192,28302,1,0,0:0:0:70:Hat Closed 2.wav
329,192,28480,1,0,0:0:0:70:Snare.wav
182,192,28480,1,0,0:0:0:70:Hat Closed 1.wav
402,192,28659,1,0,0:0:0:70:Kick.wav
36,192,28659,1,0,0:0:0:70:Hat Closed 2.wav
182,192,28837,1,0,0:0:0:70:Hat Closed 1.wav
402,192,29016,1,0,0:0:0:70:Kick.wav
36,192,29016,1,0,0:0:0:70:Hat Closed 2.wav
329,192,29194,1,0,0:0:0:70:Snare.wav
182,192,29194,1,0,0:0:0:70:Hat Closed 1.wav
36,192,29373,1,0,0:0:0:70:Hat Closed 2.wav
329,192,29462,1,0,0:0:0:70:Snare.wav
402,192,29552,1,0,0:0:0:70:Kick.wav
182,192,29552,1,0,0:0:0:70:Hat Closed 1.wav
402,192,29730,1,0,0:0:0:70:Kick.wav
36,192,29730,1,0,0:0:0:70:Hat Closed 2.wav
329,192,29909,1,0,0:0:0:70:Snare.wav
182,192,29909,1,0,0:0:0:70:Hat Closed 1.wav
36,192,30087,1,0,0:0:0:70:Hat Closed 2.wav
256,192,30266,1,0,0:0:0:70:Kick.wav
182,192,30266,1,0,0:0:0:70:Hat Closed 1.wav
36,192,30444,1,0,0:0:0:70:Hat Closed 2.wav
329,192,30623,1,0,0:0:0:70:Snare.wav
182,192,30623,1,0,0:0:0:70:Hat Closed 1.wav
36,192,30802,1,0,0:0:0:70:Hat Closed 2.wav
329,192,30891,1,0,0:0:0:70:Snare.wav
402,192,30980,1,0,0:0:0:70:Kick.wav
182,192,30980,1,0,0:0:0:70:Hat Closed 1.wav
402,192,31159,1,0,0:0:0:70:Kick.wav
36,192,31159,1,0,0:0:0:70:Hat Closed 2.wav
329,192,31337,1,0,0:0:0:70:Snare.wav
182,192,31337,1,0,0:0:0:70:Hat Closed 1.wav
402,192,31516,1,0,0:0:0:70:Kick.wav
36,192,31516,1,0,0:0:0:70:Hat Closed 2.wav
182,192,31694,1,0,0:0:0:70:Hat Closed 1.wav
402,192,31873,1,0,0:0:0:70:Kick.wav
36,192,31873,1,0,0:0:0:70:Hat Closed 2.wav
329,192,32052,1,0,0:0:0:70:Snare.wav
182,192,32052,1,0,0:0:0:70:Hat Closed 1.wav
36,192,32230,1,0,0:0:0:70:Hat Closed 2.wav
329,192,32319,1,0,0:0:0:70:Snare.wav
402,192,32409,1,0,0:0:0:70:Kick.wav
182,192,32409,1,0,0:0:0:70:Hat Closed 1.wav
402,192,32587,1,0,0:0:0:70:Kick.wav
36,192,32587,1,0,0:0:0:70:Hat Closed 2.wav
329,192,32766,1,0,0:0:0:70:Snare.wav
182,192,32766,1,0,0:0:0:70:Hat Closed 1.wav
36,192,32944,1,0,0:0:0:70:Hat Closed 2.wav
256,192,33123,1,0,0:0:0:70:Kick.wav
182,192,33123,1,0,0:0:0:70:Hat Closed 1.wav
36,192,33302,1,0,0:0:0:70:Hat Closed 2.wav
329,192,33480,1,0,0:0:0:70:Snare.wav
182,192,33480,1,0,0:0:0:70:Hat Closed 1.wav
36,192,33659,1,0,0:0:0:70:Hat Closed 2.wav
329,192,33748,1,0,0:0:0:70:Snare.wav
402,192,33837,1,0,0:0:0:70:Kick.wav
182,192,33837,1,0,0:0:0:70:Hat Closed 1.wav
402,192,34016,1,0,0:0:0:70:Kick.wav
36,192,34016,1,0,0:0:0:70:Hat Closed 2.wav
329,192,34194,1,0,0:0:0:70:Snare.wav
182,192,34194,1,0,0:0:0:70:Hat Closed 1.wav
402,192,34373,1,0,0:0:0:70:Kick.wav
36,192,34373,1,0,0:0:0:70:Hat Closed 2.wav
182,192,34552,1,0,0:0:0:70:Hat Closed 1.wav
402,192,34730,1,0,0:0:0:70:Kick.wav
36,192,34730,1,0,0:0:0:70:Hat Closed 2.wav
329,192,34909,1,0,0:0:0:70:Snare.wav
182,192,34909,1,0,0:0:0:70:Hat Closed 1.wav
36,192,35087,1,0,0:0:0:70:Hat Closed 2.wav
329,192,35177,1,0,0:0:0:70:Snare.wav
402,192,35266,1,0,0:0:0:70:Kick.wav
182,192,35266,1,0,0:0:0:70:Hat Closed 1.wav
402,192,35444,1,0,0:0:0:70:Kick.wav
36,192,35444,1,0,0:0:0:70:Hat Closed 2.wav
329,192,35623,1,0,0:0:0:70:Snare.wav
182,192,35623,1,0,0:0:0:70:Hat Closed 1.wav
36,192,35802,1,0,0:0:0:70:Hat Closed 2.wav
256,192,35980,1,0,0:0:0:70:Kick.wav
182,192,35980,1,0,0:0:0:70:Hat Closed 1.wav
36,192,36159,1,0,0:0:0:70:Hat Closed 2.wav
329,192,36337,1,0,0:0:0:70:Snare.wav
182,192,36337,1,0,0:0:0:70:Hat Closed 1.wav
36,192,36516,1,0,0:0:0:70:Hat Closed 2.wav
329,192,36605,1,0,0:0:0:70:Snare.wav
402,192,36694,1,0,0:0:0:70:Kick.wav
182,192,36694,1,0,0:0:0:70:Hat Closed 1.wav
402,192,36873,1,0,0:0:0:70:Kick.wav
36,192,36873,1,0,0:0:0:70:Hat Closed 2.wav
329,192,37052,1,0,0:0:0:70:Snare.wav
182,192,37052,1,0,0:0:0:70:Hat Closed 1.wav
36,192,37230,1,0,0:0:0:70:Hat Closed 2.wav
402,192,37230,1,0,0:0:0:70:Kick.wav
182,192,37409,1,0,0:0:0:70:Hat Closed 1.wav
402,192,37587,1,0,0:0:0:70:Kick.wav
36,192,37587,1,0,0:0:0:70:Hat Closed 2.wav
329,192,37766,1,0,0:0:0:70:Snare.wav
182,192,37766,1,0,0:0:0:70:Hat Closed 1.wav
36,192,37944,1,0,0:0:0:70:Hat Closed 2.wav
329,192,38034,1,0,0:0:0:70:Snare.wav
402,192,38123,1,0,0:0:0:70:Kick.wav
182,192,38123,1,0,0:0:0:70:Hat Closed 1.wav
402,192,38302,1,0,0:0:0:70:Kick.wav
36,192,38302,1,0,0:0:0:70:Hat Closed 2.wav
402,192,38391,1,0,0:0:0:70:Kick.wav
329,192,38480,1,0,0:0:0:70:Snare.wav
182,192,38480,1,0,0:0:0:70:Hat Closed 1.wav
36,192,38659,1,0,0:0:0:70:Hat Closed 2.wav
256,192,38837,1,0,0:0:0:70:Kick.wav
36,192,38837,1,0,0:0:0:70:Crash L1.wav
182,192,38837,1,0,0:0:0:30:Crash L1.wav
329,192,39194,1,0,0:0:0:70:Snare.wav
182,192,39194,1,0,0:0:0:70:Hat Closed 1.wav
36,192,39373,1,0,0:0:0:70:Hat Closed 2.wav
329,192,39462,1,0,0:0:0:70:Snare.wav
402,192,39552,1,0,0:0:0:70:Kick.wav
182,192,39552,1,0,0:0:0:70:Hat Closed 1.wav
402,192,39730,1,0,0:0:0:70:Kick.wav
36,192,39730,1,0,0:0:0:70:Hat Closed 2.wav
329,192,39909,1,0,0:0:0:70:Snare.wav
182,192,39909,1,0,0:0:0:70:Hat Closed 1.wav
475,192,40087,1,0,0:0:0:70:Crash R1.wav
256,192,40087,1,0,0:0:0:35:Kick.wav
109,192,40087,1,0,0:0:0:35:Kick.wav
402,192,40444,1,0,0:0:0:70:Kick.wav
36,192,40444,1,0,0:0:0:70:Hat Closed 2.wav
329,192,40623,1,0,0:0:0:70:Snare.wav
182,192,40623,1,0,0:0:0:70:Hat Closed 1.wav
36,192,40802,1,0,0:0:0:70:Hat Closed 2.wav
402,192,40802,1,0,0:0:0:70:Kick.wav
329,192,40891,1,0,0:0:0:70:Snare.wav
182,192,40980,1,0,0:0:0:70:Hat Closed 1.wav
402,192,41159,1,0,0:0:0:70:Kick.wav
36,192,41159,1,0,0:0:0:70:Hat Closed 2.wav
402,192,41248,1,0,0:0:0:70:Kick.wav
475,192,41337,1,0,0:0:0:70:Crash R1.wav
256,192,41337,1,0,0:0:0:35:Kick.wav
109,192,41337,1,0,0:0:0:35:Kick.wav
402,192,41516,1,0,0:0:0:70:Kick.wav
109,192,41516,1,0,0:0:0:70:Tom Mid.wav
256,192,41694,1,0,0:0:0:70:Kick.wav
36,192,41694,1,0,0:0:0:70:Crash L1.wav
329,192,42052,1,0,0:0:0:70:Snare.wav
182,192,42052,1,0,0:0:0:70:Hat Closed 1.wav
109,192,42230,1,0,0:0:0:70:Tom High.wav
109,192,42319,1,0,0:0:0:70:Tom High.wav
109,192,42409,1,0,0:0:0:70:Tom High.wav
402,192,42409,1,0,0:0:0:70:Kick.wav
402,192,42587,1,0,0:0:0:70:Kick.wav
182,192,42587,1,0,0:0:0:70:Tom Mid.wav
329,192,42766,1,0,0:0:0:70:Snare.wav
109,192,42766,1,0,0:0:0:30:Tom Floor.wav
109,192,42944,1,0,0:0:0:30:Kick.wav
402,192,42944,1,0,0:0:0:70:Kick.wav
36,192,43123,1,0,0:0:0:70:Crash L1.wav
256,192,43123,1,0,0:0:0:35:Kick.wav
402,192,43123,1,0,0:0:0:35:Kick.wav
109,192,43302,1,0,0:0:0:30:Kick.wav
402,192,43302,1,0,0:0:0:70:Kick.wav
329,192,43480,1,0,0:0:0:70:Snare.wav
182,192,43480,1,0,0:0:0:70:Hat Closed 2.wav
36,192,43659,1,0,0:0:0:70:Hat Closed 1.wav
402,192,43748,1,0,0:0:0:70:Kick.wav
256,192,43837,1,0,0:0:0:35:Kick.wav
475,192,43837,1,0,0:0:0:70:Crash R1.wav
109,192,43837,1,0,0:0:0:35:Kick.wav
402,192,44016,1,0,0:0:0:70:Kick.wav
329,192,44194,1,0,0:0:0:100:Snare.wav
329,192,44284,1,0,0:0:0:100:Snare.wav
329,192,44373,1,0,0:0:0:100:Snare.wav
329,192,44462,1,0,0:0:0:100:Snare.wav
256,192,44552,1,0,0:0:0:70:Kick.wav
36,192,44552,1,0,0:0:0:70:Crash L1.wav
182,192,44552,1,0,0:0:0:30:Crash L1.wav
402,192,108837,5,0,0:0:0:0:
