osu file format v14

[General]
AudioFilename: audio.mp3
AudioLeadIn: 0
PreviewTime: 73307
Countdown: 0
SampleSet: Soft
StackLeniency: 0.7
Mode: 0
LetterboxInBreaks: 0
WidescreenStoryboard: 1

[Editor]
DistanceSpacing: 1
BeatDivisor: 4
GridSize: 4
TimelineZoom: 1.8

[Metadata]
Title:Omoi yo Hitotsu ni Nare
TitleUnicode:想いよひとつになれ
Artist:Aqours
ArtistUnicode:Aqours
Creator:DraQeu
Version:Our Feelings
Source:
Tags:
BeatmapID:1103961
BeatmapSetID:519678

[Difficulty]
HPDrainRate:6
CircleSize:4
OverallDifficulty:8
ApproachRate:9
SliderMultiplier:1.7
SliderTickRate:1

[Events]
//Background and Video events
0,0,"Omoi yo Hitotsu ni Nare 22.jpg",0,0
Video,0,"Omoi yo Hitotsu ni Nare 4.avi"
//Break Periods
//Storyboard Layer 0 (Background)
//Storyboard Layer 1 (Fail)
//Storyboard Layer 2 (Pass)
//Storyboard Layer 3 (Foreground)
//Storyboard Sound Samples

[TimingPoints]
808,357.142857142857,4,2,1,70,1,0
2236,-142.857142857143,4,2,1,70,0,0
18307,-100,4,2,1,70,0,0
27950,-117.647058823529,4,2,1,70,0,0
39379,-100,4,2,1,70,0,0
62236,-142.857142857143,4,2,1,70,0,0
72236,-100,4,2,1,70,0,0
73665,-80,4,2,1,70,0,1
85093,-80,4,2,1,70,0,0
99378,-142.857142857143,4,2,1,70,0,0

[Colours]
Combo1 : 180,50,80
Combo2 : 200,140,85
Combo3 : 100,200,220
Combo4 : 145,230,180
Combo5 : 200,100,220
Combo6 : 210,190,70
Combo7 : 130,136,185
Combo8 : 230,80,190

[HitObjects]
88,124,2236,6,0,P|121:76|177:59,1,118.999996368408,0|0,0:0|0:0,0:0:0:0:
284,128,2950,2,0,P|294:185|265:236,1,118.999996368408,0|0,0:0|0:0,0:0:0:0:
184,324,3665,1,0,0:0:0:0:
65,324,4022,1,0,0:0:0:0:
65,205,4379,1,0,0:0:0:0:
183,205,4736,1,0,0:0:0:0:
183,86,5093,5,0,0:0:0:0:
301,86,5450,1,0,0:0:0:0:
301,204,5807,1,0,0:0:0:0:
182,204,6165,1,0,0:0:0:0:
139,246,6343,1,0,0:0:0:0:
95,287,6522,2,0,P|136:332|192:348,1,118.999996368408,0|0,0:0|0:0,0:0:0:0:
310,347,7236,1,0,0:0:0:0:
310,228,7593,1,0,0:0:0:0:
309,109,7950,6,0,P|347:63|404:53,1,118.999996368408
404,172,8665,2,0,P|366:217|309:227,1,118.999996368408,0|0,0:0|0:0,0:0:0:0:
192,228,9379,2,0,L|73:228,1,118.999996368408,0|0,0:0|0:0,0:0:0:0:
72,108,10093,1,0,0:0:0:0:
184,68,10450,1,0,0:0:0:0:
296,108,10807,1,0,0:0:0:0:
408,152,11165,1,0,0:0:0:0:
408,270,11522,1,0,0:0:0:0:
296,314,11879,1,0,0:0:0:0:
180,292,12236,5,0,0:0:0:0:
168,168,12593,1,0,0:0:0:0:
90,34,12772,1,0,0:0:0:0:
206,101,12950,1,0,0:0:0:0:
51,101,13129,1,0,0:0:0:0:
168,34,13307,1,0,0:0:0:0:
90,168,13486,1,0,0:0:0:0:
129,101,13665,1,0,0:0:0:0:
383,101,14379,1,0,0:0:0:0:
383,283,15093,1,0,0:0:0:0:
129,283,15807,1,0,0:0:0:0:
129,101,16522,1,0,0:0:0:0:
256,192,17593,5,0,0:0:0:0:
256,72,17772,1,0,0:0:0:0:
364,124,17950,1,0,0:0:0:0:
164,256,18307,5,0,0:0:0:0:
100,148,18486,1,0,0:0:0:0:
124,113,18575,1,0,0:0:0:0:
156,85,18665,1,0,0:0:0:0:
194,66,18754,1,0,0:0:0:0:
235,56,18843,1,0,0:0:0:0:
278,56,18932,1,0,0:0:0:0:
319,66,19022,1,0,0:0:0:0:
356,86,19111,1,0,0:0:0:0:
388,114,19200,1,0,0:0:0:0:
436,232,19379,6,0,P|420:264|384:296,1,85
260,324,19736,1,0,0:0:0:0:
260,196,19915,1,0,0:0:0:0:
239,158,20004,1,0,0:0:0:0:
207,131,20093,1,0,0:0:0:0:
92,192,20272,1,0,0:0:0:0:
132,312,20450,1,0,0:0:0:0:
260,324,20629,1,0,0:0:0:0:
328,216,20807,5,0,0:0:0:0:
313,90,20986,1,0,0:0:0:0:
430,139,21165,1,0,0:0:0:0:
412,264,21343,1,0,0:0:0:0:
376,296,21432,1,0,0:0:0:0:
345,324,21522,2,0,L|253:324,1,85,0|0,0:0|0:0,0:0:0:0:
176,228,21879,1,0,0:0:0:0:
48,228,22057,1,0,0:0:0:0:
48,100,22236,6,0,L|111:43,1,85
239,43,22593,1,0,0:0:0:0:
364,68,22772,1,0,0:0:0:0:
396,93,22861,1,0,0:0:0:0:
400,134,22950,1,0,0:0:0:0:
400,262,23129,1,0,0:0:0:0:
300,340,23307,1,0,0:0:0:0:
172,340,23486,1,0,0:0:0:0:
75,256,23665,6,0,P|88:215|115:183,1,85
240,152,24022,1,0,0:0:0:0:
340,76,24200,1,0,0:0:0:0:
368,108,24290,1,0,0:0:0:0:
380,148,24379,2,0,L|380:233,1,85,0|0,0:0|0:0,0:0:0:0:
288,320,24736,1,0,0:0:0:0:
245,320,24825,1,0,0:0:0:0:
204,304,24915,1,0,0:0:0:0:
180,268,25004,1,0,0:0:0:0:
172,228,25093,6,0,L|156:120,1,85
352,143,25450,2,0,L|344:204,1,42.5,0|0,0:0|0:0,0:0:0:0:
339,228,25629,2,0,P|375:294|438:252,1,170,0|0,0:0|0:0,0:0:0:0:
476,132,26165,1,0,0:0:0:0:
380,48,26343,1,0,0:0:0:0:
252,48,26522,5,0,0:0:0:0:
148,120,26700,1,0,0:0:0:0:
120,152,26790,1,0,0:0:0:0:
100,188,26879,1,0,0:0:0:0:
92,228,26968,1,0,0:0:0:0:
96,272,27057,1,0,0:0:0:0:
124,304,27147,1,0,0:0:0:0:
164,320,27236,1,0,0:0:0:0:
204,312,27325,1,0,0:0:0:0:
236,284,27415,1,0,0:0:0:0:
252,244,27504,1,0,0:0:0:0:
276,212,27593,1,0,0:0:0:0:
304,180,27682,1,0,0:0:0:0:
344,164,27772,1,0,0:0:0:0:
384,176,27861,1,0,0:0:0:0:
416,204,27950,6,0,P|432:244|428:286,1,85
372,340,28307,1,0,0:0:0:0:
288,296,28486,1,0,0:0:0:0:
260,272,28575,1,0,0:0:0:0:
232,252,28665,1,0,0:0:0:0:
160,192,28843,1,0,0:0:0:0:
64,192,29022,1,0,0:0:0:0:
112,112,29200,1,0,0:0:0:0:
206,112,29379,6,0,L|286:112,1,72.2500013780594
344,45,29736,1,0,0:0:0:0:
410,111,29915,1,0,0:0:0:0:
410,147,30004,1,0,0:0:0:0:
410,183,30093,1,0,0:0:0:0:
343,249,30272,2,0,L|268:248,1,72.2500013780594,0|0,0:0|0:0,0:0:0:0:
204,315,30629,1,0,0:0:0:0:
109,315,30807,6,0,P|74:311|50:285,1,72.2500013780594
52,192,31165,1,0,0:0:0:0:
50,98,31343,1,0,0:0:0:0:
76,76,31432,1,0,0:0:0:0:
112,68,31522,1,0,0:0:0:0:
204,68,31700,1,0,0:0:0:0:
148,144,31879,1,0,0:0:0:0:
148,240,32057,1,0,0:0:0:0:
364,240,32415,5,0,0:0:0:0:
364,148,32593,1,0,0:0:0:0:
280,192,32772,1,0,0:0:0:0:
213,258,32950,1,0,0:0:0:0:
279,324,33129,1,0,0:0:0:0:
372,324,33307,1,0,0:0:0:0:
448,268,33486,1,0,0:0:0:0:
448,172,33665,6,0,L|448:99,1,72.2500013780594
364,56,34022,1,0,0:0:0:0:
268,52,34200,1,0,0:0:0:0:
228,48,34290,1,0,0:0:0:0:
196,56,34379,2,0,P|163:70|138:96,1,72.2500013780594,0|0,0:0|0:0,0:0:0:0:
84,172,34736,1,0,0:0:0:0:
164,224,34915,1,0,0:0:0:0:
128,312,35093,6,0,P|161:325|196:331,1,72.2500013780594
291,331,35450,1,0,0:0:0:0:
356,264,35629,1,0,0:0:0:0:
372,232,35718,1,0,0:0:0:0:
384,199,35807,2,0,P|391:164|389:128,1,72.2500013780594,0|0,0:0|0:0,0:0:0:0:
308,80,36165,1,0,0:0:0:0:
256,156,36343,1,0,0:0:0:0:
216,72,36522,6,0,L|143:72,1,72.2500013780594
77,138,36879,1,0,0:0:0:0:
77,231,37057,1,0,0:0:0:0:
100,260,37147,1,0,0:0:0:0:
132,276,37236,2,0,L|204:276,1,72.2500013780594,0|0,0:0|0:0,0:0:0:0:
270,209,37593,1,0,0:0:0:0:
336,142,37772,2,0,L|408:142,1,72.2500013780594,0|0,0:0|0:0,0:0:0:0:
408,236,38129,5,0,0:0:0:0:
474,301,38307,1,0,0:0:0:0:
384,328,38486,2,0,L|308:328,1,72.2500013780594,0|0,0:0|0:0,0:0:0:0:
217,328,38843,1,0,0:0:0:0:
188,308,38932,1,0,0:0:0:0:
159,283,39022,2,0,P|148:249|151:214,1,72.2500013780594,0|0,0:0|0:0,0:0:0:0:
200,112,39379,6,0,L|238:35,1,85
348,35,39736,1,0,0:0:0:0:
348,164,39915,1,0,0:0:0:0:
324,200,40004,1,0,0:0:0:0:
300,236,40093,1,0,0:0:0:0:
172,236,40272,1,0,0:0:0:0:
82,146,40450,1,0,0:0:0:0:
172,55,40629,2,0,B|224:40|256:64|256:64|272:104|344:100,1,170,0|0,0:0|0:0,0:0:0:0:
444,52,41165,6,0,P|456:92|454:134,1,85
436,172,41432,1,0,0:0:0:0:
400,196,41522,1,0,0:0:0:0:
288,136,41700,1,0,0:0:0:0:
252,160,41790,1,0,0:0:0:0:
233,197,41879,2,0,P|230:239|243:279,1,85
372,280,42236,6,0,P|413:284|453:269,1,85
456,64,42593,1,0,0:0:0:0:
288,136,42772,1,0,0:0:0:0:
112,88,42950,1,0,0:0:0:0:
256,256,43129,2,0,L|164:264,1,85,0|0,0:0|0:0,0:0:0:0:
60,160,43486,1,0,0:0:0:0:
136,344,43665,6,0,L|220:336,1,85
341,216,44022,1,0,0:0:0:0:
341,46,44200,1,0,0:0:0:0:
170,46,44379,2,0,L|170:134,1,85,0|0,0:0|0:0,0:0:0:0:
290,251,44736,1,0,0:0:0:0:
324,276,44825,1,0,0:0:0:0:
368,284,44915,1,0,0:0:0:0:
408,272,45004,1,0,0:0:0:0:
444,248,45093,6,0,P|461:209|466:167,1,85
375,76,45450,1,0,0:0:0:0:
256,124,45629,1,0,0:0:0:0:
212,124,45718,1,0,0:0:0:0:
172,112,45807,1,0,0:0:0:0:
64,44,45986,1,0,0:0:0:0:
60,171,46165,2,0,P|64:214|81:252,1,85,0|0,0:0|0:0,0:0:0:0:
183,327,46522,6,0,P|267:336|338:294,1,170
416,192,47057,1,0,0:0:0:0:
338,90,47236,2,0,L|256:114,1,85,0|0,0:0|0:0,0:0:0:0:
132,88,47593,1,0,0:0:0:0:
208,192,47772,1,0,0:0:0:0:
131,295,47950,6,0,P|159:327|199:338,1,85
280,240,48307,1,0,0:0:0:0:
256,114,48486,1,0,0:0:0:0:
240,76,48575,1,0,0:0:0:0:
204,52,48665,1,0,0:0:0:0:
128,152,48843,1,0,0:0:0:0:
345,242,49022,1,0,0:0:0:0:
218,242,49200,1,0,0:0:0:0:
108,304,49379,6,0,B|68:304|48:260|48:236|48:236|48:165,1,170
104,52,49915,1,0,0:0:0:0:
232,36,50093,2,0,P|273:44|302:74,1,85,0|0,0:0|0:0,0:0:0:0:
356,188,50450,1,0,0:0:0:0:
444,60,50629,1,0,0:0:0:0:
436,248,50807,6,0,L|403:326,1,85
216,332,51165,1,0,0:0:0:0:
96,192,51343,2,0,L|128:113,1,85,0|0,0:0|0:0,0:0:0:0:
316,108,51700,1,0,0:0:0:0:
368,224,51879,1,0,0:0:0:0:
256,284,52057,1,0,0:0:0:0:
68,260,52236,6,0,P|42:226|44:185,1,85
188,60,52593,1,0,0:0:0:0:
376,60,52772,2,0,P|401:93|399:134,1,85,0|0,0:0|0:0,0:0:0:0:
256,260,53129,1,0,0:0:0:0:
120,120,53307,1,0,0:0:0:0:
280,60,53486,1,0,0:0:0:0:
420,236,53665,6,0,P|412:277|384:308,1,85
260,336,54022,2,0,P|218:328|187:300,1,85,0|0,0:0|0:0,0:0:0:0:
160,175,54379,2,0,P|167:133|195:102,1,85,0|0,0:0|0:0,0:0:0:0:
360,48,54736,1,0,0:0:0:0:
468,180,54915,1,0,0:0:0:0:
291,328,55093,6,0,P|249:328|210:313,1,85
54,146,55450,2,0,P|39:185|40:228,1,85,0|0,0:0|0:0,0:0:0:0:
220,55,55807,2,0,P|262:55|301:70,1,85,0|0,0:0|0:0,0:0:0:0:
457,237,56165,2,0,P|472:198|472:156,1,85,0|0,0:0|0:0,0:0:0:0:
331,252,56522,6,0,P|253:280|174:253,1,170
132,136,57057,1,0,0:0:0:0:
156,100,57147,1,0,0:0:0:0:
192,80,57236,1,0,0:0:0:0:
308,28,57415,1,0,0:0:0:0:
420,92,57593,1,0,0:0:0:0:
428,134,57682,1,0,0:0:0:0:
417,174,57772,1,0,0:0:0:0:
372,292,57950,6,0,P|339:318|298:328,1,85
170,328,58307,1,0,0:0:0:0:
84,236,58486,1,0,0:0:0:0:
77,194,58575,1,0,0:0:0:0:
88,153,58665,1,0,0:0:0:0:
176,60,58843,1,0,0:0:0:0:
303,60,59022,1,0,0:0:0:0:
388,156,59200,1,0,0:0:0:0:
396,196,59290,1,0,0:0:0:0:
392,240,59379,5,0,0:0:0:0:
224,232,59557,1,0,0:0:0:0:
212,64,59736,2,0,L|328:56,1,85,0|0,0:0|0:0,0:0:0:0:
464,168,60093,1,0,0:0:0:0:
204,148,60272,1,0,0:0:0:0:
296,296,60450,1,0,0:0:0:0:
128,280,60629,1,0,0:0:0:0:
96,252,60718,1,0,0:0:0:0:
76,216,60807,5,0,0:0:0:0:
72,172,60897,1,0,0:0:0:0:
80,132,60986,1,0,0:0:0:0:
108,100,61075,1,0,0:0:0:0:
148,84,61165,1,0,0:0:0:0:
192,84,61254,1,0,0:0:0:0:
228,108,61343,1,0,0:0:0:0:
240,148,61432,1,0,0:0:0:0:
228,188,61522,1,0,0:0:0:0:
208,224,61611,1,0,0:0:0:0:
200,264,61700,1,0,0:0:0:0:
208,304,61790,1,0,0:0:0:0:
240,332,61879,1,0,0:0:0:0:
280,340,61968,1,0,0:0:0:0:
320,324,62057,1,0,0:0:0:0:
348,292,62147,1,0,0:0:0:0:
371,256,62236,6,0,P|375:197|343:148,1,118.999996368408
239,87,62950,2,0,P|181:83|132:115,1,118.999996368408,0|0,0:0|0:0,0:0:0:0:
75,219,63665,2,0,P|113:263|171:276,1,118.999996368408,0|0,0:0|0:0,0:0:0:0:
256,192,64379,1,0,0:0:0:0:
340,107,64736,1,0,0:0:0:0:
340,225,65093,1,0,0:0:0:0:
255,309,65450,1,0,0:0:0:0:
170,224,65807,1,0,0:0:0:0:
72,160,66165,1,0,0:0:0:0:
122,87,66343,1,0,0:0:0:0:
207,61,66522,5,0,0:0:0:0:
324,60,66879,1,0,0:0:0:0:
324,178,67236,1,0,0:0:0:0:
428,120,67593,1,0,0:0:0:0:
428,237,67950,6,0,P|399:288|343:305,1,118.999996368408
224,305,68665,2,0,P|173:276|156:220,1,118.999996368408,0|0,0:0|0:0,0:0:0:0:
154,99,69379,2,0,P|205:71|262:87,1,118.999996368408
347,172,70093,1,0,0:0:0:0:
380,288,70450,1,0,0:0:0:0:
460,200,70807,5,0,0:0:0:0:
347,172,71165,1,0,0:0:0:0:
262,87,71522,1,0,0:0:0:0:
177,171,71879,1,0,0:0:0:0:
336,228,72236,5,0,0:0:0:0:
449,99,72415,1,0,0:0:0:0:
180,308,72772,1,0,0:0:0:0:
136,308,72861,1,0,0:0:0:0:
96,292,72950,1,0,0:0:0:0:
96,121,73129,1,0,0:0:0:0:
125,91,73665,6,0,P|170:63|222:55,1,106.25
411,55,74022,2,0,P|445:124|401:185,1,159.375,0|0,0:0|0:0,0:0:0:0:
356,216,74379,2,0,L|249:215,1,106.25,0|0,0:0|0:0,0:0:0:0:
120,168,74736,1,0,0:0:0:0:
160,300,74915,1,0,0:0:0:0:
296,316,75093,6,0,P|348:313|393:285,1,106.25
460,164,75450,1,0,0:0:0:0:
362,66,75629,1,0,0:0:0:0:
224,64,75807,2,0,P|171:67|123:90,1,106.25,0|0,0:0|0:0,0:0:0:0:
48,208,76165,2,0,P|51:260|74:308,1,106.25
196,328,76522,6,0,P|246:339|292:315,1,106.25
316,40,76879,2,0,P|272:67|256:117,1,106.25,0|0,0:0|0:0,0:0:0:0:
376,296,77236,2,0,P|426:307|472:283,1,106.25,0|0,0:0|0:0,0:0:0:0:
236,192,77593,2,0,P|185:180|139:204,1,106.25,0|0,0:0|0:0,0:0:0:0:
256,312,77950,5,0,0:0:0:0:
368,192,78129,1,0,0:0:0:0:
316,40,78307,1,0,0:0:0:0:
136,68,78486,1,0,0:0:0:0:
92,100,78575,1,0,0:0:0:0:
76,152,78665,1,0,0:0:0:0:
120,324,78843,1,0,0:0:0:0:
168,348,78932,1,0,0:0:0:0:
220,356,79022,1,0,0:0:0:0:
268,332,79111,1,0,0:0:0:0:
288,284,79200,1,0,0:0:0:0:
288,232,79290,1,0,0:0:0:0:
267,183,79379,6,0,P|258:132|281:85,1,106.25
456,48,79736,1,0,0:0:0:0:
392,232,79915,1,0,0:0:0:0:
380,284,80004,1,0,0:0:0:0:
344,324,80093,1,0,0:0:0:0:
172,244,80272,1,0,0:0:0:0:
144,56,80450,1,0,0:0:0:0:
332,40,80629,1,0,0:0:0:0:
372,76,80718,1,0,0:0:0:0:
396,124,80807,6,0,P|375:172|330:197,1,106.25
188,68,81165,1,0,0:0:0:0:
60,208,81343,1,0,0:0:0:0:
56,260,81432,1,0,0:0:0:0:
80,308,81522,2,0,P|131:316|178:293,1,106.25,0|0,0:0|0:0,0:0:0:0:
60,116,81879,2,0,P|76:65|119:35,1,106.25,0|0,0:0|0:0,0:0:0:0:
332,36,82236,6,0,P|376:64|396:113,1,106.25
303,274,82593,1,0,0:0:0:0:
208,109,82772,1,0,0:0:0:0:
351,192,82950,1,0,0:0:0:0:
160,191,83129,1,0,0:0:0:0:
303,109,83307,1,0,0:0:0:0:
208,274,83486,1,0,0:0:0:0:
447,192,83665,5,0,0:0:0:0:
64,191,83843,1,0,0:0:0:0:
351,26,84022,1,0,0:0:0:0:
160,357,84200,1,0,0:0:0:0:
160,26,84379,1,0,0:0:0:0:
351,357,84557,1,0,0:0:0:0:
396,324,84647,1,0,0:0:0:0:
420,276,84736,1,0,0:0:0:0:
436,224,84825,1,0,0:0:0:0:
436,172,84915,1,0,0:0:0:0:
428,120,85004,1,0,0:0:0:0:
404,72,85093,6,0,P|358:44|306:39,1,106.25
160,96,85450,1,0,0:0:0:0:
140,252,85629,1,0,0:0:0:0:
164,300,85718,1,0,0:0:0:0:
212,324,85807,1,0,0:0:0:0:
304,192,85986,1,0,0:0:0:0:
224,56,86165,1,0,0:0:0:0:
84,136,86343,1,0,0:0:0:0:
227,249,86522,6,0,P|277:236|304:191,1,106.25
384,56,86879,1,0,0:0:0:0:
224,56,87057,1,0,0:0:0:0:
172,60,87147,1,0,0:0:0:0:
123,80,87236,2,0,P|84:114|71:165,1,106.25,0|0,0:0|0:0,0:0:0:0:
184,324,87593,1,0,0:0:0:0:
342,324,87772,1,0,0:0:0:0:
476,236,87950,6,0,P|447:192|398:171,1,106.25
252,232,88307,1,0,0:0:0:0:
108,304,88486,1,0,0:0:0:0:
76,260,88575,1,0,0:0:0:0:
71,207,88665,2,0,P|78:155|107:112,1,106.25,0|0,0:0|0:0,0:0:0:0:
256,56,89022,1,0,0:0:0:0:
408,104,89200,1,0,0:0:0:0:
388,259,89379,6,0,P|350:296|299:306,1,106.25
280,148,89736,1,0,0:0:0:0:
148,236,89915,1,0,0:0:0:0:
96,244,90004,1,0,0:0:0:0:
52,212,90093,1,0,0:0:0:0:
132,76,90272,1,0,0:0:0:0:
181,57,90361,1,0,0:0:0:0:
234,48,90450,1,0,0:0:0:0:
287,48,90540,1,0,0:0:0:0:
339,58,90629,1,0,0:0:0:0:
388,76,90718,1,0,0:0:0:0:
434,103,90807,6,0,P|436:172|404:232,1,106.25
292,300,91165,1,0,0:0:0:0:
136,276,91343,1,0,0:0:0:0:
99,239,91432,1,0,0:0:0:0:
96,187,91522,1,0,0:0:0:0:
224,80,91700,1,0,0:0:0:0:
368,148,91879,2,0,P|337:191|296:224,1,106.25
136,276,92236,6,0,P|96:232|100:180,1,106.25
224,88,92593,1,0,0:0:0:0:
268,56,92682,1,0,0:0:0:0:
320,48,92772,1,0,0:0:0:0:
372,64,92861,1,0,0:0:0:0:
412,96,92950,1,0,0:0:0:0:
392,252,93129,1,0,0:0:0:0:
256,336,93307,1,0,0:0:0:0:
256,176,93486,1,0,0:0:0:0:
156,296,93665,5,0,0:0:0:0:
80,156,93843,1,0,0:0:0:0:
292,88,94022,1,0,0:0:0:0:
388,236,94200,1,0,0:0:0:0:
368,284,94290,1,0,0:0:0:0:
332,320,94379,2,0,P|281:335|229:328,1,106.25
220,168,94736,1,0,0:0:0:0:
360,92,94915,1,0,0:0:0:0:
460,216,95093,5,0,0:0:0:0:
464,56,95272,1,0,0:0:0:0:
304,60,95450,1,0,0:0:0:0:
164,136,95629,1,0,0:0:0:0:
132,180,95718,1,0,0:0:0:0:
119,232,95807,2,0,P|132:282|173:315,1,106.25
332,296,96165,1,0,0:0:0:0:
377,268,96254,1,0,0:0:0:0:
400,220,96343,1,0,0:0:0:0:
400,168,96432,1,0,0:0:0:0:
380,120,96522,6,0,P|341:84|290:71,1,106.25
76,72,96879,1,0,0:0:0:0:
267,223,97057,2,0,P|319:229|359:197,1,106.25,0|0,0:0|0:0,0:0:0:0:
256,40,97415,1,0,0:0:0:0:
95,192,97593,2,0,P|101:243|139:279,1,106.25,0|0,0:0|0:0,0:0:0:0:
352,348,97950,5,0,0:0:0:0:
444,160,98129,1,0,0:0:0:0:
412,116,98218,1,0,0:0:0:0:
360,100,98307,1,0,0:0:0:0:
312,124,98397,1,0,0:0:0:0:
288,172,98486,1,0,0:0:0:0:
276,224,98575,1,0,0:0:0:0:
232,256,98665,1,0,0:0:0:0:
180,248,98754,1,0,0:0:0:0:
156,200,98843,1,0,0:0:0:0:
152,148,98932,1,0,0:0:0:0:
180,104,99022,1,0,0:0:0:0:
228,84,99111,1,0,0:0:0:0:
280,92,99200,1,0,0:0:0:0:
316,132,99290,1,0,0:0:0:0:
344,176,99379,5,0,0:0:0:0:
175,344,99736,1,0,0:0:0:0:
175,105,100093,1,0,0:0:0:0:
344,272,100450,1,0,0:0:0:0:
92,224,100807,1,0,0:0:0:0:
256,52,101165,1,0,0:0:0:0:
307,45,101254,1,0,0:0:0:0:
357,57,101343,1,0,0:0:0:0:
399,87,101432,1,0,0:0:0:0:
428,130,101522,1,0,0:0:0:0:
439,181,101611,1,0,0:0:0:0:
430,232,101700,1,0,0:0:0:0:
300,184,101879,1,0,0:0:0:0:
112,320,102236,1,2,0:0:0:0:
256,192,102325,8,0,107236,0:0:0:0:
