osu file format v14

[General]
AudioFilename: audio.mp3
AudioLeadIn: 0
PreviewTime: 73307
Countdown: 0
SampleSet: Soft
StackLeniency: 0.7
Mode: 0
LetterboxInBreaks: 0
WidescreenStoryboard: 1

[Editor]
DistanceSpacing: 1
BeatDivisor: 4
GridSize: 4
TimelineZoom: 2.1

[Metadata]
Title:Omoi yo Hitotsu ni Nare
TitleUnicode:想いよひとつになれ
Artist:Aqours
ArtistUnicode:Aqours
Creator:DraQeu
Version:Normal
Source:
Tags:
BeatmapID:1124103
BeatmapSetID:519678

[Difficulty]
HPDrainRate:3
CircleSize:3
OverallDifficulty:4
ApproachRate:5
SliderMultiplier:1
SliderTickRate:1

[Events]
//Background and Video events
Video,0,"Omoi yo Hitotsu ni Nare 4.avi"
0,0,"Omoi yo Hitotsu ni Nare 4.jpg",0,0
//Break Periods
//Storyboard Layer 0 (Background)
//Storyboard Layer 1 (Fail)
//Storyboard Layer 2 (Pass)
//Storyboard Layer 3 (Foreground)
//Storyboard Sound Samples

[TimingPoints]
808,357.142857142857,4,2,1,70,1,0
2236,-100,4,2,1,70,0,0
18307,-100,4,2,1,70,0,0
27950,-100,4,2,1,70,0,0
39379,-100,4,2,1,70,0,0
62236,-100,4,2,1,70,0,0
72236,-100,4,2,1,70,0,0
73665,-100,4,2,1,70,0,1
85093,-100,4,2,1,70,0,0
99379,-100,4,2,1,70,0,0

[Colours]
Combo1 : 180,50,80
Combo2 : 200,140,85
Combo3 : 100,200,220
Combo4 : 145,230,180
Combo5 : 200,100,220
Combo6 : 210,190,70
Combo7 : 130,136,185
Combo8 : 230,80,190

[HitObjects]
128,160,2236,6,0,P|165:249|256:284,3,200
327,214,4736,1,0,0:0:0:0:
324,116,5093,6,0,P|306:70|263:46,2,100
408,172,6165,1,0,0:0:0:0:
408,271,6522,6,0,P|390:316|347:340,2,100
327,214,7593,1,0,0:0:0:0:
232,183,7950,6,0,P|200:92|104:72,3,200
44,148,10450,1,0,0:0:0:0:
40,248,10807,6,0,P|58:293|96:325,2,100
140,232,11879,1,0,0:0:0:0:
132,131,12236,6,0,P|319:85|472:203,1,400
330,345,14379,5,0,0:0:0:0:
192,344,15093,1,0,0:0:0:0:
93,245,15807,1,0,0:0:0:0:
192,145,16522,1,0,0:0:0:0:
400,144,17593,6,0,L|452:144,2,50
328,76,18307,2,0,P|233:47|136:67,1,200
64,140,19379,6,0,P|54:188|68:236,2,100
156,184,20450,1,0,0:0:0:0:
224,256,20807,6,0,P|268:275|316:262,1,100
386,191,21522,2,0,P|405:146|392:98,1,100
308,44,22236,6,0,L|208:44,1,100
116,80,22950,1,0,0:0:0:0:
88,176,23307,1,0,0:0:0:0:
88,275,23665,6,0,P|105:321|149:343,1,100
244,340,24379,1,0,0:0:0:0:
343,340,24736,2,0,P|391:334|424:298,2,100
323,293,25629,6,0,P|311:220|350:158,1,150
399,71,26522,2,0,P|188:64|84:220,1,400
116,296,28307,6,0,P|165:300|214:290,1,100
308,260,29022,1,0,0:0:0:0:
395,215,29379,6,0,P|440:238|475:274,2,100
312,164,30450,1,0,0:0:0:0:
228,112,30807,6,0,P|183:89|148:53,2,100
236,212,31879,2,0,P|216:257|175:284,1,100
75,284,32593,5,0,0:0:0:0:
42,186,32950,2,0,P|32:138|37:88,1,100
128,44,33665,1,0,0:0:0:0:
228,48,34022,5,0,0:0:0:0:
232,144,34379,2,0,P|279:154|327:138,1,100
395,51,35093,6,0,P|428:88|440:136,1,100
440,236,35807,2,0,P|436:284|400:332,1,100
340,252,36522,6,0,L|317:154,2,100
264,320,37593,1,0,0:0:0:0:
164,320,37950,5,0,0:0:0:0:
93,249,38307,2,0,P|76:202|87:154,1,100
158,83,39022,1,0,0:0:0:0:
256,55,39379,6,0,P|329:66|387:112,1,150
422,148,40093,2,0,P|412:196|383:236,1,100
312,307,40807,6,0,P|269:332|220:337,1,100
170,337,41343,2,0,P|112:291|96:219,1,150
96,119,42236,6,0,P|139:94|188:89,1,100
288,89,42950,2,0,P|337:94|380:118,1,100
400,164,43486,2,0,P|399:237|354:295,1,150
252,323,44379,2,0,P|202:322|164:291,1,100
140,248,44915,1,0,0:0:0:0:
116,204,45093,6,0,P|97:157|93:108,1,100
184,63,45807,2,0,P|232:53|280:63,1,100
368,108,46522,6,0,P|409:134|437:176,1,100
436,224,47057,1,0,0:0:0:0:
436,276,47236,2,0,P|408:317|366:344,1,100
316,344,47772,1,0,0:0:0:0:
268,344,47950,6,0,P|232:344|176:288,1,100
183,256,48486,1,0,0:0:0:0:
183,204,48665,2,0,P|191:156|218:113,1,100
253,78,49200,1,0,0:0:0:0:
296,48,49379,6,0,P|345:41|393:52,1,100
429,88,49915,1,0,0:0:0:0:
428,136,50093,2,0,L|428:248,1,100
392,328,50807,6,0,P|342:325|292:317,1,100
244,304,51343,1,0,0:0:0:0:
200,280,51522,2,0,P|160:250|123:215,1,100
123,115,52236,6,0,P|167:92|215:74,1,100
263,62,52772,1,0,0:0:0:0:
313,61,52951,2,0,P|362:66|412:78,1,100
412,180,53665,6,0,L|412:284,1,100
328,332,54379,2,0,L|228:332,1,100
192,296,54915,1,0,0:0:0:0:
156,260,55093,6,0,L|156:140,1,100
228,88,55807,2,0,L|332:88,1,100
428,88,56522,6,0,P|461:123|468:172,1,100
468,272,57236,2,0,P|444:315|400:337,1,100
300,337,57950,6,0,L|200:337,1,100
127,267,58665,2,0,P|99:228|95:178,1,100
108,80,59379,5,0,0:0:0:0:
201,46,59736,1,0,0:0:0:0:
300,46,60093,1,0,0:0:0:0:
393,80,60450,1,0,0:0:0:0:
392,179,60807,6,0,P|325:301|191:263,1,300
152,172,62236,6,0,B|196:112|236:120|236:120|284:128|316:80,3,200
412,48,64736,1,0,0:0:0:0:
456,140,65093,5,0,0:0:0:0:
456,239,65450,1,0,0:0:0:0:
385,309,65807,1,0,0:0:0:0:
284,309,66165,2,0,P|235:299|195:270,1,100
124,199,66879,5,0,0:0:0:0:
124,99,67236,1,0,0:0:0:0:
204,40,67593,1,0,0:0:0:0:
304,39,67950,6,0,P|352:48|387:82,1,100
392,184,68665,2,0,P|365:225|319:243,1,100
220,252,69379,6,0,P|185:215|179:166,1,100
258,107,70093,1,0,0:0:0:0:
359,107,70450,1,0,0:0:0:0:
430,178,70807,5,0,0:0:0:0:
358,249,71165,1,0,0:0:0:0:
256,249,71522,1,0,0:0:0:0:
154,249,71879,1,0,0:0:0:0:
80,180,72236,6,0,P|119:149|167:140,1,100
267,140,72950,6,0,B|314:125|314:125|345:85,1,100
436,44,73665,6,0,P|472:77|486:125,1,100
486,241,74379,2,0,P|474:288|431:309,1,100
332,308,75093,6,0,L|232:308,1,100
161,237,75807,2,0,P|131:197|117:149,1,100
188,80,76522,6,0,P|240:76|288:88,1,100
375,127,77236,2,0,P|416:157|443:198,1,100
444,300,77950,6,0,L|345:318,1,100
244,320,78665,2,0,P|204:316|116:184,1,200
128,100,79736,6,0,L|188:60,1,50
220,59,80093,2,0,P|269:51|318:57,1,100
408,100,80807,5,0,0:0:0:0:
468,180,81165,2,0,P|461:228|425:261,1,100
340,312,81879,1,0,0:0:0:0:
240,312,82236,6,0,P|184:308|88:268,1,150
76,228,82950,1,0,0:0:0:0:
71,180,83129,2,0,P|191:62|355:99,1,350
352,200,84736,1,0,0:0:0:0:
256,192,85093,12,0,87950,0:0:0:0:
256,192,89022,6,0,P|265:240|253:288,1,100
153,288,89736,1,0,0:0:0:0:
82,217,90093,1,0,0:0:0:0:
82,117,90450,2,0,P|178:91|277:97,1,200
324,114,91343,1,0,0:0:0:0:
376,112,91522,2,0,P|414:80|462:67,2,100
376,211,92593,5,0,0:0:0:0:
376,310,92950,2,0,P|330:330|280:336,1,100
180,336,93665,6,0,P|130:330|85:309,1,100
64,264,94200,1,0,0:0:0:0:
64,212,94379,2,0,L|64:108,2,100
160,240,95450,6,0,P|201:214|220:168,1,100
248,71,96165,1,0,0:0:0:0:
343,52,96522,2,0,P|392:39|440:48,1,100
468,92,97057,2,0,P|460:190|404:271,1,200
360,292,97950,6,0,B|260:292,1,100
208,292,98486,2,0,B|136:292|136:292|96:272|80:236,1,150
76,140,99379,5,0,0:0:0:0:
140,63,99736,1,0,0:0:0:0:
237,37,100093,1,0,0:0:0:0:
332,66,100450,1,0,0:0:0:0:
397,143,100807,5,0,0:0:0:0:
408,243,101165,2,0,P|341:310|250:282,1,200
256,192,102236,12,0,107236,0:0:0:0:
