osu file format v14

[General]
AudioFilename: audio.mp3
AudioLeadIn: 0
PreviewTime: 244843
Countdown: 0
SampleSet: Soft
StackLeniency: 0.7
Mode: 0
LetterboxInBreaks: 0
WidescreenStoryboard: 0

[Editor]
DistanceSpacing: 3
BeatDivisor: 4
GridSize: 4
TimelineZoom: 1

[Metadata]
Title:Next SPARKLING!!
TitleUnicode:Next SPARKLING!!
Artist:Aqours
ArtistUnicode:Aqours
Creator:MBmasher
Version:As We Try to Find Our Shine, Let's Not Forget Our Memories
Source:ラブライブ!サンシャイン!!The School Idol Movie Over the Rainbow
Tags:Lovelive! Love Live! Sunshine!! project ed ending theme full ver. version size 劇場版挿入歌 insert song MOVIEサイズ Bokura no Hashittekita kita Michi wa... 僕らの走ってきた道は・・・ Sailing to オリジナルサウンドトラック Original Soundtrack OST marathon Takami Chika 高海千歌 Sakurauchi Riko 桜内梨子 Matsuura Kanan 松浦果南 Kurosawa Dia 黒澤ダイヤ Watanabe You 渡辺曜 Tsushima Yoshiko 津島善子 Yohane ヨハネ Kunikida Hanamaru 国木田花丸 Ohara Mari 小原鞠莉 Kurosawa Ruby 黒澤ルビィ Inami Anju 伊波杏樹 Aida Rikako 逢田梨香子 Suwa Nanaka 諏訪ななか Komiya Arisa 小宮有紗 Saitou Saitō Saito Shuka 斉藤朱夏 Kobayashi Aika 小林愛香 Takatsuki Kanako 高槻かなこ Suzuki Aina 鈴木愛奈 Furihata Ai 降幡愛 Anime Japanese jpop pop konoe kanata J-Pop 畑 亜貴 Aki Hata Carlos K.
BeatmapID:2688290
BeatmapSetID:1295671

[Difficulty]
HPDrainRate:4.9
CircleSize:3.9
OverallDifficulty:6.9
ApproachRate:8.9
SliderMultiplier:1.4
SliderTickRate:1

[Events]
//Background and Video events
0,0,"nextsparkling.jpg",0,0
Video,-170,"next_sparkling3.mp4"
//Break Periods
2,131403,140323
//Storyboard Layer 0 (Background)
//Storyboard Layer 1 (Fail)
//Storyboard Layer 2 (Pass)
//Storyboard Layer 3 (Foreground)
//Storyboard Layer 4 (Overlay)
//Storyboard Sound Samples

[TimingPoints]
163,480,4,2,0,40,1,0
403,-125,4,2,1,40,0,0
763,-125,4,2,1,5,0,0
883,-125,4,2,1,40,0,0
1123,-100,4,2,2,50,0,0
1363,-100,4,2,3,50,0,0
1483,-100,4,2,4,50,0,0
1603,-100,4,2,3,50,0,0
1843,-100,4,2,2,50,0,0
2083,-83.3333333333333,4,2,3,60,0,0
2803,-83.3333333333333,4,2,1,60,0,0
2923,-83.3333333333333,4,2,2,60,0,0
3043,-83.3333333333333,4,2,1,60,0,0
3763,-83.3333333333333,4,2,3,60,0,0
4723,-83.3333333333333,4,2,2,60,0,0
4963,-83.3333333333333,4,2,1,60,0,0
5443,-83.3333333333333,4,2,3,60,0,0
6643,-83.3333333333333,4,2,2,60,0,0
6883,-83.3333333333333,4,2,1,60,0,0
7123,-83.3333333333333,4,2,3,60,0,0
8563,-83.3333333333333,4,2,2,60,0,0
9043,-83.3333333333333,4,2,3,60,0,0
10483,-83.3333333333333,4,2,1,60,0,0
10603,-83.3333333333333,4,2,2,60,0,0
10963,-83.3333333333333,4,2,3,60,0,0
12403,-83.3333333333333,4,2,1,60,0,0
12523,-83.3333333333333,4,2,2,60,0,0
13123,-83.3333333333333,4,2,3,60,0,0
14323,-83.3333333333333,4,2,2,60,0,0
14803,-83.3333333333333,4,2,3,60,0,0
16483,-83.3333333333333,4,2,2,60,0,0
16843,-83.3333333333333,4,2,4,60,0,0
16963,-83.3333333333333,4,2,3,60,0,0
17203,-83.3333333333333,4,2,4,60,0,0
17443,-83.3333333333333,4,2,3,60,0,0
18163,-83.3333333333333,4,2,1,60,0,0
18283,-83.3333333333333,4,2,2,60,0,0
18403,-83.3333333333333,4,2,1,60,0,0
19123,-83.3333333333333,4,2,3,60,0,0
20083,-83.3333333333333,4,2,2,60,0,0
20323,-83.3333333333333,4,2,1,60,0,0
20803,-83.3333333333333,4,2,3,60,0,0
22003,-83.3333333333333,4,2,2,60,0,0
22243,-83.3333333333333,4,2,1,60,0,0
22483,-83.3333333333333,4,2,3,60,0,0
23923,-83.3333333333333,4,2,2,60,0,0
24403,-83.3333333333333,4,2,3,60,0,0
25843,-83.3333333333333,4,2,1,60,0,0
25963,-83.3333333333333,4,2,2,60,0,0
26323,-83.3333333333333,4,2,3,60,0,0
27763,-83.3333333333333,4,2,1,60,0,0
27883,-83.3333333333333,4,2,2,60,0,0
28483,-83.3333333333333,4,2,3,60,0,0
29683,-83.3333333333333,4,2,2,60,0,0
30163,-83.3333333333333,4,2,3,60,0,0
30883,-83.3333333333333,4,2,5,60,0,0
31363,-83.3333333333333,4,2,3,60,0,0
32803,-100,4,2,3,50,0,0
62563,-100,4,2,4,50,0,0
62803,-100,4,2,1,50,0,0
62923,-100,4,2,4,50,0,0
63523,-125,4,2,6,40,0,0
71203,-125,4,2,5,40,0,0
72163,-125,4,2,3,40,0,0
74083,-111.111111111111,4,2,3,40,0,0
75043,-100,4,2,5,50,0,0
75523,-100,4,2,3,50,0,0
77923,-100,4,2,3,55,0,0
78883,-125,4,2,5,55,0,0
79363,-105.263157894737,4,2,5,55,0,0
79843,-90.9090909090909,4,2,5,55,0,0
80323,-80,4,2,5,55,0,0
80683,-80,4,2,5,5,0,0
80803,-80,4,2,5,55,0,0
81763,-80,4,2,5,60,0,0
82243,-74.0740740740741,4,2,7,60,0,0
82603,-74.0740740740741,4,2,7,5,0,0
82723,-83.3333333333333,4,2,3,75,0,1
96403,-83.3333333333333,4,2,1,75,0,1
97123,-83.3333333333333,4,2,2,75,0,1
97483,-83.3333333333333,4,2,4,75,0,1
97603,-83.3333333333333,4,2,3,75,0,1
97843,-83.3333333333333,4,2,4,75,0,1
98083,-83.3333333333333,4,2,3,75,0,1
99883,-83.3333333333333,4,2,3,5,0,1
100003,-83.3333333333333,4,2,3,75,0,1
100363,-83.3333333333333,4,2,3,5,0,1
100483,-83.3333333333333,4,2,3,75,0,1
101923,-76.9230769230769,4,2,8,75,0,1
102403,-76.9230769230769,4,2,3,75,0,1
102643,-71.4285714285714,4,2,8,75,0,1
103363,-62.5,4,2,8,75,0,1
103723,-62.5,4,2,8,5,0,1
103843,-66.6666666666667,4,2,8,75,0,1
105043,-66.6666666666667,4,2,3,75,0,1
105763,-83.3333333333333,4,2,3,75,0,1
113443,-83.3333333333333,4,2,3,60,0,0
114163,-83.3333333333333,4,2,1,60,0,0
114283,-83.3333333333333,4,2,2,60,0,0
114403,-83.3333333333333,4,2,1,60,0,0
115123,-83.3333333333333,4,2,3,60,0,0
116083,-83.3333333333333,4,2,2,60,0,0
116323,-83.3333333333333,4,2,1,60,0,0
116803,-83.3333333333333,4,2,3,60,0,0
118003,-83.3333333333333,4,2,2,60,0,0
118243,-83.3333333333333,4,2,1,60,0,0
118483,-83.3333333333333,4,2,3,60,0,0
119923,-83.3333333333333,4,2,2,60,0,0
120403,-83.3333333333333,4,2,3,60,0,0
121843,-83.3333333333333,4,2,1,60,0,0
121963,-83.3333333333333,4,2,2,60,0,0
122323,-83.3333333333333,4,2,3,60,0,0
123763,-83.3333333333333,4,2,1,60,0,0
123883,-83.3333333333333,4,2,2,60,0,0
124483,-83.3333333333333,4,2,3,60,0,0
125683,-83.3333333333333,4,2,2,60,0,0
126163,-83.3333333333333,4,2,3,60,0,0
126883,-83.3333333333333,4,2,5,60,0,0
127363,-83.3333333333333,4,2,3,60,0,0
128803,-125,4,2,3,60,0,0
129283,-125,4,2,0,45,0,0
129763,-125,4,2,0,30,0,0
130243,-125,4,2,0,15,0,0
130723,-125,4,2,0,5,0,0
141523,-125,4,2,3,40,0,0
142243,-111.111111111111,4,2,3,40,0,0
143683,-111.111111111111,4,2,4,40,0,0
144163,-100,4,2,3,50,0,0
158563,-100,4,2,4,50,0,0
158803,-100,4,2,1,50,0,0
158923,-100,4,2,4,50,0,0
159523,-125,4,2,3,40,0,0
162163,-125,4,2,3,50,0,0
163363,-125,4,2,3,40,0,0
167203,-125,4,2,5,40,0,0
168163,-125,4,2,3,40,0,0
170083,-111.111111111111,4,2,3,40,0,0
171043,-100,4,2,5,50,0,0
171523,-100,4,2,3,50,0,0
174883,-125,4,2,5,50,0,0
175363,-105.263157894737,4,2,5,50,0,0
175843,-90.9090909090909,4,2,5,50,0,0
176323,-80,4,2,5,50,0,0
176683,-80,4,2,5,5,0,0
176803,-80,4,2,5,50,0,0
177763,-80,4,2,5,60,0,0
178243,-74.0740740740741,4,2,7,60,0,0
178603,-74.0740740740741,4,2,7,5,0,0
178723,-83.3333333333333,4,2,3,75,0,1
192403,-83.3333333333333,4,2,1,75,0,1
193123,-83.3333333333333,4,2,2,75,0,1
193483,-83.3333333333333,4,2,4,75,0,1
193603,-83.3333333333333,4,2,3,75,0,1
193843,-83.3333333333333,4,2,4,75,0,1
194083,-83.3333333333333,4,2,3,75,0,1
195883,-83.3333333333333,4,2,3,5,0,1
196003,-83.3333333333333,4,2,3,75,0,1
196363,-83.3333333333333,4,2,3,5,0,1
196483,-83.3333333333333,4,2,3,75,0,1
197923,-76.9230769230769,4,2,8,75,0,1
198403,-76.9230769230769,4,2,3,75,0,1
198643,-71.4285714285714,4,2,8,75,0,1
199363,-62.5,4,2,8,75,0,1
199723,-62.5,4,2,8,5,0,1
199843,-66.6666666666667,4,2,8,75,0,1
201043,-66.6666666666667,4,2,3,75,0,1
201763,-83.3333333333333,4,2,3,75,0,1
209443,-83.3333333333333,4,2,3,60,0,0
222883,-83.3333333333333,4,2,5,60,0,0
223363,-83.3333333333333,4,2,3,60,0,0
224803,-90.9090909090909,4,2,3,50,0,0
242083,-125,4,2,3,40,0,0
244963,-125,4,2,9,40,0,0
245443,-125,4,2,10,40,0,0
245923,-200,4,2,11,25,0,0
246403,-200,4,2,12,25,0,0
247363,-200,4,2,11,25,0,0
247603,-200,4,2,10,25,0,0
248323,-200,4,2,12,25,0,0
250243,-200,4,2,13,25,0,0
250483,-200,4,2,14,25,0,0
251203,-200,4,2,9,25,0,0
253123,-200,4,2,11,25,0,0
253363,-200,4,2,10,25,0,0
253603,-200,4,2,9,25,0,0
254083,-200,4,2,14,25,0,0
254323,-200,4,2,9,25,0,0
254803,-200,4,2,15,25,0,0
255523,-200,4,2,9,25,0,0
256003,-200,4,2,14,25,0,0
256243,-200,4,2,9,25,0,0
256963,-200,4,2,15,25,0,0
257443,-200,4,2,16,25,0,0
257683,-200,4,2,15,25,0,0
257923,-200,4,2,16,25,0,0
258163,-200,4,2,15,25,0,0
258403,-200,4,2,16,25,0,0
258643,-200,4,2,14,25,0,0
259363,-200,4,2,9,25,0,0
260803,-200,4,2,10,25,0,0
261283,-125,4,2,17,30,0,0
261763,-125,4,2,12,30,0,0
262723,-125,4,2,11,30,0,0
263083,-125,4,2,11,5,0,0
263203,-125,4,2,18,30,0,0
263683,-125,4,2,12,30,0,0
264643,-125,4,2,19,30,0,0
264883,-125,4,2,12,30,0,0
265123,-125,4,2,20,30,0,0
265603,-125,4,2,13,30,0,0
265843,-125,4,2,21,30,0,0
266563,-125,4,2,22,30,0,0
267043,-125,4,2,23,30,0,0
267523,-125,4,2,9,30,0,0
268243,-125,4,2,14,30,0,0
268483,-125,4,2,24,30,0,0
268723,-125,4,2,13,30,0,0
268963,-125,4,2,25,35,0,0
269443,-125,4,2,13,35,0,0
269923,-125,4,2,14,35,0,0
270403,-125,4,2,9,35,0,0
270883,-125,4,2,26,35,0,0
271363,-125,4,2,12,35,0,0
271843,-125,4,2,27,35,0,0
272323,-125,4,2,19,35,0,0
272563,-125,4,2,11,35,0,0
272803,-100,4,2,18,40,0,0
273283,-100,4,2,11,40,0,0
273523,-100,4,2,16,40,0,0
274243,-100,4,2,15,40,0,0
274723,-100,4,2,29,50,0,0
275203,-100,4,2,1,50,0,0
275683,-100,4,2,30,65,0,0
275923,-100,4,2,1,65,0,0
276163,-76.9230769230769,4,2,31,65,0,0
276523,-76.9230769230769,4,2,31,5,0,0
276643,-83.3333333333333,4,2,32,80,0,1
277003,-83.3333333333333,4,2,32,5,0,1
277123,-83.3333333333333,4,2,33,80,0,1
278083,-83.3333333333333,4,2,34,80,0,1
278323,-83.3333333333333,4,2,31,80,0,1
278803,-83.3333333333333,4,2,35,80,0,1
279043,-83.3333333333333,4,2,36,80,0,1
280243,-83.3333333333333,4,2,37,80,0,1
280483,-83.3333333333333,4,2,38,80,0,1
280963,-83.3333333333333,4,2,39,80,0,1
281203,-83.3333333333333,4,2,40,80,0,1
281923,-83.3333333333333,4,2,41,80,0,1
282403,-83.3333333333333,4,2,42,80,0,1
282883,-83.3333333333333,4,2,1,80,0,1
283843,-83.3333333333333,4,2,34,80,0,1
284083,-83.3333333333333,4,2,31,80,0,1
284323,-83.3333333333333,4,2,43,80,0,1
284803,-83.3333333333333,4,2,44,80,0,1
285043,-83.3333333333333,4,2,41,80,0,1
285523,-83.3333333333333,4,2,45,80,0,1
286243,-83.3333333333333,4,2,46,80,0,1
286723,-83.3333333333333,4,2,44,80,0,1
286963,-83.3333333333333,4,2,41,80,0,1
287443,-83.3333333333333,4,2,47,80,0,1
288163,-83.3333333333333,4,2,48,80,0,1
288403,-83.3333333333333,4,2,45,80,0,1
288643,-83.3333333333333,4,2,49,80,0,1
288883,-83.3333333333333,4,2,50,80,0,1
289123,-83.3333333333333,4,2,49,80,0,1
289363,-83.3333333333333,4,2,51,80,0,1
289603,-83.3333333333333,4,2,1,80,0,1
289843,-83.3333333333333,4,2,52,80,0,1
290083,-83.3333333333333,4,2,53,80,0,1
290323,-83.3333333333333,4,2,1,80,0,1
291043,-83.3333333333333,4,2,54,80,0,1
291283,-83.3333333333333,4,2,1,80,0,1
291403,-83.3333333333333,4,2,4,80,0,1
291523,-83.3333333333333,4,2,55,80,0,1
291763,-83.3333333333333,4,2,4,80,0,1
292003,-83.3333333333333,4,2,32,80,0,1
292483,-83.3333333333333,4,2,33,80,0,1
293443,-83.3333333333333,4,2,34,80,0,1
293803,-83.3333333333333,4,2,34,5,0,1
293923,-83.3333333333333,4,2,56,80,0,1
294283,-83.3333333333333,4,2,56,5,0,1
294403,-83.3333333333333,4,2,36,80,0,1
295843,-76.9230769230769,4,2,57,80,0,1
296323,-76.9230769230769,4,2,39,80,0,1
296563,-71.4285714285714,4,2,58,80,0,1
297283,-62.5,4,2,59,80,0,1
297643,-62.5,4,2,59,5,0,1
297763,-66.6666666666667,4,2,60,80,0,1
298243,-66.6666666666667,4,2,44,80,0,1
299443,-66.6666666666667,4,2,61,80,0,1
299683,-83.3333333333333,4,2,62,80,0,1
300163,-83.3333333333333,4,2,63,80,0,1
300403,-83.3333333333333,4,2,40,80,0,1
301123,-83.3333333333333,4,2,41,80,0,1
301603,-83.3333333333333,4,2,64,80,0,1
302083,-83.3333333333333,4,2,37,80,0,1
302323,-83.3333333333333,4,2,1,80,0,1
302563,-83.3333333333333,4,2,65,80,0,1
303043,-83.3333333333333,4,2,1,80,0,1
303283,-83.3333333333333,4,2,34,80,0,1
303523,-83.3333333333333,4,2,56,80,0,1
304003,-83.3333333333333,4,2,34,80,0,1
304243,-83.3333333333333,4,2,66,80,0,1
304963,-83.3333333333333,4,2,45,80,0,1
305443,-83.3333333333333,4,2,68,80,0,1
305923,-83.3333333333333,4,2,1,80,0,1
306403,-83.3333333333333,4,2,2,80,0,1
306643,-83.3333333333333,4,2,3,80,0,1
306763,-83.3333333333333,4,2,4,80,0,1
306883,-83.3333333333333,4,2,3,80,0,1
307123,-83.3333333333333,4,2,2,80,0,1
307363,-90.9090909090909,4,2,3,50,0,0
308083,-90.9090909090909,4,2,1,50,0,0
308203,-90.9090909090909,4,2,2,50,0,0
308323,-90.9090909090909,4,2,1,50,0,0
309043,-90.9090909090909,4,2,3,50,0,0
310003,-90.9090909090909,4,2,2,50,0,0
310243,-90.9090909090909,4,2,1,50,0,0
310723,-90.9090909090909,4,2,3,50,0,0
311923,-90.9090909090909,4,2,2,50,0,0
312163,-90.9090909090909,4,2,1,50,0,0
312403,-90.9090909090909,4,2,3,50,0,0
313843,-90.9090909090909,4,2,2,50,0,0
314323,-90.9090909090909,4,2,3,50,0,0
315763,-90.9090909090909,4,2,1,50,0,0
315883,-90.9090909090909,4,2,2,50,0,0
316243,-90.9090909090909,4,2,3,50,0,0
317683,-90.9090909090909,4,2,1,50,0,0
317803,-90.9090909090909,4,2,2,50,0,0
318403,-90.9090909090909,4,2,3,50,0,0
319603,-90.9090909090909,4,2,2,50,0,0
320083,-90.9090909090909,4,2,3,50,0,0
321763,-90.9090909090909,4,2,2,50,0,0
322123,-90.9090909090909,4,2,4,50,0,0
322243,-90.9090909090909,4,2,3,50,0,0
322483,-90.9090909090909,4,2,4,50,0,0
322723,-90.9090909090909,4,2,3,50,0,0
323443,-90.9090909090909,4,2,1,50,0,0
323563,-90.9090909090909,4,2,2,50,0,0
323683,-90.9090909090909,4,2,1,50,0,0
324403,-90.9090909090909,4,2,3,50,0,0
325363,-90.9090909090909,4,2,2,50,0,0
325603,-90.9090909090909,4,2,1,50,0,0
326083,-90.9090909090909,4,2,3,50,0,0
327283,-90.9090909090909,4,2,2,50,0,0
327523,-90.9090909090909,4,2,1,50,0,0
327763,-90.9090909090909,4,2,3,50,0,0
329203,-90.9090909090909,4,2,2,50,0,0
329683,-90.9090909090909,4,2,3,50,0,0
331123,-90.9090909090909,4,2,1,50,0,0
331243,-90.9090909090909,4,2,2,50,0,0
331603,-90.9090909090909,4,2,3,50,0,0
333043,-90.9090909090909,4,2,1,50,0,0
333163,-90.9090909090909,4,2,2,50,0,0
333763,-90.9090909090909,4,2,3,50,0,0
334963,-90.9090909090909,4,2,2,50,0,0
335443,-90.9090909090909,4,2,3,50,0,0
336163,-90.9090909090909,4,2,5,50,0,0
336643,-90.9090909090909,4,2,3,50,0,0
338083,-100,4,2,3,60,0,0
340243,-83.3333333333333,4,2,3,60,0,0
352483,-83.3333333333333,4,2,4,60,0,0
352723,-83.3333333333333,4,2,1,60,0,0
352843,-83.3333333333333,4,2,4,60,0,0
352963,-83.3333333333333,4,2,3,60,0,0
353203,-83.3333333333333,4,2,4,60,0,0
353443,-83.3333333333333,4,2,3,60,0,0
361123,-83.3333333333333,4,2,3,50,0,0
364963,-83.3333333333333,4,2,3,43,0,0
368803,-83.3333333333333,4,2,3,35,0,0
372643,-83.3333333333333,4,2,3,27,0,0
376483,-83.3333333333333,4,2,3,20,0,0
380323,-83.3333333333333,4,2,3,13,0,0
383203,-83.3333333333333,4,2,99,5,0,0

[Colours]
Combo1 : 209,251,179
Combo2 : 31,111,231
Combo3 : 185,201,242
Combo4 : 193,170,115
Combo5 : 187,215,91
Combo6 : 238,152,57
Combo7 : 243,95,95
Combo8 : 253,249,162

[HitObjects]
164,83,403,70,0,P|154:125|169:181,1,84,2|0,2:0|2:0,2:0:0:0:
178,201,883,1,2,2:0:0:0:
265,46,1123,6,0,P|314:53|344:37,1,70,2|2,2:0|2:0,2:0:0:0:
363,30,1483,2,0,L|372:85,1,35,2|2,2:0|2:0,2:0:0:0:
391,182,1843,1,2,2:0:0:0:
178,201,2083,54,0,P|235:181|312:257,1,168,6|8,1:2|2:0,2:0:0:0:
113,274,2803,1,2,1:3:0:0:
113,274,2923,1,2,2:3:0:0:
113,274,3043,2,0,P|65:282|17:254,1,84,2|0,2:3|1:0,2:0:0:0:
82,116,3523,1,8,2:0:0:0:
178,201,3763,1,2,2:0:0:0:
258,91,4003,102,0,L|268:0,1,84,2|0,1:2|1:0,2:0:0:0:
178,201,4483,2,0,L|188:292,1,84,10|2,2:0|1:3,2:0:0:0:
192,319,4843,1,2,2:3:0:0:
192,319,4963,1,2,2:3:0:0:
304,357,5203,1,0,1:0:0:0:
368,239,5443,2,0,P|323:232|279:246,1,84,10|0,2:0|2:0,2:0:0:0:
455,310,5923,6,0,B|508:265|508:265|463:150,1,168,2|8,1:2|2:0,2:0:0:0:
420,56,6643,1,2,1:3:0:0:
420,56,6763,1,2,2:3:0:0:
420,56,6883,1,2,2:3:0:0:
335,210,7123,1,2,1:2:0:0:
484,98,7363,1,10,2:0:0:0:
311,51,7603,1,2,2:0:0:0:
459,256,7843,102,0,L|474:160,1,84,0|0,1:0|1:0,2:0:0:0:
322,127,8323,2,0,L|337:223,1,84,8|2,2:0|1:3,2:0:0:0:
344,249,8683,1,2,2:3:0:0:
344,249,8803,1,2,2:3:0:0:
207,384,9043,1,2,1:2:0:0:
371,334,9283,1,10,2:0:0:0:
244,223,9523,1,2,2:0:0:0:
113,295,9763,6,0,B|54:273|14:323|14:323|34:297|27:270,1,168,2|10,1:2|2:0,2:0:0:0:
0,160,10483,1,2,1:3:0:0:
0,160,10603,1,2,2:3:0:0:
0,160,10723,1,2,2:3:0:0:
153,197,10963,1,2,1:2:0:0:
45,70,11203,1,10,2:0:0:0:
201,27,11443,1,2,2:0:0:0:
77,180,11683,102,0,P|94:248|194:264,1,168,2|10,1:2|2:0,2:0:0:0:
281,108,12403,1,2,1:3:0:0:
281,108,12523,1,2,2:3:0:0:
281,108,12643,2,0,P|272:151|283:196,1,84,2|0,2:3|1:0,2:0:0:0:
346,308,13123,1,8,2:0:0:0:
180,270,13363,1,2,2:0:0:0:
416,240,13603,6,0,B|461:279|461:279|434:384,1,168,2|8,1:2|2:0,2:0:0:0:
284,195,14323,1,2,1:3:0:0:
284,195,14443,1,2,2:3:0:0:
284,195,14563,1,2,2:3:0:0:
197,362,14803,1,2,1:2:0:0:
346,308,15043,1,10,2:0:0:0:
205,214,15283,1,2,2:0:0:0:
371,118,15523,102,0,P|414:110|457:124,1,84,2|0,1:2|1:0,2:0:0:0:
275,271,16003,2,0,P|232:279|189:265,1,84,10|0,2:0|1:0,2:0:0:0:
406,229,16483,5,2,2:0:0:0:
262,119,16723,1,0,1:0:0:0:
262,119,16843,1,2,2:0:0:0:
262,119,16963,1,10,2:0:0:0:
346,308,17203,1,2,2:0:0:0:
129,175,17443,102,0,B|195:181|195:181|219:206|219:206|289:211,1,168,6|8,1:2|2:0,2:0:0:0:
366,53,18163,1,2,1:3:0:0:
366,53,18283,1,2,2:3:0:0:
366,53,18403,2,0,P|319:46|274:60,1,84,2|0,2:3|1:0,2:0:0:0:
415,235,18883,1,8,2:0:0:0:
429,108,19123,1,2,2:0:0:0:
328,251,19363,6,0,L|232:264,1,84,2|0,1:2|1:0,2:0:0:0:
130,132,19843,2,0,L|226:145,1,84,10|2,2:0|1:3,2:0:0:0:
250,148,20203,1,2,2:3:0:0:
250,148,20323,1,2,2:3:0:0:
176,244,20563,1,0,1:0:0:0:
324,116,20803,2,0,B|336:156|336:156|322:197,1,84,10|0,2:0|2:0,2:0:0:0:
402,77,21283,102,0,B|426:157|426:157|398:239,1,168,2|8,1:2|2:0,2:0:0:0:
331,384,22003,1,2,1:3:0:0:
331,384,22123,1,2,2:3:0:0:
331,384,22243,1,2,2:3:0:0:
271,208,22483,1,2,1:2:0:0:
193,354,22723,1,10,2:0:0:0:
372,313,22963,1,2,2:0:0:0:
196,265,23203,6,0,P|142:257|101:271,1,84,0|0,1:0|1:0,2:0:0:0:
0,384,23683,2,0,P|16:338|18:293,1,84,8|2,2:0|1:3,2:0:0:0:
10,266,24043,1,2,2:3:0:0:
10,266,24163,1,2,2:3:0:0:
128,349,24403,1,2,1:2:0:0:
61,191,24643,1,10,2:0:0:0:
179,274,24883,1,2,2:0:0:0:
27,113,25123,102,0,B|114:81|109:157|196:118,1,168,2|10,1:2|2:0,2:0:0:0:
345,0,25843,1,2,1:3:0:0:
345,0,25963,1,2,2:3:0:0:
345,0,26083,1,2,2:3:0:0:
400,177,26323,1,2,1:2:0:0:
438,31,26563,1,10,2:0:0:0:
269,118,26803,1,2,2:0:0:0:
458,231,27043,6,0,P|478:173|405:100,1,168,2|10,1:2|2:0,2:0:0:0:
361,256,27763,1,2,1:3:0:0:
361,256,27883,1,2,2:3:0:0:
361,256,28003,2,0,P|316:254|273:268,1,84,2|0,2:3|1:0,2:0:0:0:
203,384,28483,1,8,2:0:0:0:
335,365,28723,1,2,2:0:0:0:
152,307,28963,102,0,L|171:118,1,168,2|8,1:2|2:0,2:0:0:0:
192,17,29683,1,2,1:3:0:0:
192,17,29803,1,2,2:3:0:0:
192,17,29923,1,2,2:3:0:0:
263,181,30163,1,2,1:2:0:0:
118,81,30403,1,10,2:0:0:0:
305,24,30643,1,2,2:0:0:0:
180,239,30883,6,0,B|172:200|172:200|164:192|164:192|157:153,1,84,6|0,1:2|1:0,2:0:0:0:
311,293,31363,2,0,B|303:332|303:332|295:340|295:340|288:379,1,84,10|0,2:0|1:0,2:0:0:0:
277,198,31843,2,0,B|307:181|343:195|343:195|334:213,1,84,2|0,2:0|1:0,2:0:0:0:
204,327,32323,2,0,B|174:344|138:330|138:330|147:312,1,84,10|0,2:0|2:0,2:0:0:0:
381,121,32803,102,0,P|418:157|405:253,1,140,6|10,1:2|2:0,2:0:0:0:
300,260,33523,1,2,1:2:0:0:
410,348,33763,2,0,B|358:340|358:340|327:354|327:354|271:345,1,140,2|8,2:0|2:0,2:0:0:0:
162,325,34483,2,0,L|178:177,1,140,2|2,2:0|1:2,2:0:0:0:
98,41,35203,2,0,P|96:81|116:118,1,70,10|2,2:0|1:2,2:0:0:0:
259,124,35683,1,2,2:0:0:0:
117,192,35923,1,2,1:2:0:0:
192,57,36163,1,10,2:0:0:0:
234,203,36403,1,2,2:0:0:0:
316,52,36643,6,0,B|348:21|348:21|340:126,1,140,2|10,1:2|2:0,2:0:0:0:
332,261,37363,2,0,B|409:238|386:303|463:282,1,140,2|0,1:2|1:0,2:0:0:0:
442,121,38083,2,0,P|433:162|441:195,1,70,8|0,2:0|2:0,2:0:0:0:
512,52,38563,2,0,B|426:14|426:14|387:47,1,140,0|8,1:0|2:0,2:0:0:0:
272,121,39283,2,0,P|313:117|345:132,1,70,0|0,1:0|2:0,2:0:0:0:
239,199,39763,1,2,1:2:0:0:
366,253,40003,1,10,2:0:0:0:
206,274,40243,1,2,2:0:0:0:
393,340,40483,102,0,P|436:314|441:209,1,140,2|10,1:2|2:0,2:0:0:0:
353,184,41203,2,0,L|368:269,1,70,2|0,1:2|2:0,2:0:0:0:
251,130,41683,2,0,L|236:215,1,70,2|8,1:2|2:0,2:0:0:0:
221,317,42163,1,2,2:0:0:0:
115,243,42403,1,2,1:2:0:0:
133,371,42643,1,2,1:2:0:0:
113,229,42883,1,10,2:0:0:0:
287,310,43123,2,0,P|250:323|205:307,1,70,2|0,1:2|2:0,2:0:0:0:
334,203,43603,1,0,1:0:0:0:
215,155,43843,2,0,L|205:229,1,70,8|2,2:0|2:0,2:0:0:0:
62,343,44323,5,2,1:2:0:0:
99,259,44563,1,2,1:2:0:0:
40,192,44803,1,10,2:0:0:0:
81,112,45043,1,2,1:2:0:0:
146,171,45283,1,2,2:0:0:0:
222,49,45523,1,2,1:2:0:0:
130,34,45763,1,10,2:0:0:0:
228,135,46003,1,2,2:0:0:0:
304,24,46243,2,0,B|377:7|377:7|427:52,1,140,0|10,1:0|2:0,2:0:0:0:
346,117,46963,2,0,P|335:161|410:211,1,140,2|0,1:2|1:0,2:0:0:0:
503,301,47683,2,0,P|464:296|427:314,1,70,8|0,2:0|2:0,2:0:0:0:
326,369,48163,102,0,B|270:358|270:358|244:369|244:369|190:357,1,140,4|10,1:2|2:0,2:0:0:0:
190,357,48883,1,0,1:0:0:0:
217,210,49123,2,0,B|256:183|256:183|241:288,1,140,2|8,2:0|2:0,2:0:0:0:
124,309,49843,1,2,2:0:0:0:
242,274,50083,2,0,P|282:260|317:262,1,70,0|2,1:0|1:2,2:0:0:0:
272,371,50563,2,0,P|237:370|204:357,1,70,10|2,2:0|1:2,2:0:0:0:
71,245,51043,1,2,2:0:0:0:
37,384,51283,1,2,1:2:0:0:
57,257,51523,1,10,2:0:0:0:
50,371,51763,1,2,2:0:0:0:
32,159,52003,6,0,P|102:126|170:133,1,140,2|8,1:2|2:0,2:0:0:0:
229,284,52723,2,0,P|213:247|223:204,1,70,2|0,1:2|2:0,2:0:0:0:
310,158,53203,1,2,1:2:0:0:
232,86,53443,1,10,2:0:0:0:
325,20,53683,1,2,2:0:0:0:
171,26,53923,2,0,B|142:54|142:54|165:158,1,140,0|8,1:0|2:0,2:0:0:0:
192,273,54643,2,0,P|155:285|123:280,1,70,0|0,1:0|2:0,2:0:0:0:
23,172,55123,1,2,1:2:0:0:
154,208,55363,1,10,2:0:0:0:
0,273,55603,1,2,2:0:0:0:
192,273,55843,101,2,1:2:0:0:
55,329,56083,1,2,1:2:0:0:
228,362,56323,1,10,2:0:0:0:
104,244,56563,2,0,L|91:163,1,70,2|0,1:2|2:0,2:0:0:0:
70,54,57043,1,2,1:2:0:0:
182,141,57283,1,10,2:0:0:0:
189,11,57523,1,2,2:0:0:0:
92,174,57763,1,2,1:2:0:0:
261,202,58003,1,2,1:2:0:0:
138,271,58243,1,10,2:0:0:0:
301,298,58483,2,0,B|336:292|369:310|369:310|395:283|434:282,1,140,2|0,1:2|1:0,2:0:0:0:
360,146,59203,2,0,P|352:185|366:219,1,70,8|2,2:0|2:0,2:0:0:0:
438,90,59683,6,0,P|388:54|307:70,1,140,2|10,1:2|2:0,2:0:0:0:
276,240,60403,2,0,P|332:214|358:136,1,140,2|2,1:2|1:2,2:0:0:0:
258,50,61123,1,10,2:0:0:0:
265,145,61363,1,2,2:0:0:0:
161,42,61603,101,0,1:0:0:0:
111,237,61843,1,0,1:0:0:0:
265,145,62083,1,8,2:0:0:0:
71,109,62323,1,0,1:0:0:0:
247,302,62563,5,2,2:0:0:0:
172,131,62803,1,0,1:0:0:0:
172,131,62923,1,2,2:0:0:0:
172,131,63043,1,8,2:0:0:0:
104,331,63283,1,2,2:0:0:0:
274,218,63523,102,0,L|340:210,1,56,14|2,2:0|2:0,2:0:0:0:
417,238,64003,2,0,L|483:230,2,56,10|2|8,2:0|2:0|2:0,2:0:0:0:
202,160,64963,2,0,P|192:130|197:101,1,56,10|2,2:0|2:0,2:0:0:0:
235,37,65443,1,10,2:0:0:0:
235,37,65683,2,0,P|265:27|294:32,1,56,2|8,2:0|2:0,2:0:0:0:
371,60,66163,1,2,2:0:0:0:
344,140,66403,1,10,2:0:0:0:
423,167,66643,1,2,2:0:0:0:
450,87,66883,1,10,2:0:0:0:
371,60,67123,1,2,2:0:0:0:
344,140,67363,6,0,L|222:154,1,112,10|10,2:0|2:0,2:0:0:0:
161,111,68083,2,0,L|100:104,1,56,2|8,2:0|2:0,2:0:0:0:
42,154,68563,2,0,P|34:189|41:210,1,56,2|10,2:0|2:0,2:0:0:0:
98,263,69043,1,2,2:0:0:0:
44,321,69283,1,10,2:0:0:0:
116,361,69523,2,0,L|178:369,1,56,2|8,2:0|2:0,2:0:0:0:
246,324,70003,1,2,2:0:0:0:
322,358,70243,1,10,2:0:0:0:
386,303,70483,1,2,2:0:0:0:
311,266,70723,1,10,2:0:0:0:
311,266,71203,101,6,1:2:0:0:
145,112,71563,1,2,2:0:0:0:
368,47,71923,1,2,1:2:0:0:
291,16,72163,5,10,2:0:0:0:
154,196,72523,1,2,2:0:0:0:
380,221,72883,1,2,1:2:0:0:
311,266,73123,101,2,1:2:0:0:
154,196,73483,1,2,2:0:0:0:
26,308,73843,1,2,1:2:0:0:
105,320,74083,6,0,L|180:330,1,63.0000000000001,10|0,2:0|2:0,2:0:0:0:
239,376,74563,2,0,L|314:366,1,63.0000000000001,0|0,1:0|2:0,2:0:0:0:
410,304,75043,102,0,P|418:260|409:227,1,70,6|0,1:2|2:0,2:0:0:0:
391,200,75403,2,0,L|352:204,1,35,2|8,2:0|2:0,2:0:0:0:
239,213,75763,1,2,1:2:0:0:
140,125,76003,2,0,P|132:81|141:48,1,70,2|0,1:2|2:0,2:0:0:0:
159,21,76363,2,0,L|198:25,1,35,2|8,2:0|2:0,2:0:0:0:
311,34,76723,1,2,2:0:0:0:
261,148,76963,6,0,P|243:178|240:223,1,70,2|0,1:2|2:0,2:0:0:0:
412,267,77443,2,0,P|407:232|389:202,1,70,8|0,2:0|1:0,2:0:0:0:
246,326,77923,2,0,L|323:334,1,70,2|0,1:2|2:0,2:0:0:0:
466,349,78403,1,10,2:0:0:0:
336,258,78643,1,2,2:0:0:0:
493,207,78883,102,0,L|488:142,1,56,6|0,1:2|2:0,2:0:0:0:
481,51,79363,2,0,L|405:57,1,66.4999982242585,0|0,1:0|2:0,2:0:0:0:
336,126,79843,2,0,L|252:120,1,77.0000023498536,0|0,1:0|2:0,2:0:0:0:
163,28,80323,2,0,P|109:26|155:58,1,131.25,2|0,1:2|0:0,0:0:0:0:
161,92,80803,5,6,1:2:0:0:
40,140,81043,2,0,L|31:240,1,87.5,0|0,1:0|2:0,2:0:0:0:
205,287,81523,1,0,1:0:0:0:
20,316,81763,101,2,2:0:0:0:
260,370,82003,1,0,1:0:0:0:
287,364,82123,1,0,1:0:0:0:
314,359,82243,6,0,B|357:324|357:324|326:217,1,141.75,10|0,2:0|2:0,2:0:0:0:
309,204,82723,6,0,P|269:217|156:137,1,168,6|10,1:2|2:0,2:0:0:0:
394,90,83443,2,0,B|436:132|436:132|419:250,1,168,2|0,1:2|1:0,2:0:0:0:
211,320,84163,1,10,2:0:0:0:
339,267,84403,6,0,B|252:299|273:211|172:245,1,168,2|0,2:0|1:0,2:0:0:0:
112,322,85123,1,10,2:0:0:0:
70,219,85363,2,0,B|133:202|180:242|180:242|158:224|164:195,1,168,2|0,1:2|1:0,2:0:0:0:
204,77,86083,1,8,2:0:0:0:
344,150,86323,1,2,2:0:0:0:
253,301,86563,102,0,L|242:394,1,84,2|0,1:2|1:0,2:0:0:0:
336,230,87043,1,10,2:0:0:0:
188,212,87283,2,0,P|143:205|93:223,1,84,2|0,1:2|2:0,2:0:0:0:
53,320,87763,1,0,1:0:0:0:
243,384,88003,2,0,L|252:300,1,84,10|0,2:0|2:0,2:0:0:0:
235,149,88483,6,0,B|300:158|300:158|343:146|343:146|402:154,1,168,2|8,1:2|2:0,2:0:0:0:
492,239,89203,1,0,1:0:0:0:
378,310,89443,2,0,B|351:276|351:276|353:233,1,84,0|0,2:0|1:0,2:0:0:0:
364,58,89923,1,10,2:0:0:0:
235,149,90163,1,2,2:0:0:0:
424,200,90403,102,0,P|429:155|414:116,1,84,2|0,1:2|1:0,2:0:0:0:
286,247,90883,1,10,2:0:0:0:
285,66,91123,2,0,L|199:73,1,84,2|0,1:2|2:0,2:0:0:0:
121,192,91603,1,2,1:2:0:0:
286,247,91843,2,0,P|299:286|293:327,1,84,10|0,2:0|2:0,2:0:0:0:
110,368,92323,6,0,L|197:379,1,84,2|0,1:2|1:0,2:0:0:0:
30,289,92803,1,10,2:0:0:0:
112,182,93043,2,0,P|119:226|13:283,1,168,2|2,1:2|1:2,2:0:0:0:
98,82,93763,2,0,P|145:89|181:112,1,84,10|0,2:0|2:0,2:0:0:0:
297,243,94243,101,2,1:2:0:0:
336,70,94483,1,2,1:2:0:0:
232,182,94723,1,10,2:0:0:0:
400,130,94963,1,2,1:2:0:0:
252,96,95203,1,2,2:0:0:0:
381,216,95443,2,0,P|454:198|484:110,1,168,2|0,1:2|2:0,2:0:0:0:
335,26,96163,5,2,1:2:0:0:
251,204,96403,1,2,1:2:0:0:
216,57,96643,101,8,2:0:0:0:
304,283,96883,1,2,1:2:0:0:
352,107,97123,5,2,2:0:0:0:
209,328,97363,1,0,1:0:0:0:
181,330,97483,1,2,2:0:0:0:
153,332,97603,1,10,2:0:0:0:
73,76,97843,1,2,2:0:0:0:
251,204,98083,102,0,B|314:168|377:214|377:214|372:231|357:240,1,168,6|10,1:2|2:0,2:0:0:0:
153,332,98803,2,0,B|242:360|219:284|314:311,1,168,2|0,1:2|1:0,2:0:0:0:
455,374,99523,2,0,P|454:331|481:243,1,126,10|0,2:0|2:0,2:0:0:0:
480,212,100003,6,0,B|448:244|448:244|364:222,1,126,2|0,1:2|2:0,2:0:0:0:
332,213,100483,1,10,2:0:0:0:
424,28,100723,2,0,P|424:79|315:63,1,168,2|0,1:2|1:0,2:0:0:0:
211,0,101443,1,8,2:0:0:0:
247,160,101683,1,2,2:0:0:0:
33,80,101923,102,0,B|104:114|104:114|66:224,1,182,2|10,1:2|2:0,2:0:0:0:
124,331,102643,6,0,B|211:344|211:344|241:324|241:324|319:332,1,196,2|0,1:2|1:0,2:0:0:0:
340,140,103363,102,0,B|335:224|335:224|397:165,1,168,10|0,2:0|2:0,2:0:0:0:
373,55,103843,6,0,B|263:30|286:114|173:87,1,210,2|8,1:2|2:0,2:0:0:0:
74,0,104563,1,0,1:0:0:0:
0,204,104803,1,0,2:0:0:0:
0,60,105043,101,2,1:2:0:0:
83,256,105283,1,10,2:0:0:0:
173,87,105523,1,2,2:0:0:0:
234,277,105763,6,0,P|279:283|321:270,1,84,2|0,1:2|1:0,2:0:0:0:
454,164,106243,2,0,P|409:158|367:171,1,84,10|0,2:0|1:0,2:0:0:0:
411,339,106723,2,0,L|421:240,1,84,2|0,2:0|1:0,2:0:0:0:
260,112,107203,2,0,L|270:211,1,84,10|0,2:0|2:0,2:0:0:0:
288,26,107683,102,0,P|240:20|197:42,1,84,2|0,1:2|1:0,2:0:0:0:
343,91,108163,2,0,P|390:96|433:74,1,84,10|0,2:0|1:0,2:0:0:0:
260,112,108643,2,0,P|242:163|334:231,1,168,2|8,2:0|2:0,2:0:0:0:
441,192,109363,1,2,2:0:0:0:
384,324,109603,6,0,L|293:334,1,84,2|0,1:2|1:0,2:0:0:0:
179,349,110083,1,10,2:0:0:0:
227,244,110323,2,0,B|233:179|233:179|208:151|208:151|213:82,1,168,2|0,1:2|1:0,2:0:0:0:
306,18,111043,1,10,2:0:0:0:
133,8,111283,1,2,2:0:0:0:
346,129,111523,102,0,L|364:220,1,84,0|0,1:0|1:0,2:0:0:0:
135,299,112003,2,0,L|153:208,1,84,8|0,2:0|1:0,2:0:0:0:
291,329,112483,5,2,2:0:0:0:
145,116,112723,1,2,1:2:0:0:
362,211,112963,1,10,2:0:0:0:
135,299,113203,1,2,2:0:0:0:
318,76,113443,86,0,B|445:102|445:102|406:135,1,168,6|8,1:2|2:0,2:0:0:0:
251,221,114163,1,2,1:3:0:0:
251,221,114283,1,2,2:3:0:0:
251,221,114403,2,0,P|239:181|253:134,1,84,2|0,2:3|1:0,2:0:0:0:
336,287,114883,1,8,2:0:0:0:
183,307,115123,1,2,2:0:0:0:
336,187,115363,102,0,L|425:197,1,84,2|0,1:2|1:0,2:0:0:0:
248,140,115843,2,0,L|159:150,1,84,10|2,2:0|1:3,2:0:0:0:
122,157,116203,1,2,2:3:0:0:
122,157,116323,1,2,2:3:0:0:
222,267,116563,1,0,1:0:0:0:
326,176,116803,2,0,P|333:129|314:89,1,84,10|0,2:0|2:0,2:0:0:0:
108,0,117283,6,0,L|274:18,1,168,2|8,1:2|2:0,2:0:0:0:
182,122,118003,1,2,1:3:0:0:
182,122,118123,1,2,2:3:0:0:
182,122,118243,1,2,2:3:0:0:
296,227,118483,1,2,1:2:0:0:
174,320,118723,1,10,2:0:0:0:
241,172,118963,1,2,2:0:0:0:
121,252,119203,102,0,L|136:163,1,84,0|0,1:0|1:0,2:0:0:0:
5,96,119683,2,0,L|20:185,1,84,8|2,2:0|1:3,2:0:0:0:
29,214,120043,1,2,2:3:0:0:
29,214,120163,1,2,2:3:0:0:
54,364,120403,1,2,1:2:0:0:
164,272,120643,1,10,2:0:0:0:
288,344,120883,1,2,2:0:0:0:
272,193,121123,6,0,B|368:162|343:237|433:208,1,168,2|10,1:2|2:0,2:0:0:0:
512,96,121843,1,2,1:3:0:0:
512,96,121963,1,2,2:3:0:0:
512,96,122083,1,2,2:3:0:0:
328,50,122323,1,2,1:2:0:0:
467,12,122563,1,10,2:0:0:0:
425,193,122803,1,2,2:0:0:0:
268,125,123043,102,0,B|225:177|225:177|261:270,1,168,2|10,1:2|2:0,2:0:0:0:
187,367,123763,1,2,1:3:0:0:
187,367,123883,1,2,2:3:0:0:
187,367,124003,2,0,P|141:351|96:358,1,84,2|0,2:3|1:0,2:0:0:0:
0,384,124483,1,8,2:0:0:0:
26,248,124723,1,2,2:0:0:0:
150,269,124963,6,0,B|216:253|263:301|263:301|246:283|252:259,1,168,2|8,1:2|2:0,2:0:0:0:
288,100,125683,1,2,1:3:0:0:
288,100,125803,1,2,2:3:0:0:
288,100,125923,1,2,2:3:0:0:
346,227,126163,1,2,1:2:0:0:
452,121,126403,1,10,2:0:0:0:
416,283,126643,1,2,2:0:0:0:
264,198,126883,102,0,L|172:186,1,84,6|0,1:2|1:0,2:0:0:0:
68,285,127363,2,0,L|160:273,1,84,10|0,2:0|1:0,2:0:0:0:
98,117,127843,2,0,P|84:160|98:202,1,84,2|0,2:0|1:0,2:0:0:0:
181,79,128323,2,0,P|195:36|181:-6,1,84,10|0,2:0|2:0,2:0:0:0:
184,169,128803,6,0,B|276:194|259:116|364:147|364:147|408:162|456:246|400:294|309:269|298:216|364:147|364:147|398:112|388:68,1,560,6|0,1:2|2:0,2:0:0:0:
194,147,141523,101,2,1:2:0:0:
273,206,141763,2,0,L|278:267,1,56,10|2,2:0|2:0,2:0:0:0:
188,344,142243,6,0,P|147:354|127:351,1,63.0000000000001,0|0,1:0|1:0,2:0:0:0:
15,261,142723,2,0,P|56:251|76:254,1,63.0000000000001,10|2,2:0|1:2,2:0:0:0:
103,267,143083,1,2,2:0:0:0:
103,267,143203,1,2,2:0:0:0:
188,344,143443,1,0,1:0:0:0:
151,190,143683,1,12,2:0:0:0:
15,261,143923,1,0,2:0:0:0:
222,261,144163,102,0,B|299:286|289:233|358:254,1,140,4|10,1:2|2:0,2:0:0:0:
357,253,144883,1,0,1:0:0:0:
211,169,145123,2,0,P|274:177|288:115,1,140,2|8,2:0|2:0,2:0:0:0:
252,29,145843,1,2,2:0:0:0:
371,56,146083,2,0,L|379:142,1,70,0|2,1:0|1:2,2:0:0:0:
226,201,146563,2,0,P|260:194|297:204,1,70,10|2,2:0|1:2,2:0:0:0:
131,300,147043,1,2,2:0:0:0:
172,131,147283,1,2,1:2:0:0:
261,284,147523,1,10,2:0:0:0:
98,215,147763,1,2,2:0:0:0:
293,202,148003,6,0,B|327:165|327:165|303:76,1,140,2|8,1:2|2:0,2:0:0:0:
178,27,148723,2,0,L|167:105,1,70,2|0,1:2|2:0,2:0:0:0:
142,245,149203,1,2,1:2:0:0:
88,157,149443,1,10,2:0:0:0:
221,182,149683,1,2,2:0:0:0:
168,96,149923,2,0,B|245:111|228:64|304:78,1,140,0|8,1:0|2:0,2:0:0:0:
377,244,150643,2,0,L|387:167,1,70,0|0,1:0|2:0,2:0:0:0:
408,59,151123,1,2,1:2:0:0:
482,190,151363,1,10,2:0:0:0:
490,29,151603,1,2,2:0:0:0:
348,183,151843,101,2,1:2:0:0:
488,108,152083,1,2,1:2:0:0:
326,93,152323,1,10,2:0:0:0:
482,190,152563,2,0,L|477:270,1,70,2|0,1:2|2:0,2:0:0:0:
325,358,153043,1,2,1:2:0:0:
389,233,153283,1,10,2:0:0:0:
433,365,153523,1,2,2:0:0:0:
291,253,153763,1,2,1:2:0:0:
218,369,154003,1,2,1:2:0:0:
194,224,154243,1,10,2:0:0:0:
116,347,154483,2,0,P|71:352|29:266,1,140,2|0,1:2|1:0,2:0:0:0:
97,160,155203,2,0,L|107:244,1,70,8|2,2:0|2:0,2:0:0:0:
37,87,155683,6,0,B|73:44|73:44|158:71,1,140,2|10,1:2|2:0,2:0:0:0:
280,180,156403,2,0,B|227:220|178:170|178:170|196:151,1,140,2|2,1:2|1:2,2:0:0:0:
341,85,157123,1,10,2:0:0:0:
365,214,157363,1,2,2:0:0:0:
461,56,157603,101,0,1:0:0:0:
435,263,157843,1,0,1:0:0:0:
341,85,158083,1,8,2:0:0:0:
512,126,158323,1,0,1:0:0:0:
272,217,158563,5,2,2:0:0:0:
440,177,158803,1,0,1:0:0:0:
440,177,158923,1,2,2:0:0:0:
440,177,159043,1,8,2:0:0:0:
332,304,159283,1,2,2:0:0:0:
347,140,159523,102,0,L|339:72,1,56,6|2,1:2|2:0,2:0:0:0:
237,42,160003,1,2,1:2:0:0:
237,42,160243,2,0,L|229:110,1,56,2|0,2:0|1:0,2:0:0:0:
89,264,160963,1,2,1:2:0:0:
168,228,161203,1,2,2:0:0:0:
237,282,161443,1,2,1:2:0:0:
317,247,161683,1,2,2:0:0:0:
317,247,162163,69,2,2:0:0:0:
306,100,162403,1,2,1:2:0:0:
398,214,162643,1,2,2:0:0:0:
259,175,162883,1,2,1:2:0:0:
393,124,163123,1,2,2:0:0:0:
317,247,163363,54,0,P|277:265|204:247,1,112,2|2,1:2|1:2,2:0:0:0:
151,186,164083,2,0,P|150:158|155:130,1,56,2|0,2:0|1:0,2:0:0:0:
176,47,164563,101,2,2:0:0:0:
265,39,164803,1,2,1:2:0:0:
300,122,165043,1,2,2:0:0:0:
236,180,165283,1,2,1:2:0:0:
156,133,165523,1,2,2:0:0:0:
156,133,166003,5,2,2:0:0:0:
236,180,166243,1,2,1:2:0:0:
184,259,166483,1,2,2:0:0:0:
109,213,166723,1,2,1:2:0:0:
109,213,167203,101,6,1:2:0:0:
318,293,167563,1,2,2:0:0:0:
163,384,167923,1,2,1:2:0:0:
246,367,168163,5,10,2:0:0:0:
82,287,168523,1,2,2:0:0:0:
239,160,168883,1,2,1:2:0:0:
156,189,169123,101,2,1:2:0:0:
354,245,169483,1,2,2:0:0:0:
191,310,169843,1,2,1:2:0:0:
264,359,170083,6,0,L|327:368,1,63.0000000000001,10|0,2:0|2:0,2:0:0:0:
391,314,170563,2,0,L|460:304,1,63.0000000000001,0|0,1:0|2:0,2:0:0:0:
508,206,171043,102,0,P|500:170|510:131,1,70,6|0,1:2|2:0,2:0:0:0:
484,104,171403,2,0,L|441:110,1,35,2|8,2:0|2:0,2:0:0:0:
323,126,171763,1,2,1:2:0:0:
389,246,172003,2,0,P|397:282|387:321,1,70,2|0,1:2|2:0,2:0:0:0:
358,340,172363,2,0,L|315:334,1,35,2|8,2:0|2:0,2:0:0:0:
211,315,172723,1,2,2:0:0:0:
128,201,172963,6,0,L|138:123,1,70,2|0,1:2|2:0,2:0:0:0:
263,185,173443,2,0,L|271:254,1,70,8|0,2:0|1:0,2:0:0:0:
144,317,173923,2,0,P|178:321|212:313,1,70,2|0,1:2|2:0,2:0:0:0:
351,241,174403,1,10,2:0:0:0:
278,366,174643,1,2,2:0:0:0:
171,243,174883,102,0,L|164:172,1,56,6|0,1:2|2:0,2:0:0:0:
101,116,175363,2,0,L|112:33,1,66.4999982242585,0|0,1:0|2:0,2:0:0:0:
201,10,175843,2,0,P|231:3|275:21,1,77.0000023498536,0|0,1:0|2:0,2:0:0:0:
333,125,176323,2,0,P|355:163|361:110,1,131.25,2|0,1:2|0:0,0:0:0:0:
331,95,176803,5,6,1:2:0:0:
189,139,177043,2,0,L|197:239,1,87.5,0|0,1:0|2:0,2:0:0:0:
308,274,177523,1,0,1:0:0:0:
93,237,177763,101,2,2:0:0:0:
335,277,178003,1,0,1:0:0:0:
363,281,178123,1,0,1:0:0:0:
390,286,178243,2,0,P|437:270|390:211,1,141.75,10|0,2:0|2:0,2:0:0:0:
368,202,178723,22,0,P|381:156|342:42,1,168,6|10,1:2|2:0,2:0:0:0:
132,92,179443,2,0,B|223:76|197:148|291:132,1,168,2|0,1:2|1:0,2:0:0:0:
159,193,180163,1,10,2:0:0:0:
350,66,180403,6,0,B|394:119|394:119|353:224,1,168,2|0,2:0|1:0,2:0:0:0:
284,366,181123,1,10,2:0:0:0:
451,348,181363,2,0,B|439:304|403:281|403:281|359:304|318:285,1,168,2|0,1:2|1:0,2:0:0:0:
205,109,182083,1,8,2:0:0:0:
357,211,182323,1,2,2:0:0:0:
141,263,182563,102,0,L|151:175,1,83.9999974365235,2|0,1:2|1:0,2:0:0:0:
218,317,183043,1,10,2:0:0:0:
287,117,183283,2,0,P|236:105|194:111,1,84,2|0,1:2|2:0,2:0:0:0:
345,187,183763,1,0,1:0:0:0:
340,50,184003,2,0,P|391:38|433:44,1,84,10|0,2:0|2:0,2:0:0:0:
486,196,184483,6,0,B|464:142|496:85|496:85|484:107|452:118,1,168,2|8,1:2|2:0,2:0:0:0:
260,71,185203,1,0,1:0:0:0:
367,175,185443,2,0,B|384:215|384:215|381:261,1,84,0|0,2:0|1:0,2:0:0:0:
187,368,185923,1,10,2:0:0:0:
284,229,186163,1,2,2:0:0:0:
419,374,186403,102,0,L|508:383,1,84,2|0,1:2|1:0,2:0:0:0:
322,361,186883,1,10,2:0:0:0:
383,219,187123,2,0,P|391:266|379:310,1,84,2|0,1:2|2:0,2:0:0:0:
310,173,187603,1,2,1:2:0:0:
252,317,187843,2,0,P|205:325|161:313,1,84,10|0,2:0|2:0,2:0:0:0:
80,238,188323,6,0,L|69:144,1,84,2|0,1:2|1:0,2:0:0:0:
158,43,188803,1,10,2:0:0:0:
0,16,189043,2,0,P|44:4|95:14,1,84,2|0,1:2|2:0,2:0:0:0:
15,155,189523,1,2,1:2:0:0:
195,114,189763,2,0,L|184:208,1,84,10|0,2:0|2:0,2:0:0:0:
162,359,190243,101,2,1:2:0:0:
104,221,190483,1,2,1:2:0:0:
236,318,190723,2,0,L|335:332,1,84,10|0,2:0|1:0,2:0:0:0:
416,233,191203,1,2,2:0:0:0:
278,120,191443,2,0,P|265:168|278:207,1,84,2|8,1:2|2:0,2:0:0:0:
384,45,191923,1,2,2:0:0:0:
153,105,192163,5,2,1:2:0:0:
377,163,192403,1,2,1:2:0:0:
214,43,192643,101,8,2:0:0:0:
321,231,192883,1,2,1:2:0:0:
301,23,193123,5,2,2:0:0:0:
234,264,193363,1,0,1:0:0:0:
229,236,193483,1,2,2:0:0:0:
223,209,193603,1,10,2:0:0:0:
389,62,193843,1,2,2:0:0:0:
146,101,194083,102,0,B|221:110|221:110|239:100|239:100|310:108,1,168,6|10,1:2|2:0,2:0:0:0:
397,257,194803,2,0,B|354:295|354:295|369:173,1,168,2|0,1:2|1:0,2:0:0:0:
274,347,195523,2,0,P|222:334|143:361,1,126,10|0,2:0|2:0,2:0:0:0:
124,384,196003,6,0,L|108:229,1,126,2|0,1:2|2:0,2:0:0:0:
105,225,196483,1,10,2:0:0:0:
286,245,196723,2,0,B|295:291|260:322|260:322|209:316|193:273,1,168,2|0,1:2|1:0,2:0:0:0:
333,163,197443,1,8,2:0:0:0:
376,383,197683,1,2,2:0:0:0:
361,82,197923,102,0,B|263:59|284:140|188:114,1,182,2|10,1:2|2:0,2:0:0:0:
36,0,198643,6,0,B|5:8|-19:47|-19:47|4:173,1,196,2|0,1:2|1:0,2:0:0:0:
238,230,199363,102,0,B|172:240|172:240|154:267|154:267|71:279,1,168,10|0,2:0|2:0,2:0:0:0:
0,341,199843,6,0,B|57:334|88:384|88:384|140:354|188:383,1,210,2|8,1:2|2:0,2:0:0:0:
135,124,200563,1,0,1:0:0:0:
111,285,200803,1,0,2:0:0:0:
153,11,201043,101,2,1:2:0:0:
29,199,201283,1,10,2:0:0:0:
211,227,201523,1,2,2:0:0:0:
0,43,201763,6,0,L|90:62,1,84,2|0,1:2|1:0,2:0:0:0:
301,122,202243,2,0,L|211:141,1,84,10|0,2:0|1:0,2:0:0:0:
84,301,202723,2,0,P|94:253|120:215,1,84,2|0,2:0|1:0,2:0:0:0:
312,248,203203,2,0,P|332:284|340:325,1,84,10|0,2:0|2:0,2:0:0:0:
95,379,203683,102,0,B|76:342|76:342|83:301,1,84,2|0,1:2|1:0,2:0:0:0:
197,95,204163,2,0,B|216:132|216:132|209:173,1,84,10|0,2:0|1:0,2:0:0:0:
68,213,204643,2,0,B|133:223|133:223|161:254|161:254|225:264,1,168,2|8,2:0|2:0,2:0:0:0:
373,280,205363,1,2,2:0:0:0:
303,75,205603,6,0,P|289:115|300:159,1,84,2|0,1:2|1:0,2:0:0:0:
474,230,206083,1,10,2:0:0:0:
463,54,206323,2,0,B|371:28|396:102|291:71,1,168,2|0,1:2|1:0,2:0:0:0:
184,30,207043,1,10,2:0:0:0:
262,200,207283,1,2,2:0:0:0:
102,83,207523,101,0,1:0:0:0:
227,116,207763,1,2,2:0:0:0:
135,208,208003,1,10,2:0:0:0:
94,64,208243,5,2,1:2:0:0:
249,255,208483,1,2,2:0:0:0:
12,190,208723,1,2,1:2:0:0:
242,103,208963,1,10,2:0:0:0:
106,309,209203,1,2,2:0:0:0:
374,167,209443,5,6,1:2:0:0:
394,308,209683,1,2,1:2:0:0:
230,188,209923,1,10,2:0:0:0:
250,329,210163,2,0,P|204:352|157:348,1,84,2|0,1:2|2:0,2:0:0:0:
0,276,210643,2,0,P|46:253|93:257,1,84,2|8,1:2|2:0,2:0:0:0:
250,329,211123,1,2,2:0:0:0:
179,140,211363,6,0,B|140:187|140:187|177:289,1,168,2|10,1:2|2:0,2:0:0:0:
274,105,212083,2,0,P|237:57|131:54,1,168,2|2,1:2|1:2,2:0:0:0:
101,72,212683,1,0,2:0:0:0:
101,72,212803,1,10,2:0:0:0:
24,210,213043,1,2,2:0:0:0:
168,294,213283,102,0,B|258:313|233:244|332:265,1,168,2|8,1:2|2:0,2:0:0:0:
456,342,214003,2,0,L|465:245,1,84,2|0,1:2|2:0,2:0:0:0:
475,142,214483,1,2,1:2:0:0:
362,186,214723,1,10,2:0:0:0:
341,187,214843,1,2,2:0:0:0:
320,189,214963,1,2,2:0:0:0:
222,42,215203,5,2,1:2:0:0:
235,70,215323,1,2,2:0:0:0:
238,101,215443,1,2,1:2:0:0:
230,131,215563,1,2,2:0:0:0:
211,156,215683,1,10,2:0:0:0:
184,173,215803,1,2,2:0:0:0:
154,179,215923,1,2,1:2:0:0:
123,173,216043,1,2,2:0:0:0:
95,156,216163,102,0,L|91:103,3,41.9999987182618,2|2|2|2,2:0|2:0|1:2|2:0,0:0:0:0:
123,259,216643,2,0,L|116:319,1,41.9999987182618,10|2,2:0|2:0,0:0:0:0:
184,173,216883,2,0,L|179:131,1,41.9999987182618,2|2,2:0|2:0,0:0:0:0:
215,340,217123,6,0,P|275:318|400:361,1,168,2|8,1:2|2:0,2:0:0:0:
440,238,217843,2,0,B|545:234|550:59|399:66|315:132,1,336,2|2,1:2|2:0,2:0:0:0:
291,149,218923,1,2,2:0:0:0:
291,149,219043,1,2,1:2:0:0:
323,290,219283,1,2,1:2:0:0:
170,206,219523,1,10,2:0:0:0:
143,353,219763,1,2,1:2:0:0:
246,248,220003,1,2,2:0:0:0:
91,284,220243,1,2,1:2:0:0:
236,160,220483,2,0,P|182:188|165:215,1,84,10|0,2:0|2:0,2:0:0:0:
333,102,220963,101,2,1:2:0:0:
112,37,221203,1,2,1:2:0:0:
246,248,221443,1,10,2:0:0:0:
257,7,221683,1,2,1:2:0:0:
94,137,221923,2,0,P|79:179|89:231,1,84,2|0,2:0|1:0,2:0:0:0:
246,248,222403,1,10,2:0:0:0:
265,246,222523,1,2,2:0:0:0:
291,243,222643,1,2,2:0:0:0:
327,238,222763,1,2,2:0:0:0:
377,231,222883,5,6,1:2:0:0:
156,70,223123,1,2,1:2:0:0:
419,141,223363,101,10,2:0:0:0:
156,261,223603,1,2,1:2:0:0:
449,294,223843,5,2,2:0:0:0:
461,254,223963,1,2,2:0:0:0:
460,212,224083,1,2,1:2:0:0:
445,173,224203,1,2,2:0:0:0:
419,141,224323,2,0,P|407:100|417:56,1,84,10|2,2:0|2:0,2:0:0:0:
323,279,224803,102,0,P|253:301|184:266,1,154,6|10,1:2|2:0,2:0:0:0:
129,107,225523,1,2,1:2:0:0:
267,133,225763,2,0,P|270:175|263:209,1,77,2|0,2:0|1:0,2:0:0:0:
83,284,226243,2,0,P|125:281|159:288,1,77,10|0,2:0|2:0,2:0:0:0:
283,343,226723,2,0,B|321:383|321:383|423:351,1,154,2|8,1:2|2:0,2:0:0:0:
339,81,227683,2,0,L|325:167,1,77,2|0,2:0|1:0,2:0:0:0:
459,235,228163,2,0,L|445:149,1,77,10|0,2:0|2:0,2:0:0:0:
328,260,228643,6,0,B|269:250|269:250|240:266|240:266|181:254,2,154,2|8|0,1:2|2:0|2:0,2:0:0:0:
291,360,229843,2,0,P|251:373|201:360,1,77,2|8,1:2|2:0,2:0:0:0:
180,253,230323,1,2,2:0:0:0:
58,349,230563,2,0,P|76:285|45:177,1,154,2|8,1:2|2:0,2:0:0:0:
148,103,231283,2,0,L|233:117,1,77,0|0,1:0|2:0,2:0:0:0:
59,200,231763,1,2,1:2:0:0:
38,84,232003,1,10,2:0:0:0:
166,215,232243,1,2,2:0:0:0:
0,308,232483,102,0,P|41:294|86:301,1,77,2|0,1:2|1:0,2:0:0:0:
153,384,232963,1,10,2:0:0:0:
261,241,233203,2,0,L|245:323,1,77,2|0,1:2|2:0,2:0:0:0:
166,215,233683,2,0,L|150:133,1,77,2|8,1:2|2:0,2:0:0:0:
241,65,234163,1,2,2:0:0:0:
93,50,234403,2,0,B|173:24|161:88|240:65,1,154,2|8,1:2|2:0,2:0:0:0:
346,0,235123,2,0,P|354:43|383:67,1,77,0|0,1:0|2:0,2:0:0:0:
498,101,235603,1,2,1:2:0:0:
349,173,235843,1,10,2:0:0:0:
482,202,236083,1,2,2:0:0:0:
323,269,236323,6,0,B|276:309|276:309|179:273,1,154,2|10,1:2|2:0,2:0:0:0:
244,141,237043,2,0,P|257:185|254:223,1,77,2|0,1:2|2:0,2:0:0:0:
112,304,237523,2,0,P|111:265|123:229,1,77,2|8,1:2|2:0,2:0:0:0:
215,353,238003,1,2,2:0:0:0:
256,216,238243,2,0,L|341:206,1,77,2|0,1:2|1:0,2:0:0:0:
165,131,238723,2,0,L|80:121,1,77,8|0,2:0|1:0,2:0:0:0:
132,0,239203,101,2,2:0:0:0:
256,216,239563,1,2,2:0:0:0:
380,0,239923,1,2,2:0:0:0:
256,135,240163,6,0,L|244:58,1,77,2|0,1:2|1:0,2:0:0:0:
350,258,240643,2,0,L|363:174,1,77,8|0,2:0|2:0,2:0:0:0:
496,354,241123,2,0,L|420:365,1,77,0|0,1:0|1:0,2:0:0:0:
273,334,241603,2,0,L|197:322,1,77,8|0,2:0|2:0,2:0:0:0:
37,260,242083,102,0,P|258:215|476:260,1,448,2|0,2:0|2:0,2:0:0:0:
473,258,244963,2,0,L|464:378,1,112,2|2,2:0|2:0,2:0:0:0:
430,188,245923,86,0,P|395:176|355:184,1,70,2|2,2:0|2:0,2:0:0:0:
300,224,246643,2,0,L|304:263,1,35,2|0,2:0|2:0,2:0:0:0:
153,275,247363,1,2,2:0:0:0:
153,275,247603,2,0,L|159:196,1,70,2|0,2:0|2:0,2:0:0:0:
171,128,248323,1,2,2:0:0:0:
171,128,248563,2,0,L|250:134,1,70,2|0,2:0|2:0,2:0:0:0:
385,148,249523,1,2,2:0:0:0:
385,148,249763,6,0,P|397:113|390:75,1,70,2|2,2:0|2:0,2:0:0:0:
332,33,250483,2,0,L|212:45,1,105,2|2,2:0|2:0,2:0:0:0:
144,172,251683,2,0,B|211:187|198:128|276:144,1,140,2|0,2:0|2:0,2:0:0:0:
371,265,253123,2,0,P|353:272|335:273,1,35,2|2,2:0|2:0,2:0:0:0:
267,243,253603,102,0,L|277:167,1,70,2|2,2:0|2:0,2:0:0:0:
336,123,254323,2,0,L|326:47,1,70,2|2,2:0|2:0,2:0:0:0:
267,5,255043,1,2,2:0:0:0:
127,68,255523,2,0,P|116:100|118:142,1,70,2|2,2:0|2:0,2:0:0:0:
171,191,256243,2,0,P|187:222|151:287,1,105,2|2,2:0|2:0,2:0:0:0:
298,351,257443,6,0,L|339:347,1,35,2|2,2:0|2:0,2:0:0:0:
354,273,257923,2,0,L|313:269,1,35,2|2,2:0|2:0,2:0:0:0:
265,214,258403,1,2,2:0:0:0:
265,214,258643,2,0,B|257:180|257:180|273:147,1,70,2|0,2:0|2:0,2:0:0:0:
338,189,259363,2,0,B|353:157|353:157|345:123,1,70,2|0,2:0|2:0,2:0:0:0:
224,29,260323,1,2,2:0:0:0:
81,70,260803,1,2,2:0:0:0:
247,153,261283,102,0,P|262:201|244:279,1,112,2|10,2:0|2:0,2:0:0:0:
69,189,262003,2,0,L|186:215,1,112,2|0,2:0|2:0,2:0:0:0:
219,356,262723,2,0,P|214:322|236:271,1,84,10|0,2:0|2:0,2:0:0:0:
253,261,263203,2,0,L|370:287,1,112,2|10,2:0|2:0,2:0:0:0:
439,167,263923,2,0,L|322:193,1,112,2|0,2:0|2:0,2:0:0:0:
247,144,264643,1,10,2:0:0:0:
175,206,264883,1,2,2:0:0:0:
329,191,265123,6,0,P|339:242|325:308,1,112,2|10,2:0|2:0,2:0:0:0:
169,338,265843,2,0,B|217:368|217:368|271:350,1,112,2|0,2:0|2:0,2:0:0:0:
175,206,266563,2,0,L|160:274,1,56,10|0,2:0|2:0,2:0:0:0:
252,136,267043,2,0,L|131:111,1,112,2|8,2:0|2:0,2:0:0:0:
87,34,267763,2,0,L|152:24,1,56,0|0,2:0|2:0,2:0:0:0:
236,12,268243,1,2,2:0:0:0:
305,70,268483,1,10,2:0:0:0:
252,136,268723,1,2,2:0:0:0:
353,214,268963,102,0,L|365:279,1,56,6|0,2:0|2:0,2:0:0:0:
265,325,269443,2,0,L|277:260,1,56,10|0,2:0|2:0,2:0:0:0:
175,206,269923,2,0,L|187:271,1,56,2|0,2:0|2:0,2:0:0:0:
87,317,270403,2,0,L|99:252,1,56,10|0,2:0|2:0,2:0:0:0:
237,246,270883,6,0,P|207:260|177:259,1,56,6|0,2:0|2:0,2:0:0:0:
273,171,271363,2,0,P|303:157|333:158,1,56,10|0,2:0|2:0,2:0:0:0:
186,174,271843,102,0,P|158:114|160:54,1,112,6|10,2:0|2:0,2:0:0:0:
214,0,272563,1,2,2:0:0:0:
300,92,272803,6,0,B|347:57|347:57|430:80,1,140,6|10,2:0|2:0,2:0:0:0:
373,277,273523,2,0,P|348:212|368:146,1,140,2|0,2:0|2:0,2:0:0:0:
449,83,274243,1,10,2:0:0:0:
511,163,274483,1,2,2:0:0:0:
368,146,274723,101,6,1:2:0:0:
493,284,274963,1,0,1:0:0:0:
319,312,275203,5,8,2:0:0:0:
511,163,275443,1,0,1:0:0:0:
262,164,275683,101,2,2:0:0:0:
482,353,275923,1,0,1:0:0:0:
487,318,276043,1,0,1:0:0:0:
493,284,276163,2,0,B|428:261|429:313|359:289,1,136.5,10|0,2:0|2:0,2:0:0:0:
307,372,276643,54,0,P|292:328|201:329,1,126,6|0,1:2|2:0,2:0:0:0:
194,336,277123,1,10,2:0:0:0:
377,192,277363,2,0,B|428:242|428:242|402:351,1,168,2|0,1:2|1:0,2:0:0:0:
194,336,278083,1,10,2:0:0:0:
323,132,278323,6,0,B|262:123|262:123|227:144|227:144|162:134,1,168,2|0,2:0|1:0,2:0:0:0:
196,48,279043,1,10,2:0:0:0:
293,212,279283,2,0,B|324:262|324:262|202:241,1,167.999994873047,2|0,1:2|1:0,2:0:0:0:
46,214,280003,1,8,2:0:0:0:
231,336,280243,1,2,2:0:0:0:
1,379,280483,102,0,P|-9:339|0:296,1,84,2|0,1:2|1:0,2:0:0:0:
92,147,280963,1,10,2:0:0:0:
231,336,281203,2,0,L|139:343,1,84,2|0,1:2|2:0,2:0:0:0:
314,198,281683,1,0,1:0:0:0:
436,276,281923,2,0,B|449:315|449:315|440:362,1,84,10|0,2:0|2:0,2:0:0:0:
270,286,282403,6,0,B|232:229|283:170|283:170|313:197,1,168,2|8,1:2|2:0,2:0:0:0:
432,321,283123,1,0,1:0:0:0:
258,380,283363,2,0,P|215:386|178:360,1,84,0|0,2:0|1:0,2:0:0:0:
116,216,283843,1,10,2:0:0:0:
317,305,284083,1,2,2:0:0:0:
366,92,284323,102,0,L|272:82,1,84,2|0,1:2|1:0,2:0:0:0:
446,54,284803,1,10,2:0:0:0:
285,2,285043,2,0,P|274:51|290:98,1,84,2|0,1:2|2:0,2:0:0:0:
357,221,285523,1,2,1:2:0:0:
446,54,285763,2,0,P|397:43|350:59,1,84,10|0,2:0|2:0,2:0:0:0:
226,243,286243,6,0,L|234:156,1,84,2|0,1:2|1:0,2:0:0:0:
295,334,286723,1,10,2:0:0:0:
138,308,286963,2,0,P|96:286|71:243,1,84,2|0,1:2|2:0,2:0:0:0:
86,105,287443,1,2,1:2:0:0:
0,280,287683,2,0,P|-1:232|22:189,1,84,10|0,2:0|2:0,2:0:0:0:
174,132,288163,101,2,1:2:0:0:
0,82,288403,1,2,1:2:0:0:
113,191,288643,2,0,L|127:281,1,84,10|2,2:0|1:2,2:0:0:0:
315,274,289123,1,2,2:0:0:0:
249,171,289363,2,0,L|235:261,1,84,2|8,1:2|2:0,2:0:0:0:
174,132,289843,1,2,2:0:0:0:
320,289,290083,5,2,1:2:0:0:
239,85,290323,1,2,1:2:0:0:
325,304,290563,101,8,2:0:0:0:
321,59,290803,1,2,1:2:0:0:
330,319,291043,5,2,2:0:0:0:
406,72,291283,1,0,1:0:0:0:
437,75,291403,1,2,2:0:0:0:
468,79,291523,1,10,2:0:0:0:
239,253,291763,1,2,2:0:0:0:
508,159,292003,102,0,B|446:164|418:228|418:228|428:205|417:182,1,168,6|10,1:2|2:0,2:0:0:0:
234,95,292723,2,0,B|228:124|228:124|284:155|326:107|326:107|311:81,1,168,2|0,1:2|1:0,2:0:0:0:
107,24,293443,2,0,B|81:65|81:65|99:144,1,126,10|0,2:0|2:0,2:0:0:0:
111,174,293923,6,0,B|183:191|172:142|235:156,1,126,2|0,1:2|2:0,2:0:0:0:
266,167,294403,1,10,2:0:0:0:
336,341,294643,2,0,B|342:272|342:272|360:252|360:252|370:167,1,168,2|0,1:2|1:0,2:0:0:0:
380,34,295363,1,8,2:0:0:0:
469,195,295603,1,2,2:0:0:0:
302,114,295843,102,0,B|243:70|178:124|178:124|172:149|184:168,1,182,2|10,1:2|2:0,2:0:0:0:
365,251,296563,6,0,B|318:202|318:202|342:359,1,196,2|0,1:2|1:0,2:0:0:0:
440,84,297283,102,0,B|349:64|372:131|281:108,1,168,10|0,2:0|2:0,2:0:0:0:
200,54,297763,6,0,P|191:115|147:33,1,210,2|8,1:2|2:0,2:0:0:0:
258,202,298483,1,0,1:0:0:0:
49,181,298723,1,0,2:0:0:0:
303,290,298963,101,2,1:2:0:0:
95,322,299203,1,10,2:0:0:0:
352,222,299443,1,2,2:0:0:0:
146,131,299683,6,0,L|126:247,1,84,2|0,1:2|1:0,2:0:0:0:
299,87,300163,2,0,L|279:-29,1,84,10|0,2:0|1:0,2:0:0:0:
272,229,300643,2,0,P|312:236|354:219,1,84,2|0,2:0|1:0,2:0:0:0:
180,50,301123,2,0,P|139:42|97:59,1,84,10|0,2:0|2:0,2:0:0:0:
272,229,301603,102,0,B|280:187|280:187|260:149,1,84,2|0,1:2|1:0,2:0:0:0:
92,305,302083,2,0,B|83:346|83:346|103:384,1,84,10|0,2:0|1:0,2:0:0:0:
0,175,302563,2,0,B|35:122|35:122|133:156,1,168,2|8,2:0|2:0,2:0:0:0:
46,241,303283,1,2,2:0:0:0:
218,70,303523,6,0,P|232:119|226:153,1,84,2|0,1:2|1:0,2:0:0:0:
139,23,304003,1,10,2:0:0:0:
77,170,304243,2,0,P|120:136|236:159,1,168,2|0,1:2|1:0,2:0:0:0:
255,337,304963,1,10,2:0:0:0:
336,197,305203,1,2,2:0:0:0:
409,352,305443,101,2,1:2:0:0:
255,242,305683,1,0,1:0:0:0:
433,213,305923,1,8,2:0:0:0:
322,379,306163,1,0,1:0:0:0:
374,120,306403,5,2,2:0:0:0:
472,344,306643,1,2,1:2:0:0:
440,348,306763,1,2,2:0:0:0:
409,352,306883,1,10,2:0:0:0:
506,148,307123,1,2,2:0:0:0:
317,223,307363,22,0,P|260:243|178:190,1,154,6|8,1:2|2:0,2:0:0:0:
251,73,308083,1,2,1:3:0:0:
251,73,308203,1,2,2:3:0:0:
251,73,308323,2,0,L|264:168,1,77,2|0,2:3|1:0,2:0:0:0:
172,275,308803,2,0,L|185:180,1,77,8|2,2:0|2:0,2:0:0:0:
388,208,309283,102,0,B|353:228|353:228|312:222,1,77,2|0,1:2|1:0,2:0:0:0:
247,75,309763,2,0,B|281:54|281:54|322:60,1,77,10|2,2:0|1:3,2:0:0:0:
350,68,310123,1,2,2:3:0:0:
350,68,310243,2,0,L|340:149,1,77,2|0,2:3|1:0,2:0:0:0:
226,284,310723,2,0,L|216:203,1,77,10|0,2:0|2:0,2:0:0:0:
197,366,311203,6,0,B|292:382|268:325|347:337,1,154,2|8,1:2|2:0,2:0:0:0:
457,384,311923,1,2,1:3:0:0:
457,384,312043,1,2,2:3:0:0:
457,384,312163,1,2,2:3:0:0:
405,216,312403,1,2,1:2:0:0:
343,336,312643,1,10,2:0:0:0:
506,311,312883,1,2,2:0:0:0:
316,254,313123,102,0,B|248:265|248:265|236:285|236:285|167:297,1,154,0|8,1:0|2:0,2:0:0:0:
81,201,313843,1,2,1:3:0:0:
81,201,313963,1,2,2:3:0:0:
81,201,314083,1,2,2:3:0:0:
195,93,314323,1,2,1:2:0:0:
281,230,314563,1,10,2:0:0:0:
136,147,314803,1,2,2:0:0:0:
222,284,315043,6,0,P|263:309|357:262,1,154,2|10,1:2|2:0,2:0:0:0:
375,95,315763,1,2,1:3:0:0:
375,95,315883,1,2,2:3:0:0:
375,95,316003,1,2,2:3:0:0:
412,225,316243,1,2,1:2:0:0:
259,153,316483,1,10,2:0:0:0:
222,284,316723,1,2,2:0:0:0:
327,372,316963,102,0,B|345:269|345:269|303:226,1,154,2|10,1:2|2:0,2:0:0:0:
148,278,317683,1,2,1:3:0:0:
148,278,317803,1,2,2:3:0:0:
148,278,317923,2,0,P|190:291|222:283,1,77,2|0,2:3|1:0,2:0:0:0:
344,155,318403,2,0,P|302:142|270:150,1,77,8|2,2:0|2:0,2:0:0:0:
410,232,318883,6,0,B|466:201|466:201|436:101,1,154,2|8,1:2|2:0,2:0:0:0:
365,48,319603,1,2,1:3:0:0:
365,48,319723,1,2,2:3:0:0:
365,48,319843,1,2,2:3:0:0:
278,100,320083,1,2,1:2:0:0:
185,55,320323,1,10,2:0:0:0:
287,182,320563,1,2,2:0:0:0:
194,137,320803,102,0,L|118:152,1,77,2|0,1:2|1:0,2:0:0:0:
296,264,321283,2,0,L|372:279,1,77,10|0,2:0|1:0,2:0:0:0:
222,326,321763,5,2,2:0:0:0:
425,368,322003,1,0,1:0:0:0:
425,368,322123,1,2,2:0:0:0:
425,368,322243,1,10,2:0:0:0:
354,189,322483,1,2,2:0:0:0:
154,159,322723,102,0,B|190:121|190:121|181:232,1,154,6|8,1:2|2:0,2:0:0:0:
32,288,323443,1,2,1:3:0:0:
32,288,323563,1,2,2:3:0:0:
32,288,323683,2,0,P|70:275|110:285,1,77,2|0,2:3|1:0,2:0:0:0:
223,332,324163,2,0,P|260:339|296:326,1,77,8|2,2:0|2:0,2:0:0:0:
196,178,324643,6,0,L|180:273,1,77,2|0,1:2|1:0,2:0:0:0:
265,110,325123,2,0,L|249:15,1,77,10|2,2:0|1:3,2:0:0:0:
245,0,325483,1,2,2:3:0:0:
245,0,325603,2,0,P|210:-7|173:10,1,77,2|0,2:3|1:0,2:0:0:0:
341,46,326083,2,0,P|378:59|415:42,1,77,10|0,2:0|2:0,2:0:0:0:
265,110,326563,102,0,P|254:150|352:207,1,154,2|8,1:2|2:0,2:0:0:0:
471,172,327283,1,2,1:3:0:0:
471,172,327403,1,2,2:3:0:0:
471,172,327523,1,2,2:3:0:0:
358,305,327763,1,2,1:2:0:0:
498,254,328003,1,10,2:0:0:0:
375,137,328243,1,2,2:0:0:0:
236,232,328483,6,0,B|152:206|174:270|87:243,1,154,0|8,1:0|2:0,2:0:0:0:
221,322,329203,1,2,1:3:0:0:
221,322,329323,1,2,2:3:0:0:
221,322,329443,1,2,2:3:0:0:
113,167,329683,1,2,1:2:0:0:
311,286,329923,1,10,2:0:0:0:
88,243,330163,1,2,2:0:0:0:
187,110,330403,102,0,P|242:117|289:209,1,154,2|10,1:2|2:0,2:0:0:0:
203,302,331123,1,2,1:3:0:0:
203,302,331243,1,2,2:3:0:0:
203,302,331363,1,2,2:3:0:0:
346,347,331603,1,2,1:2:0:0:
313,194,331843,1,10,2:0:0:0:
463,237,332083,1,2,2:0:0:0:
422,45,332323,6,0,B|361:39|361:39|332:55|332:55|267:47,1,154,2|10,1:2|2:0,2:0:0:0:
151,35,333043,1,2,1:3:0:0:
151,35,333163,1,2,2:3:0:0:
151,35,333283,2,0,L|136:122,1,77,2|0,2:3|1:0,2:0:0:0:
281,162,333763,2,0,L|266:75,1,77,8|2,2:0|2:0,2:0:0:0:
59,180,334243,102,0,B|124:223|124:223|195:197,1,154,2|8,1:2|2:0,2:0:0:0:
344,128,334963,1,2,1:3:0:0:
344,128,335083,1,2,2:3:0:0:
344,128,335203,1,2,2:3:0:0:
257,306,335443,1,2,1:2:0:0:
400,234,335683,1,10,2:0:0:0:
195,196,335923,1,2,2:0:0:0:
434,154,336163,5,6,1:2:0:0:
362,353,336403,1,2,1:2:0:0:
344,128,336643,101,10,2:0:0:0:
472,307,336883,1,2,1:2:0:0:
408,70,337123,5,2,2:0:0:0:
259,299,337363,1,2,1:2:0:0:
221,36,337603,101,10,2:0:0:0:
434,154,337843,1,2,2:0:0:0:
66,150,338083,102,0,B|126:123|202:141|256:279|202:325|140:350|77:310|65:218|185:202|185:202|247:211|292:163,1,560,6|0,1:2|1:0,2:0:0:0:
248,25,340243,2,0,P|227:71|233:114,1,84,2|8,1:2|2:0,2:0:0:0:
392,184,340723,2,0,P|392:142|373:105,1,84,2|0,1:2|2:0,2:0:0:0:
163,222,341203,2,0,L|255:236,1,84,2|8,1:2|2:0,2:0:0:0:
330,319,341683,1,0,2:0:0:0:
392,184,341923,54,0,B|396:104|499:105|536:183|464:260,1,252,2|0,1:2|1:0,2:0:0:0:
437,284,342763,2,0,B|385:308|331:266|331:266|253:253|273:318|194:304|194:304|144:258|86:289,1,378,2|0,2:0|1:0,2:0:0:0:
39,115,344083,1,2,1:2:0:0:
145,180,344323,1,10,2:0:0:0:
148,183,344443,1,2,2:0:0:0:
152,187,344563,1,2,1:2:0:0:
180,199,344683,1,2,2:0:0:0:
211,200,344803,1,2,2:0:0:0:
241,189,344923,1,2,2:0:0:0:
263,168,345043,1,2,1:2:0:0:
309,18,345283,1,10,2:0:0:0:
391,149,345523,1,2,2:0:0:0:
232,98,345763,54,0,P|283:92|325:119,1,83.9999974365235,2|0,1:2|1:0,0:0:0:0:
220,279,346243,1,10,2:0:0:0:
391,149,346483,2,0,B|319:174|259:236|258:321|363:350|441:272|398:198|319:174|238:189,1,419.999987182618,2|0,1:2|1:0,0:0:0:0:
240,189,348163,1,10,2:0:0:0:
113,264,348403,2,0,B|163:301|163:301|276:269,1,168,2|2,1:2|1:2,2:0:0:0:
355,167,349123,1,10,2:0:0:0:
326,357,349363,1,2,2:0:0:0:
240,189,349603,53,2,1:2:0:0:
415,310,349843,1,2,1:2:0:0:
417,289,349963,1,2,2:0:0:0:
419,268,350083,2,0,L|431:90,1,168,10|0,2:0|2:0,2:0:0:0:
316,47,350803,1,2,1:2:0:0:
298,42,350923,1,2,2:0:0:0:
271,40,351043,1,10,2:0:0:0:
233,51,351163,1,2,2:0:0:0:
204,83,351283,2,0,L|213:186,1,84,2|0,2:0|1:0,2:0:0:0:
224,304,351763,1,2,1:2:0:0:
183,311,351883,1,2,2:0:0:0:
142,304,352003,1,10,2:0:0:0:
49,188,352243,1,2,1:2:0:0:
270,232,352483,53,2,2:0:0:0:
34,321,352723,1,0,1:0:0:0:
34,321,352843,1,2,2:0:0:0:
34,321,352963,1,10,2:0:0:0:
274,350,353203,1,2,2:0:0:0:
127,156,353443,53,4,1:2:0:0:
270,232,353683,2,0,B|368:280|484:250|460:98|314:119|348:226,1,335.999989746094,2|0,1:2|1:0,2:0:0:0:
287,18,354883,2,0,P|232:42|200:38,1,84,10|2,2:0|2:0,2:0:0:0:
170,33,355243,1,2,2:0:0:0:
170,33,355363,2,0,L|161:86,2,42,2|0|2,1:2|2:0|1:2,2:0:0:0:
82,0,355843,1,8,2:0:0:0:
234,123,356083,2,0,B|312:240|193:299|134:236|144:191,1,252,2|8,1:2|2:0,2:0:0:0:
0,316,357043,54,0,B|91:304|91:304|159:339|159:339|245:327,1,252,2|8,2:0|2:0,2:0:0:0:
406,302,358003,1,2,1:2:0:0:
401,270,358123,1,2,2:0:0:0:
397,239,358243,1,2,2:0:0:0:
376,65,358483,1,2,1:2:0:0:
268,234,358723,1,10,2:0:0:0:
452,142,358963,1,2,2:0:0:0:
420,147,359083,1,2,2:0:0:0:
389,151,359203,1,2,1:2:0:0:
252,85,359443,2,0,P|203:75|153:93,1,84,2|8,1:2|2:0,2:0:0:0:
51,196,359923,2,0,P|100:206|150:188,1,84,2|0,1:2|2:0,2:0:0:0:
252,85,360403,1,0,1:0:0:0:
201,248,360643,1,8,2:0:0:0:
320,128,360883,1,2,2:0:0:0:
325,160,361003,1,2,2:0:0:0:
329,191,361123,53,2,1:2:0:0:
230,330,361363,1,2,1:2:0:0:
97,185,361603,1,10,2:0:0:0:
129,180,361723,1,2,2:0:0:0:
160,176,361843,2,0,L|244:162,1,84,2|0,1:2|2:0,2:0:0:0:
312,343,362323,2,0,L|228:329,1,84,2|8,1:2|2:0,2:0:0:0:
151,239,362803,1,2,2:0:0:0:
156,207,362923,1,2,2:0:0:0:
160,176,363043,1,2,1:2:0:0:
184,39,363283,1,2,1:2:0:0:
304,103,363523,1,10,2:0:0:0:
309,135,363643,1,2,2:0:0:0:
313,166,363763,2,0,P|311:202|236:308,1,168,2|0,1:2|1:0,2:0:0:0:
345,364,364483,2,0,L|433:356,1,84,8|2,2:0|2:0,2:0:0:0:
460,352,364843,1,2,2:0:0:0:
491,350,364963,53,2,1:2:0:0:
364,244,365203,1,2,1:2:0:0:
486,132,365443,1,10,2:0:0:0:
446,247,365683,1,2,1:2:0:0:
300,123,365923,2,0,L|288:35,1,84,2|0,2:0|1:0,2:0:0:0:
144,221,366403,1,8,2:0:0:0:
177,22,366643,1,2,2:0:0:0:
143,28,366763,1,2,2:0:0:0:
91,37,366883,1,2,1:2:0:0:
233,165,367123,1,2,1:2:0:0:
59,267,367363,1,10,2:0:0:0:
125,123,367603,1,2,1:2:0:0:
251,251,367843,1,2,2:0:0:0:
303,94,368083,2,0,P|350:78|394:88,1,84,2|8,1:2|2:0,2:0:0:0:
469,232,368563,1,2,2:0:0:0:
464,263,368683,1,2,2:0:0:0:
460,286,368803,53,6,1:2:0:0:
256,192,368923,12,0,383203,2:0:0:0:
