osu file format v14

[General]
AudioFilename: audio.mp3
AudioLeadIn: 0
PreviewTime: 58483
Countdown: 0
SampleSet: Soft
StackLeniency: 0.7
Mode: 0
LetterboxInBreaks: 0
WidescreenStoryboard: 1

[Editor]
Bookmarks: 9919,20527,31135,41743,48372,58980,80196
DistanceSpacing: 1
BeatDivisor: 2
GridSize: 8
TimelineZoom: 1

[Metadata]
Title:Mirai no Bokura wa Shitteru yo
TitleUnicode:未来の僕らは知ってるよ
Artist:Aqours
ArtistUnicode:Aqours
Creator:newton-
Version:Normal
Source:ラブライブ!サンシャイン!!
Tags:toshino kyoko season 2 lovelive love live sunshine opening anime tv size school idol project Inami Anju 伊波杏樹 Aida Rikako 逢田梨香子 Suwa Nanaka 諏訪ななか Komiya Arisa 小宮有紗 Saito Shuka 斉藤朱夏 Kobayashi Aika 小林愛香 Takatsuki Kanako 高槻かなこ Suzuki Aina 鈴木愛奈 Furihata Ai 降幡 愛 Takami Chika 高海千歌 Sakurauchi Riko 桜内梨子 Matsuura Kanan 松浦果南 Kurosawa Dia 黒澤ダイヤ Watanabe You 渡辺 曜 Tsushima Yoshiko 津島善子 Kunikida Hanamaru 国木田花丸 Ohara Mari 小原鞠莉 Kurosawa Ruby 黒澤ルビィ
BeatmapID:1437576
BeatmapSetID:679821

[Difficulty]
HPDrainRate:3
CircleSize:3.5
OverallDifficulty:4
ApproachRate:5
SliderMultiplier:1
SliderTickRate:1

[Events]
//Background and Video events
0,0,"aqours.jpg",0,0
Video,-700,"s2 op.avi"
//Break Periods
//Storyboard Layer 0 (Background)
//Storyboard Layer 1 (Fail)
//Storyboard Layer 2 (Pass)
//Storyboard Layer 3 (Foreground)
//Storyboard Sound Samples

[TimingPoints]
1964,331.491712707182,4,2,0,50,1,0
9919,-100,4,2,0,60,0,0
11245,-100,4,2,0,63,0,0
12571,-100,4,2,2,65,0,0
13731,-100,4,2,2,68,0,0
15223,-100,4,2,2,70,0,0
58980,-100,4,2,2,75,0,1
68925,-100,4,2,2,75,0,0
69588,-100,4,2,2,75,0,1
80196,-100,4,2,2,70,0,0

[Colours]
Combo1 : 0,128,255
Combo2 : 255,128,0
Combo3 : 163,153,133
Combo4 : 164,0,82

[HitObjects]
162,131,1964,6,0,P|213:109|262:118,2,100,2|0|0,0:0|0:0|0:0,0:0:0:0:
223,205,2958,1,2,0:0:0:0:
223,205,3124,2,0,P|150:228|79:180,1,150,2|2,0:0|0:0,0:0:0:0:
70,100,3952,1,2,0:0:0:0:
142,36,4284,1,2,0:0:0:0:
162,132,4615,6,0,P|206:111|232:69,1,100,2|0,0:0|0:0,0:0:0:0:
229,19,5113,2,0,L|340:28,1,100,2|0,0:0|0:0,0:0:0:0:
378,32,5610,2,0,B|384:103|384:103|349:162|349:162|355:234,1,200,2|0,0:0|0:0,0:0:0:0:
406,307,6604,2,0,P|359:322|311:309,1,100,2|2,0:0|0:0,0:0:0:0:
256,228,7267,6,0,P|208:214|161:230,1,100,2|2,0:0|0:0,0:0:0:0:
128,268,7765,1,2,0:0:0:0:
128,268,8593,2,0,P|81:283|33:270,1,100,2|0,0:0|0:0,0:0:0:0:
80,181,9256,2,0,L|70:69,1,100,2|2,0:0|0:0,0:0:0:0:
107,45,9754,1,0,0:0:0:0:
156,57,9919,6,0,P|202:72|250:59,1,100,4|2,0:0|0:0,0:0:0:0:
340,15,10582,2,0,P|353:62|337:109,1,100,2|2,0:0|0:0,0:0:0:0:
250,159,11245,2,0,P|234:205|247:253,1,100,2|0,0:0|0:0,0:0:0:0:
285,286,11743,2,0,L|173:295,1,100,2|0,0:0|0:0,0:0:0:0:
135,299,12240,1,2,0:0:0:0:
77,217,12571,6,0,P|63:169|79:122,1,100,2|2,0:0|0:0,0:0:0:0:
139,42,13234,2,0,L|250:51,1,100,2|2,0:0|0:0,0:0:0:0:
288,55,13731,1,2,0:0:0:0:
387,63,14063,2,0,L|391:118,1,50,0|2,0:0|0:0,0:0:0:0:
361,153,14394,2,0,L|370:264,1,100,2|2,0:0|0:0,0:0:0:0:
373,302,14892,1,8,0:0:0:0:
281,341,15223,6,0,P|233:355|186:339,1,100,4|8,0:0|0:0,0:0:0:0:
151,303,15720,2,0,L|159:203,1,100,2|2,0:0|0:0,0:0:0:0:
208,116,16383,2,0,P|161:100|113:114,2,100,2|2|2,0:0|0:0|0:0,0:0:0:0:
258,201,17378,1,2,0:0:0:0:
258,201,17544,2,0,L|313:197,1,50,8|2,0:0|0:0,0:0:0:0:
345,229,17875,6,0,P|360:275|346:323,1,100,4|8,0:0|0:0,0:0:0:0:
305,352,18372,1,4,0:0:0:0:
209,322,18704,1,4,0:0:0:0:
113,352,19035,2,0,B|101:308|126:268|126:268|109:215|109:215|149:189|149:189|167:155|139:93,1,250,4|2,0:0|0:0,0:0:0:0:
132,33,20196,1,8,0:0:0:0:
226,63,20527,6,0,L|325:54,1,100,4|8,0:0|0:0,0:0:0:0:
363,87,21024,2,0,P|378:133|364:181,1,100,2|2,0:0|0:0,0:0:0:0:
332,220,21522,1,8,0:0:0:0:
232,208,21853,2,0,L|132:199,1,100,2|8,0:0|0:0,0:0:0:0:
95,232,22350,2,0,P|79:278|93:326,1,100,2|2,0:0|0:0,0:0:0:0:
126,365,22848,1,8,0:0:0:0:
219,329,23179,6,0,L|318:337,2,100,2|8|2,0:0|0:0|0:0,0:0:0:0:
126,365,24173,1,8,0:0:0:0:
50,303,24505,2,0,P|36:255|52:209,1,100,2|8,0:0|0:0,0:0:0:0:
88,175,25002,2,0,P|104:128|90:81,1,100,2|2,0:0|0:0,0:0:0:0:
53,47,25499,1,8,0:0:0:0:
0,131,25831,5,4,0:0:0:0:
88,175,26162,1,8,0:0:0:0:
176,219,26494,2,0,L|275:211,1,100,2|8,0:0|0:0,0:0:0:0:
320,233,26991,1,2,0:0:0:0:
320,233,27157,2,0,P|333:280|317:326,1,100,2|8,0:0|0:0,0:0:0:0:
274,354,27654,2,0,L|175:346,1,100,2|2,0:0|0:0,0:0:0:0:
124,341,28151,1,8,0:0:0:0:
32,382,28483,6,0,P|19:334|37:288,1,100,4|2,0:0|0:0,0:0:0:0:
69,250,28980,2,0,L|61:151,1,100,4|2,0:0|0:0,0:0:0:0:
55,100,29477,1,4,0:0:0:0:
203,120,29975,2,0,L|258:116,1,50,2|2,0:0|0:0,0:0:0:0:
300,131,30306,1,2,0:0:0:0:
391,175,30638,2,0,P|426:210|433:258,1,100,2|2,0:0|0:0,0:0:0:0:
411,300,31135,6,0,L|312:292,1,100,4|8,0:0|0:0,0:0:0:0:
274,326,31632,2,0,L|175:334,1,100,2|2,0:0|0:0,0:0:0:0:
124,341,32129,1,8,0:0:0:0:
53,270,32461,2,0,P|39:222|55:176,1,100,2|8,0:0|0:0,0:0:0:0:
91,142,32958,2,0,L|190:150,1,100,2|2,0:0|0:0,0:0:0:0:
241,153,33455,1,8,0:0:0:0:
328,104,33787,6,0,P|343:57|329:10,2,100,2|8|2,0:0|0:0|0:0,0:0:0:0:
240,153,34781,1,8,0:0:0:0:
327,205,35113,2,0,L|426:197,1,100,2|8,0:0|0:0,0:0:0:0:
464,229,35610,2,0,P|478:276|463:323,1,100,2|2,0:0|0:0,0:0:0:0:
432,362,36107,1,8,0:0:0:0:
340,320,36439,5,4,0:0:0:0:
248,278,36770,1,8,0:0:0:0:
165,336,37102,2,0,L|66:328,1,100,2|8,0:0|0:0,0:0:0:0:
27,294,37599,1,2,0:0:0:0:
27,294,37765,2,0,P|12:246|27:199,1,100,2|8,0:0|0:0,0:0:0:0:
67,168,38262,2,0,L|166:160,1,100,2|2,0:0|0:0,0:0:0:0:
216,156,38759,1,8,0:0:0:0:
301,103,39091,6,0,L|297:48,2,50,4|2|2,0:0|0:0|0:0,0:0:0:0:
336,139,39588,2,0,L|328:238,1,100,4|4,0:0|0:0,0:0:0:0:
388,319,40251,2,0,P|315:342|244:294,1,150,4|8,0:0|0:0,0:0:0:0:
229,208,41080,2,0,P|182:193|134:207,1,100,2|8,0:0|0:0,0:0:0:0:
96,238,41577,1,2,0:0:0:0:
96,238,41743,6,0,L|88:139,1,100,4|8,0:0|0:0,0:0:0:0:
83,88,42240,1,4,0:0:0:0:
165,31,42571,1,4,0:0:0:0:
255,73,42903,2,0,P|328:96|373:74,1,100,4|2,0:0|0:0,0:0:0:0:
388,62,43400,1,0,0:0:0:0:
476,15,43731,6,0,P|490:62|475:109,1,100,2|8,0:0|0:0,0:0:0:0:
441,146,44229,2,0,L|449:245,1,100,2|0,0:0|0:0,0:0:0:0:
453,295,44726,1,2,0:0:0:0:
371,352,45057,1,2,0:0:0:0:
280,309,45389,2,0,L|225:313,1,50,8|0,0:0|0:0,0:0:0:0:
203,355,45720,6,0,L|104:347,1,100,2|0,0:0|0:0,0:0:0:0:
78,303,46218,2,0,P|64:256|79:209,1,100,2|0,0:0|0:0,0:0:0:0:
109,169,46715,1,0,0:0:0:0:
199,127,47046,2,0,L|202:176,2,50,8|0|0,0:0|0:0|0:0,0:0:0:0:
210,27,47709,1,2,0:0:0:0:
309,17,48041,1,2,0:0:0:0:
342,103,48372,6,0,L|441:95,2,100,4|8|2,0:0|0:0|0:0,0:0:0:0:
315,145,49201,2,0,P|299:191|313:239,1,100,2|2,0:0|0:0,0:0:0:0:
404,196,49864,2,0,L|453:192,1,50,0|8,0:0|0:0,0:0:0:0:
486,230,50196,2,0,P|499:277|484:324,1,100,2|2,0:0|0:0,0:0:0:0:
452,362,50693,2,0,L|402:358,1,50,8|2,0:0|0:0,0:0:0:0:
355,340,51024,6,0,L|256:348,1,100,2|8,0:0|0:0,0:0:0:0:
219,312,51522,2,0,P|172:296|124:310,1,100,2|2,0:0|0:0,0:0:0:0:
90,346,52019,1,8,0:0:0:0:
2,298,52350,6,0,L|10:199,1,100,2|8,0:0|0:0,0:0:0:0:
45,162,52847,2,0,P|91:146|139:160,1,100,2|2,0:0|0:0,0:0:0:0:
176,194,53345,2,0,L|225:190,1,50,8|2,0:0|0:0,0:0:0:0:
259,153,53676,2,0,L|358:161,1,100,4|2,0:0|0:0,0:0:0:0:
408,165,54173,1,4,0:0:0:0:
464,247,54505,2,0,L|460:296,1,50,4|2,0:0|0:0,0:0:0:0:
454,346,54836,6,0,B|417:313|417:313|316:322,1,150,4|2,0:0|0:0,0:0:0:0:
230,372,55665,2,0,P|214:325|228:277,1,100,4|4,0:0|0:0,0:0:0:0:
311,223,56328,6,0,L|360:219,2,50,8|8|8,0:0|0:0|0:0,0:0:0:0:
223,178,56991,2,0,L|124:186,1,100,8|8,0:0|0:0,0:0:0:0:
86,152,57488,2,0,P|70:105|84:57,1,100,8|8,0:0|0:0,0:0:0:0:
118,20,57986,1,8,0:0:0:0:
215,39,58317,1,0,0:0:0:0:
215,39,58483,2,0,L|218:88,1,50,2|2,0:0|0:0,0:0:0:0:
312,58,58980,5,2,0:0:0:0:
409,77,59312,1,4,0:0:0:0:
441,170,59643,2,0,L|433:269,1,100,2|8,0:0|0:0,0:0:0:0:
392,299,60140,2,0,P|345:314|297:300,1,100,2|2,0:0|0:0,0:0:0:0:
256,272,60638,1,8,0:0:0:0:
175,212,60969,1,8,0:0:0:0:
83,254,61301,1,8,0:0:0:0:
93,153,61632,5,2,0:0:0:0:
185,111,61963,1,12,0:0:0:0:
266,171,62295,2,0,L|365:163,1,100,2|8,0:0|0:0,0:0:0:0:
399,200,62792,2,0,P|414:246|400:294,1,100,2|2,0:0|0:0,0:0:0:0:
373,336,63289,1,8,0:0:0:0:
277,305,63621,2,0,L|178:313,1,100,2|8,0:0|0:0,0:0:0:0:
153,357,64118,6,0,L|54:349,1,100,2|2,0:0|0:0,0:0:0:0:
16,315,64615,1,8,0:0:0:0:
52,221,64947,2,0,L|151:213,1,100,2|8,0:0|0:0,0:0:0:0:
241,260,65610,2,0,P|255:212|240:165,1,100,2|8,0:0|0:0,0:0:0:0:
204,130,66107,2,0,P|188:83|203:35,1,100,2|2,0:0|0:0,0:0:0:0:
243,6,66604,1,8,0:0:0:0:
310,79,66936,6,0,L|409:71,1,100,4|8,0:0|0:0,0:0:0:0:
449,101,67433,2,0,P|464:147|449:195,1,100,4|4,0:0|0:0,0:0:0:0:
386,273,68096,2,0,L|287:265,1,100,4|2,0:0|0:0,0:0:0:0:
236,260,68593,1,12,0:0:0:0:
136,251,68925,2,0,L|139:300,2,50,2|2|10,0:0|0:0|0:0,0:0:0:0:
93,159,69588,6,0,P|77:112|92:64,1,100,2|12,0:0|0:0,0:0:0:0:
181,110,70251,2,0,L|280:118,1,100,2|8,0:0|0:0,0:0:0:0:
312,78,70748,2,0,P|349:45|404:37,1,100,2|2,0:0|0:0,0:0:0:0:
444,55,71245,1,8,0:0:0:0:
400,144,71577,1,2,0:0:0:0:
457,227,71908,1,8,0:0:0:0:
413,316,72240,5,2,0:0:0:0:
357,233,72571,1,12,0:0:0:0:
257,239,72903,2,0,L|158:247,1,100,2|8,0:0|0:0,0:0:0:0:
121,211,73400,2,0,P|105:164|120:116,1,100,2|2,0:0|0:0,0:0:0:0:
151,77,73897,1,8,0:0:0:0:
250,70,74229,2,0,L|349:62,1,100,2|8,0:0|0:0,0:0:0:0:
386,98,74726,6,0,P|401:144|386:192,1,100,2|2,0:0|0:0,0:0:0:0:
356,232,75223,1,8,0:0:0:0:
281,298,75555,2,0,L|182:290,1,100,2|8,0:0|0:0,0:0:0:0:
93,338,76218,1,2,0:0:0:0:
93,338,76383,2,0,P|77:291|92:243,1,100,2|2,0:0|0:0,0:0:0:0:
177,190,77046,2,0,L|174:141,2,50,2|8|2,0:0|0:0|0:0,0:0:0:0:
227,193,77544,6,0,L|326:201,1,100,4|12,0:0|0:0,0:0:0:0:
348,245,78041,2,0,L|447:237,1,100,2|2,0:0|0:0,0:0:0:0:
497,231,78538,1,12,0:0:0:0:
502,130,78870,2,0,B|465:97|465:97|364:106,1,150,4|0,0:0|0:0,0:0:0:0:
315,112,79533,1,2,0:0:0:0:
315,112,79698,1,2,0:0:0:0:
258,195,80030,6,0,L|159:187,1,100,4|0,0:0|0:0,0:0:0:0:
108,182,80527,1,8,0:0:0:0:
20,231,80859,2,0,P|4:184|19:136,1,100,2|8,0:0|0:0,0:0:0:0:
103,83,81522,2,0,L|202:91,1,100,2|8,0:0|0:0,0:0:0:0:
236,53,82019,2,0,L|335:45,1,100,2|0,0:0|0:0,0:0:0:0:
385,39,82516,1,8,0:0:0:0:
442,121,82847,6,0,P|457:167|442:215,1,100,2|8,0:0|0:0,0:0:0:0:
365,278,83510,2,0,L|266:270,1,100,2|8,0:0|0:0,0:0:0:0:
243,224,84008,2,0,L|144:232,1,100,2|0,0:0|0:0,0:0:0:0:
93,238,84505,1,8,0:0:0:0:
36,155,84836,2,0,P|20:108|35:60,1,100,2|8,0:0|0:0,0:0:0:0:
256,192,85499,12,4,87488,0:0:0:0:
