osu file format v14

[General]
AudioFilename: audio.mp3
AudioLeadIn: 0
PreviewTime: 58483
Countdown: 0
SampleSet: Soft
StackLeniency: 0.4
Mode: 0
LetterboxInBreaks: 0
WidescreenStoryboard: 1

[Editor]
Bookmarks: 9919,20527,31135,41743,48372,58980,80196
DistanceSpacing: 1.3
BeatDivisor: 4
GridSize: 8
TimelineZoom: 1.6

[Metadata]
Title:Mirai no Bokura wa Shitteru yo
TitleUnicode:未来の僕らは知ってるよ
Artist:Aqours
ArtistUnicode:Aqours
Creator:newton-
Version:Hard
Source:ラブライブ!サンシャイン!!
Tags:toshino kyoko season 2 lovelive love live sunshine opening anime tv size school idol project Inami Anju 伊波杏樹 Aida Rikako 逢田梨香子 Suwa Nanaka 諏訪ななか Komiya Arisa 小宮有紗 Saito Shuka 斉藤朱夏 Kobayashi Aika 小林愛香 Takatsuki Kanako 高槻かなこ Suzuki Aina 鈴木愛奈 Furihata Ai 降幡 愛 Takami Chika 高海千歌 Sakurauchi Riko 桜内梨子 Matsuura Kanan 松浦果南 Kurosawa Dia 黒澤ダイヤ Watanabe You 渡辺 曜 Tsushima Yoshiko 津島善子 Kunikida Hanamaru 国木田花丸 Ohara Mari 小原鞠莉 Kurosawa Ruby 黒澤ルビィ
BeatmapID:1437575
BeatmapSetID:679821

[Difficulty]
HPDrainRate:5
CircleSize:4
OverallDifficulty:6
ApproachRate:7.5
SliderMultiplier:1.4
SliderTickRate:1

[Events]
//Background and Video events
0,0,"aqours.jpg",0,0
Video,-700,"s2 op.avi"
//Break Periods
//Storyboard Layer 0 (Background)
//Storyboard Layer 1 (Fail)
//Storyboard Layer 2 (Pass)
//Storyboard Layer 3 (Foreground)
//Storyboard Sound Samples

[TimingPoints]
1964,331.491712707182,4,2,0,50,1,0
9919,-125,4,2,0,60,0,0
11245,-125,4,2,0,63,0,0
12571,-125,4,2,2,65,0,0
13731,-125,4,2,2,68,0,0
15223,-100,4,2,2,70,0,0
58980,-90.9090909090909,4,2,2,75,0,1
68925,-90.9090909090909,4,2,2,75,0,0
69588,-90.9090909090909,4,2,2,75,0,1
80196,-100,4,2,2,70,0,0

[Colours]
Combo1 : 0,128,255
Combo2 : 255,128,0
Combo3 : 163,153,133
Combo4 : 164,0,82

[HitObjects]
218,304,1964,6,0,P|158:270|148:193,1,140,2|0,0:0|0:0,0:0:0:0:
224,223,2461,1,2,0:0:0:0:
291,268,2626,2,0,P|294:331|269:362,1,70,2|0,0:0|0:0,0:0:0:0:
227,383,2958,1,0,0:0:0:0:
224,223,3124,6,0,P|283:188|355:217,1,140,2|0,0:0|0:0,0:0:0:0:
382,278,3621,2,0,P|409:256|423:225,1,70,2|0,0:0|0:0,0:0:0:0:
440,96,3952,2,0,P|412:117|398:148,1,70,2|0,0:0|0:0,0:0:0:0:
502,228,4284,2,0,P|497:193|476:165,1,70,2|0,0:0|0:0,0:0:0:0:
318,158,4615,6,0,P|355:215|423:225,1,140,2|0,0:0|0:0,0:0:0:0:
349,84,5113,2,0,P|281:87|239:141,1,140,2|0,0:0|0:0,0:0:0:0:
325,287,5610,6,0,B|355:253|354:232|345:210|345:210|322:193|318:158|318:158|314:187|277:214,1,210,2|0,0:0|0:0,0:0:0:0:
282,210,6273,1,2,0:0:0:0:
140,221,6604,2,0,P|110:202|92:172,1,70,2|0,0:0|0:0,0:0:0:0:
121,99,6936,2,0,P|151:118|169:148,1,70,2|0,0:0|0:0,0:0:0:0:
111,295,7267,6,0,P|148:352|216:362,1,140,2|0,0:0|0:0,0:0:0:0:
334,267,7765,2,0,L|195:280,1,140,2|0,0:0|0:0,0:0:0:0:
215,362,8262,2,0,L|286:355,1,70,2|0,0:0|0:0,0:0:0:0:
422,365,8593,6,0,B|408:330|431:298|431:298|438:273|441:207|382:177,1,210,2|2,0:0|0:0,0:0:0:0:
287,145,9256,2,0,P|288:213|332:266,1,140,2|2,0:0|0:0,0:0:0:0:
384,178,9754,1,0,0:0:0:0:
364,78,9919,6,0,B|323:39|323:39|211:49,1,168,4|0,0:0|0:0,0:0:0:0:
135,115,10582,2,0,B|176:154|176:154|288:144,1,168,2|0,0:0|0:0,0:0:0:0:
363,77,11245,6,0,L|475:87,1,112,2|0,0:0|0:0,0:0:0:0:
495,187,11743,2,0,L|383:177,1,112,2|0,0:0|0:0,0:0:0:0:
286,144,12240,2,0,L|214:150,1,56,2|0,0:0|0:0,0:0:0:0:
127,110,12571,6,0,P|118:136|121:164,1,56,2|2,0:0|0:0,0:0:0:0:
182,270,12903,2,0,P|190:243|183:210,1,56,2|2,0:0|0:0,0:0:0:0:
120,316,13234,2,0,P|138:336|164:347,1,56,2|2,0:0|0:0,0:0:0:0:
239,325,13566,1,2,0:0:0:0:
65,251,13731,6,0,P|42:277|56:371,1,112,2|0,0:0|0:0,0:0:0:0:
120,316,14229,1,2,0:0:0:0:
188,216,14394,2,0,L|307:226,1,112,2|2,0:0|0:0,0:0:0:0:
377,256,14892,2,0,P|384:230|379:202,1,56,8|2,0:0|0:0,0:0:0:0:
332,77,15223,6,0,P|317:108|319:143,1,70,4|0,0:0|0:0,0:0:0:0:
379,201,15555,1,8,0:0:0:0:
469,128,15720,2,0,L|397:121,1,70,2|0,0:0|0:0,0:0:0:0:
320,143,16052,2,0,L|248:136,1,70,2|8,0:0|0:0,0:0:0:0:
178,93,16383,6,0,P|165:125|168:159,1,70,2|0,0:0|0:0,0:0:0:0:
251,52,16715,2,0,P|229:24|198:10,1,70,2|8,0:0|0:0,0:0:0:0:
250,136,17046,2,0,L|320:143,1,70,2|0,0:0|0:0,0:0:0:0:
379,201,17378,1,2,0:0:0:0:
357,282,17544,1,8,0:0:0:0:
298,222,17709,1,2,0:0:0:0:
399,121,17875,6,0,L|469:128,2,70,4|0|8,0:0|0:0|0:0,0:0:0:0:
379,201,18372,2,0,L|448:207,1,70,4|0,0:0|0:0,0:0:0:0:
426,288,18704,2,0,L|356:281,1,70,4|8,0:0|0:0,0:0:0:0:
298,222,19035,6,0,B|267:259|274:298|274:298|243:252|186:243|138:277,1,210,4|8,0:0|0:0,0:0:0:0:
87,302,19698,2,0,L|83:341,2,35,2|2|2,0:0|0:0|0:0,0:0:0:0:
92,218,20030,1,2,0:0:0:0:
97,134,20196,1,8,0:0:0:0:
97,134,20527,6,0,L|240:146,1,140,4|8,0:0|0:0,0:0:0:0:
293,207,21024,2,0,P|322:148|285:78,1,140,2|2,0:0|0:0,0:0:0:0:
210,64,21522,2,0,P|229:28|261:6,1,70,8|2,0:0|0:0,0:0:0:0:
432,72,21853,6,0,L|288:84,1,140,2|8,0:0|0:0,0:0:0:0:
236,146,22350,2,0,L|97:134,1,140,2|2,0:0|0:0,0:0:0:0:
24,91,22847,2,0,P|12:123|15:157,1,70,8|2,0:0|0:0,0:0:0:0:
98,50,23179,6,0,P|76:23|45:9,1,70,2|0,0:0|0:0,0:0:0:0:
96,133,23510,2,0,L|167:139,1,70,8|0,0:0|0:0,0:0:0:0:
24,91,23842,2,0,P|11:124|15:159,1,70,2|2,0:0|0:0,0:0:0:0:
77,216,24173,2,0,L|148:222,1,70,8|0,0:0|0:0,0:0:0:0:
236,145,24505,6,0,L|97:133,1,140,2|8,0:0|0:0,0:0:0:0:
77,216,25002,2,0,L|216:228,1,140,2|2,0:0|0:0,0:0:0:0:
298,204,25499,2,0,L|369:197,1,70,8|0,0:0|0:0,0:0:0:0:
245,79,25831,6,0,P|232:112|236:147,1,70,4|0,0:0|0:0,0:0:0:0:
386,113,26162,2,0,L|316:119,1,70,8|0,0:0|0:0,0:0:0:0:
298,204,26494,2,0,L|437:192,1,140,2|8,0:0|0:0,0:0:0:0:
490,257,26991,1,2,0:0:0:0:
462,329,27157,6,0,L|323:341,1,140,2|8,0:0|0:0,0:0:0:0:
270,276,27654,2,0,L|131:264,1,140,2|2,0:0|0:0,0:0:0:0:
49,285,28151,2,0,P|45:250|58:218,1,70,8|0,0:0|0:0,0:0:0:0:
142,111,28483,6,0,P|145:145|132:177,1,70,4|2,0:0|0:0,0:0:0:0:
62,133,28814,1,2,0:0:0:0:
83,52,28980,2,0,P|111:31|145:26,1,70,4|2,0:0|0:0,0:0:0:0:
215,72,29312,1,2,0:0:0:0:
132,176,29477,2,0,P|128:141|141:109,1,70,4|0,0:0|0:0,0:0:0:0:
141,110,29975,5,2,0:0:0:0:
215,72,30140,1,2,0:0:0:0:
284,117,30306,2,0,L|353:110,1,70
414,50,30638,2,0,P|442:111|413:172,1,140,2|0,0:0|0:0,0:0:0:0:
284,115,31135,6,0,P|254:176|282:238,1,140,4|8,0:0|0:0,0:0:0:0:
367,242,31632,2,0,P|330:313|259:323,1,140,2|2,0:0|0:0,0:0:0:0:
204,275,32129,2,0,L|134:281,1,70,8|0,0:0|0:0,0:0:0:0:
77,344,32461,6,0,P|48:282|77:221,1,140,2|8,0:0|0:0,0:0:0:0:
156,200,32958,2,0,P|184:138|155:77,1,140,2|2,0:0|0:0,0:0:0:0:
28,134,33455,2,0,L|98:140,1,70,8|2,0:0|0:0,0:0:0:0:
225,71,33787,6,0,L|155:77,1,70,2|0,0:0|0:0,0:0:0:0:
296,113,34118,2,0,P|308:80|304:45,1,70,8|0,0:0|0:0,0:0:0:0:
294,195,34450,2,0,P|328:189|357:169,1,70,2|2,0:0|0:0,0:0:0:0:
223,236,34781,2,0,P|244:263|276:276,1,70,8|0,0:0|0:0,0:0:0:0:
224,153,35113,6,0,P|170:171|143:257,1,140,2|8,0:0|0:0,0:0:0:0:
210,375,35610,2,0,L|222:236,1,140,2|2,0:0|0:0,0:0:0:0:
140,243,36107,2,0,L|134:313,1,70,8|0,0:0|0:0,0:0:0:0:
2,205,36439,6,0,P|36:201|64:180,1,70,4|0,0:0|0:0,0:0:0:0:
67,94,36770,2,0,P|32:99|5:120,1,70,8|0,0:0|0:0,0:0:0:0:
139,138,37102,2,0,P|150:82|89:15,1,140,2|8,0:0|0:0,0:0:0:0:
67,94,37599,1,2,0:0:0:0:
227,47,37765,6,0,L|366:59,1,140,2|8,0:0|0:0,0:0:0:0:
278,150,38262,2,0,L|139:138,1,140,2|2,0:0|0:0,0:0:0:0:
67,94,38759,2,0,P|54:126|58:160,1,70,8|2,0:0|0:0,0:0:0:0:
109,284,39091,6,0,P|121:251|117:217,1,70,4|2,0:0|0:0,0:0:0:0:
38,241,39422,1,2,0:0:0:0:
37,324,39588,2,0,P|58:351|90:364,1,70,4|0,0:0|0:0,0:0:0:0:
178,278,39919,2,0,L|108:284,1,70,4|0,0:0|0:0,0:0:0:0:
212,351,40251,2,0,P|240:331|246:230,1,140,4|0,0:0|0:0,0:0:0:0:
209,161,40748,6,0,P|204:126|217:94,1,70,8|0,0:0|0:0,0:0:0:0:
291,136,41080,2,0,L|361:142,1,70,2|0,0:0|0:0,0:0:0:0:
360,57,41411,2,0,L|290:51,1,70,8|2,0:0|0:0,0:0:0:0:
209,161,41743,6,0,L|70:173,1,140,4|8,0:0|0:0,0:0:0:0:
68,258,42240,2,0,L|138:252,1,70,4|0,0:0|0:0,0:0:0:0:
152,334,42571,2,0,L|222:328,1,70,4|0,0:0|0:0,0:0:0:0:
272,260,42903,6,0,L|411:272,1,140,4|0,0:0|0:0,0:0:0:0:
485,312,43400,2,0,P|497:279|492:245,1,70,2|0,0:0|0:0,0:0:0:0:
429,188,43731,2,0,L|290:176,1,140,2|8,0:0|0:0,0:0:0:0:
208,201,44229,6,8,P|208:150|293:89,1,140,10|8,0:0|0:0,0:0:0:0:
340,50,44726,2,0,P|318:22|286:10,1,70,2|0,0:0|0:0,0:0:0:0:
209,38,45057,2,0,L|139:44,1,70,2|0,0:0|0:0,0:0:0:0:
58,5,45389,2,0,P|48:39|54:73,1,70,8|0,0:0|0:0,0:0:0:0:
121,131,45720,6,0,L|109:270,1,140,2|0,0:0|0:0,0:0:0:0:
27,292,46218,2,0,P|68:345|136:351,1,140,2|0,0:0|0:0,0:0:0:0:
193,286,46715,2,0,L|263:292,1,70,8|0,0:0|0:0,0:0:0:0:
343,266,47046,5,2,0:0:0:0:
343,266,47212,1,2,0:0:0:0:
289,142,47378,2,0,P|276:174|281:208,1,70,2|0,0:0|0:0,0:0:0:0:
432,189,47709,2,0,L|362:183,1,70,2|0,0:0|0:0,0:0:0:0:
211,202,48041,2,0,L|281:208,1,70,2|0,0:0|0:0,0:0:0:0:
430,104,48372,6,0,L|360:98,1,70,4|0,0:0|0:0,0:0:0:0:
287,57,48704,2,0,L|217:51,1,70,8|0,0:0|0:0,0:0:0:0:
133,44,49035,1,2,0:0:0:0:
84,113,49201,2,0,P|71:145|76:179,1,70,2|8,0:0|0:0,0:0:0:0:
149,304,49533,6,0,P|97:265|10:297,1,140,2|0,0:0|0:0,0:0:0:0:
77,349,50030,1,8,0:0:0:0:
221,259,50196,2,0,L|360:271,1,140,2|2,0:0|0:0,0:0:0:0:
433,311,50693,2,0,P|445:278|440:244,1,70,8|2,0:0|0:0,0:0:0:0:
295,165,51024,6,0,P|304:232|360:271,1,140,2|8,0:0|0:0,0:0:0:0:
375,186,51522,2,0,P|437:157|500:184,1,140,2|2,0:0|0:0,0:0:0:0:
440,244,52019,2,0,P|444:278|433:311,1,70,8|2,0:0|0:0,0:0:0:0:
268,346,52350,6,0,L|129:334,1,140,2|8,0:0|0:0,0:0:0:0:
44,327,52847,2,0,P|14:265|40:202,1,140,2|2,0:0|0:0,0:0:0:0:
101,144,53345,2,0,P|113:111|108:77,1,70,8|2,0:0|0:0,0:0:0:0:
40,202,53676,6,0,P|102:227|164:198,1,140,4|2,0:0|0:0,0:0:0:0:
217,133,54173,2,0,L|286:139,1,70,4|2,0:0|0:0,0:0:0:0:
370,147,54505,1,4,0:0:0:0:
321,215,54671,1,2,0:0:0:0:
335,71,54836,6,0,P|403:71|448:122,1,140,4|0,0:0|0:0,0:0:0:0:
430,201,55334,2,0,L|436:270,1,70,2|2,0:0|0:0,0:0:0:0:
477,343,55665,2,0,P|444:355|410:350,1,70,4|0,0:0|0:0,0:0:0:0:
286,294,55997,2,0,P|318:281|352:286,1,70,4|0,0:0|0:0,0:0:0:0:
327,367,56328,5,8,0:0:0:0:
327,367,56494,1,8,0:0:0:0:
327,367,56660,1,8,0:0:0:0:
245,221,56991,6,0,L|106:233,1,140,8|8,0:0|0:0,0:0:0:0:
51,297,57488,2,0,P|21:235|47:172,1,140,8|8,0:0|0:0,0:0:0:0:
128,150,57986,1,8,0:0:0:0:
128,150,58317,5,2,0:0:0:0:
208,128,58483,1,2,0:0:0:0:
287,105,58649,2,0,L|356:111,1,70,2|2,0:0|0:0,0:0:0:0:
439,152,58980,6,0,P|448:101|422:49,1,77.0000023498536,2|0,0:0|0:0,0:0:0:0:
362,202,59312,2,0,P|352:252|378:304,1,77.0000023498536,4|2,0:0|0:0,0:0:0:0:
506,283,59643,2,0,P|467:249|409:245,1,77.0000023498536,2|2,0:0|0:0,0:0:0:0:
358,276,59975,1,8,0:0:0:0:
271,309,60140,6,0,L|194:302,1,77.0000023498536,2|2,0:0|0:0,0:0:0:0:
101,297,60472,1,2,0:0:0:0:
58,212,60638,2,0,P|51:174|61:137,1,77.0000023498536,8|2,0:0|0:0,0:0:0:0:
104,55,60969,2,0,L|180:61,1,77.0000023498536,2|2,0:0|0:0,0:0:0:0:
264,102,61301,2,0,P|274:65|267:27,1,77.0000023498536,8|2,0:0|0:0,0:0:0:0:
187,154,61632,6,0,P|213:181|249:194,1,77.0000023498536,2|0,0:0|0:0,0:0:0:0:
413,166,61963,2,0,L|336:159,1,77.0000023498536,12|2,0:0|0:0,0:0:0:0:
322,250,62295,2,0,L|398:256,1,77.0000023498536,2|2,0:0|0:0,0:0:0:0:
468,315,62626,1,8,0:0:0:0:
383,346,62792,6,0,L|223:332,1,154.000004699707,2|2,0:0|0:0,0:0:0:0:
143,365,63289,2,0,P|136:327|146:290,1,77.0000023498536,8|2,0:0|0:0,0:0:0:0:
224,239,63621,2,0,P|234:202|227:164,1,77.0000023498536,2|2,0:0|0:0,0:0:0:0:
141,197,63952,1,8,0:0:0:0:
229,332,64118,6,0,L|382:345,1,154.000004699707,2|2,0:0|0:0,0:0:0:0:
398,256,64615,2,0,L|321:249,1,77.0000023498536,8|2,0:0|0:0,0:0:0:0:
336,159,64947,2,0,L|412:165,1,77.0000023498536,2|2,0:0|0:0,0:0:0:0:
483,222,65278,2,0,P|499:187|499:149,1,77.0000023498536,8|2,0:0|0:0,0:0:0:0:
398,256,65610,6,0,L|321:249,2,77.0000023498536,2|2|8,0:0|0:0|0:0,0:0:0:0:
383,346,66107,2,0,L|229:332,1,154.000004699707,2|2,0:0|0:0,0:0:0:0:
143,365,66604,2,0,P|136:327|146:290,1,77.0000023498536,8|2,0:0|0:0,0:0:0:0:
227,164,66936,6,0,P|233:201|223:238,1,77.0000023498536,4|2,0:0|0:0,0:0:0:0:
146,290,67267,1,8,0:0:0:0:
155,105,67433,2,0,P|184:80|221:70,1,77.0000023498536,4|2,0:0|0:0,0:0:0:0:
141,197,67765,2,0,P|105:184|78:156,1,77.0000023498536,4|8,0:0|0:0,0:0:0:0:
228,164,68096,6,0,L|381:150,1,154.000004699707,4|2,0:0|0:0,0:0:0:0:
463,192,68593,2,0,P|473:155|466:117,1,77.0000023498536,12|2,0:0|0:0,0:0:0:0:
386,241,68925,1,2,0:0:0:0:
467,284,69091,1,2,0:0:0:0:
381,150,69256,2,0,L|304:156,1,77.0000023498536,10|2,0:0|0:0,0:0:0:0:
463,192,69588,6,0,P|473:155|466:117,1,77.0000023498536,2|0,0:0|0:0,0:0:0:0:
386,241,69919,2,0,P|375:277|382:315,1,77.0000023498536,12|2,0:0|0:0,0:0:0:0:
381,150,70251,2,0,L|304:156,1,77.0000023498536,2|2,0:0|0:0,0:0:0:0:
212,164,70582,1,8,0:0:0:0:
127,201,70748,6,0,P|120:163|130:126,1,77.0000023498536,2|2,0:0|0:0,0:0:0:0:
203,73,71080,1,2,0:0:0:0:
201,256,71245,2,0,P|171:280|134:290,1,77.0000023498536,8|2,0:0|0:0,0:0:0:0:
60,234,71577,2,0,P|90:210|127:200,1,77.0000023498536,2|2,0:0|0:0,0:0:0:0:
200,255,71908,2,0,L|277:262,1,77.0000023498536,8|2,0:0|0:0,0:0:0:0:
360,303,72240,6,0,P|370:266|363:228,1,77.0000023498536,2|0,0:0|0:0,0:0:0:0:
295,95,72571,2,0,P|284:131|291:169,1,77.0000023498536,12|2,0:0|0:0,0:0:0:0:
455,129,72903,2,0,L|378:135,1,77.0000023498536,2|2,0:0|0:0,0:0:0:0:
295,95,73234,1,8,0:0:0:0:
211,54,73400,6,0,L|57:67,1,154.000004699707,2|2,0:0|0:0,0:0:0:0:
17,150,73897,2,0,P|26:187|51:216,1,77.0000023498536,8|2,0:0|0:0,0:0:0:0:
184,136,74229,2,0,L|107:142,1,77.0000023498536,2|2,0:0|0:0,0:0:0:0:
51,216,74560,1,8,0:0:0:0:
86,302,74726,6,0,L|239:288,1,154.000004699707,2|2,0:0|0:0,0:0:0:0:
321,330,75223,2,0,P|331:293|324:255,1,77.0000023498536,8|2,0:0|0:0,0:0:0:0:
256,123,75555,2,0,P|245:159|252:197,1,77.0000023498536,2|2,0:0|0:0,0:0:0:0:
324,255,75886,2,0,L|400:248,1,77.0000023498536,8|2,0:0|0:0,0:0:0:0:
339,164,76218,5,2,0:0:0:0:
239,288,76383,2,0,L|162:294,1,77.0000023498536,2|8,0:0|0:0,0:0:0:0:
99,210,76715,2,0,L|252:196,1,154.000004699707,2|2,0:0|0:0,0:0:0:0:
324,255,77212,2,0,L|400:248,1,77.0000023498536,8|2,0:0|0:0,0:0:0:0:
483,290,77544,6,0,P|493:253|486:215,1,77.0000023498536,4|2,0:0|0:0,0:0:0:0:
415,157,77875,1,8,0:0:0:0:
405,340,78041,2,0,P|431:367|467:380,2,77.0000023498536,4|2|2,0:0|0:0|0:0,0:0:0:0:
486,215,78538,2,0,P|493:253|483:290,1,77.0000023498536,12|2,0:0|0:0,0:0:0:0:
415,157,78870,5,4,0:0:0:0:
415,157,79533,1,2,0:0:0:0:
400,248,79698,1,2,0:0:0:0:
400,248,80030,6,0,L|232:262,1,154.000004699707,4|0,0:0|0:0,0:0:0:0:
165,284,80527,2,0,P|161:249|173:216,1,70,8|0,0:0|0:0,0:0:0:0:
247,174,80859,2,0,P|259:141|255:106,1,70,2|0,0:0|0:0,0:0:0:0:
173,131,81190,2,0,L|103:125,1,70,8|0,0:0|0:0,0:0:0:0:
53,33,81522,6,0,L|192:45,1,140,2|8,0:0|0:0,0:0:0:0:
256,107,82019,2,0,L|395:95,1,140,2|0,0:0|0:0,0:0:0:0:
476,72,82516,2,0,P|479:106|467:139,1,70,8|0,0:0|0:0,0:0:0:0:
383,245,82847,6,0,P|379:210|391:177,1,70,2|0,0:0|0:0,0:0:0:0:
464,225,83179,2,0,P|467:259|455:292,1,70,8|2,0:0|0:0,0:0:0:0:
377,331,83510,2,0,L|307:325,1,70,2|0,0:0|0:0,0:0:0:0:
222,318,83842,1,8,0:0:0:0:
185,241,84008,6,0,P|206:176|269:150,1,140,2|0,0:0|0:0,0:0:0:0:
340,193,84505,2,0,P|352:160|348:125,1,70,8|0,0:0|0:0,0:0:0:0:
286,68,84836,2,0,L|216:62,1,70,2|0,0:0|0:0,0:0:0:0:
136,87,85168,2,0,P|132:52|144:19,1,70,8|0,0:0|0:0,0:0:0:0:
269,150,85499,6,0,L|199:144,2,70,4|2|2,0:0|0:0|0:0,0:0:0:0:
340,193,85997,2,0,L|410:187,2,70,4|2|2,0:0|0:0|0:0,0:0:0:0:
267,232,86494,1,4,0:0:0:0:
256,192,86577,12,4,87488,0:0:0:0:
