osu file format v14

[General]
AudioFilename: audio.mp3
AudioLeadIn: 0
PreviewTime: 58483
Countdown: 0
SampleSet: Soft
StackLeniency: 0.7
Mode: 0
LetterboxInBreaks: 0
WidescreenStoryboard: 0

[Editor]
Bookmarks: 9919,20527,41743,50361,58980,80196
DistanceSpacing: 1
BeatDivisor: 2
GridSize: 8
TimelineZoom: 1

[Metadata]
Title:Mirai no Bokura wa Shitteru yo
TitleUnicode:未来の僕らは知ってるよ
Artist:Aqours
ArtistUnicode:Aqours
Creator:newton-
Version:Easy
Source:ラブライブ!サンシャイン!!
Tags:toshino kyoko season 2 lovelive love live sunshine opening anime tv size school idol project Inami Anju 伊波杏樹 Aida Rikako 逢田梨香子 Suwa Nanaka 諏訪ななか Komiya Arisa 小宮有紗 Saito Shuka 斉藤朱夏 Kobayashi Aika 小林愛香 Takatsuki Kanako 高槻かなこ Suzuki Aina 鈴木愛奈 Furihata Ai 降幡 愛 Takami Chika 高海千歌 Sakurauchi Riko 桜内梨子 Matsuura Kanan 松浦果南 Kurosawa Dia 黒澤ダイヤ Watanabe You 渡辺 曜 Tsushima Yoshiko 津島善子 Kunikida Hanamaru 国木田花丸 Ohara Mari 小原鞠莉 Kurosawa Ruby 黒澤ルビィ
BeatmapID:1437574
BeatmapSetID:679821

[Difficulty]
HPDrainRate:2
CircleSize:3
OverallDifficulty:3
ApproachRate:3
SliderMultiplier:0.9
SliderTickRate:1

[Events]
//Background and Video events
0,0,"aqours.jpg",0,0
Video,-700,"s2 op.avi"
//Break Periods
//Storyboard Layer 0 (Background)
//Storyboard Layer 1 (Fail)
//Storyboard Layer 2 (Pass)
//Storyboard Layer 3 (Foreground)
//Storyboard Sound Samples

[TimingPoints]
1964,331.491712707182,4,2,0,50,1,0
9919,-100,4,2,0,60,0,0
11245,-100,4,2,0,63,0,0
12571,-100,4,2,2,65,0,0
14063,-100,4,2,2,68,0,0
15223,-100,4,2,2,70,0,0
58980,-100,4,2,2,75,0,1
68925,-100,4,2,2,75,0,0
69588,-100,4,2,2,75,0,1
80196,-100,4,2,2,70,0,0

[Colours]
Combo1 : 0,128,255
Combo2 : 255,128,0
Combo3 : 163,153,133
Combo4 : 164,0,82

[HitObjects]
185,138,1964,6,0,P|256:102|343:170,1,180,2|0,0:0|0:0,0:0:0:0:
256,193,2958,1,2,0:0:0:0:
171,227,3289,2,0,P|108:185|97:156,2,90,2|0|2,0:0|0:0|0:0,0:0:0:0:
256,193,4284,1,2,0:0:0:0:
335,149,4615,6,0,B|420:142|420:142|459:170,2,135,2|2|2,0:0|0:0|0:0,0:0:0:0:
335,149,6604,2,0,P|301:178|259:191,1,90,2|2,0:0|0:0,0:0:0:0:
171,227,7267,6,0,P|104:182|119:73,1,180,2|0,0:0|0:0,0:0:0:0:
259,191,8593,2,0,P|257:269|159:317,1,180,2|2,2:0|0:0,0:0:0:0:
171,227,9588,1,2,0:0:0:0:
83,250,9919,6,0,P|103:165|184:136,1,180,4|2,0:0|0:0,0:0:0:0:
338,155,11245,2,0,L|473:166,2,135,2|2|2,0:0|0:0|0:0,0:0:0:0:
264,102,12571,6,0,L|174:93,1,90,2|2,0:0|0:0,0:0:0:0:
107,33,13234,2,0,B|79:72|79:72|86:157,1,135,2|2,0:0|0:0,0:0:0:0:
124,240,14063,2,0,L|119:289,2,45,0|2|2,0:0|0:0|0:0,0:0:0:0:
261,233,14892,1,8,0:0:0:0:
335,285,15223,6,0,P|349:242|308:158,1,135,4|2,0:0|0:0,0:0:0:0:
227,151,16052,1,2,0:0:0:0:
175,223,16383,2,0,P|216:239|260:233,1,90,2|2,0:0|0:0,0:0:0:0:
315,163,17046,2,0,B|354:135|354:135|439:142,1,135,2|8,0:0|0:0,0:0:0:0:
418,55,17875,6,0,B|332:47|332:47|293:75,1,135,4|4,0:0|0:0,0:0:0:0:
228,140,18704,1,4,0:0:0:0:
205,51,19035,2,0,B|152:69|141:117|141:117|91:113|91:113|24:147|24:147|41:200|0:240,1,315,4|2,0:0|0:0,0:0:0:0:
67,299,20527,6,0,B|106:271|106:271|191:278,2,135,4|2|8,0:0|0:0|0:0,0:0:0:0:
130,362,21853,2,0,L|265:373,1,135,2|2,0:0|0:0,0:0:0:0:
399,383,22847,1,8,0:0:0:0:
450,309,23179,6,0,P|456:264|440:223,1,90,2|8,0:0|0:0,0:0:0:0:
357,184,23842,2,0,P|340:142|347:98,1,90,2|8,0:0|0:0,0:0:0:0:
429,131,24505,2,0,P|431:65|385:18,2,135,2|2|8,0:0|0:0|0:0,0:0:0:0:
357,184,25831,6,0,P|321:156|277:151,1,90,4|8,0:0|0:0,0:0:0:0:
202,201,26494,2,0,P|157:207|116:191,1,90,2|8,0:0|0:0,0:0:0:0:
54,125,27157,2,0,B|26:164|26:164|33:249,2,135,2|2|8,0:0|0:0|0:0,0:0:0:0:
117,192,28483,6,0,L|128:327,2,135,4|4|4,0:0|0:0|0:0,0:0:0:0:
233,124,29975,2,0,L|240:34,2,90,2|2|2,0:0|0:0|0:0,0:0:0:0:
362,161,31135,6,0,B|334:122|334:122|341:37,2,135,4|2|8,0:0|0:0|0:0,0:0:0:0:
364,251,32461,2,0,B|356:338|356:338|322:372,1,135,2|2,0:0|0:0,0:0:0:0:
190,341,33455,1,8,0:0:0:0:
268,296,33787,6,0,L|276:200,1,90,2|8,0:0|0:0,0:0:0:0:
311,123,34450,2,0,P|266:116|225:132,1,90,2|8,0:0|0:0,0:0:0:0:
186,213,35113,2,0,P|140:165|142:100,2,135,2|2|8,0:0|0:0|0:0,0:0:0:0:
275,206,36439,6,0,L|364:198,1,90,4|8,0:0|0:0,0:0:0:0:
440,150,37102,2,0,P|455:191|448:235,1,90,2|8,0:0|0:0,0:0:0:0:
373,288,37765,2,0,L|238:299,2,135,2|2|8,0:0|0:0|0:0,0:0:0:0:
364,198,39091,6,0,L|229:209,1,135,4|4,0:0|0:0,0:0:0:0:
156,261,39919,1,4,0:0:0:0:
73,225,40251,2,0,P|57:183|117:88,1,135,4|8,0:0|0:0,0:0:0:0:
178,89,41080,2,0,L|267:96,1,90,2|8,0:0|0:0,0:0:0:0:
341,44,41743,6,0,P|357:86|297:181,1,135,4|4,0:0|0:0,0:0:0:0:
235,179,42571,1,4,0:0:0:0:
291,249,42903,2,0,B|331:271|331:271|421:264,1,135,4|2,0:0|0:0,0:0:0:0:
389,349,43731,6,0,B|232:361,2,135,2|2|2,0:0|0:0|0:0,0:0:0:0:
297,189,45389,1,8,0:0:0:0:
238,257,45720,2,0,B|199:285|199:285|112:277,2,135,2|2|8,0:0|0:0|0:0,0:0:0:0:
297,189,47046,6,0,L|386:182,2,90,2|2|2,0:0|0:0|0:0,0:0:0:0:
266,103,48041,1,2,0:0:0:0:
207,170,48372,2,0,P|180:128|191:57,1,90,4|8,0:0|0:0,0:0:0:0:
235,16,49035,2,0,L|370:5,1,135,2|2,0:0|0:0,0:0:0:0:
431,178,50196,6,0,L|296:189,1,135,2|2,0:0|0:0,0:0:0:0:
266,103,51024,2,0,L|401:92,2,135,2|2|8,0:0|0:0|0:0,0:0:0:0:
209,176,52350,2,0,L|74:187,2,135,2|2|8,0:0|0:0|0:0,0:0:0:0:
289,224,53676,6,0,P|300:159|266:103,1,135,4|4,0:0|0:0,0:0:0:0:
174,90,54505,1,2,0:0:0:0:
230,15,54836,2,0,L|365:26,1,135,4|4,0:0|0:0,0:0:0:0:
454,35,55665,2,0,P|469:76|462:120,1,90,4|4,0:0|0:0,0:0:0:0:
413,197,56328,6,0,L|417:252,2,45,8|8|8,0:0|0:0|0:0,0:0:0:0:
322,192,56991,2,0,B|236:184|236:184|197:212,2,135,8|8|8,0:0|0:0|0:0,0:0:0:0:
351,277,58317,2,0,L|262:270,1,90,2|2,0:0|0:0,0:0:0:0:
177,295,58980,6,0,L|88:302,1,90,2|4,0:0|0:0,0:0:0:0:
6,265,59643,2,0,P|1:330|41:383,2,135,2|2|8,0:0|0:0|0:0,0:0:0:0:
52,188,60969,2,0,L|141:195,1,90,2|8,0:0|0:0,0:0:0:0:
234,195,61632,6,0,L|323:188,1,90,2|12,0:0|0:0,0:0:0:0:
395,242,62295,2,0,B|423:281|423:281|415:367,2,135,2|2|8,0:0|0:0|0:0,0:0:0:0:
323,187,63621,2,0,P|308:146|315:102,1,90,2|8,0:0|0:0,0:0:0:0:
391,52,64284,6,0,P|406:93|399:137,1,90,2|8,0:0|0:0,0:0:0:0:
323,188,64947,2,0,L|234:195,1,90,2|8,0:0|0:0,0:0:0:0:
152,159,65610,2,0,L|17:148,2,135,2|2|8,0:0|0:0|0:0,0:0:0:0:
162,247,66936,6,0,B|71:239|71:239|29:270,1,135,4|4,0:0|0:0,0:0:0:0:
98,330,67765,1,4,0:0:0:0:
187,337,68096,2,0,L|322:348,1,135,4|12,0:0|0:0,0:0:0:0:
394,294,68925,2,0,P|401:250|386:208,1,90,2|10,0:0|0:0,0:0:0:0:
302,173,69588,6,0,P|294:216|309:258,1,90,2|12,0:0|0:0,0:0:0:0:
386,208,70251,2,0,B|421:182|421:182|512:190,2,135,2|2|8,0:0|0:0|0:0,0:0:0:0:
309,258,71577,2,0,L|220:265,1,90,2|8,0:0|0:0,0:0:0:0:
143,314,72240,6,0,P|128:272|135:228,1,90,2|12,0:0|0:0,0:0:0:0:
208,175,72903,2,0,P|145:137|70:166,2,135,2|2|8,0:0|0:0|0:0,0:0:0:0:
219,265,74229,2,0,P|260:249|289:215,1,90,2|8,0:0|0:0,0:0:0:0:
283,124,74892,6,0,P|326:132|361:160,1,90,2|8,0:0|0:0,0:0:0:0:
398,242,75555,2,0,L|405:331,1,90,2|8,0:0|0:0,0:0:0:0:
316,339,76218,2,0,B|224:347|224:347|189:321,2,135,2|2|8,0:0|0:0|0:0,0:0:0:0:
405,331,77544,6,0,L|394:196,2,135,4|2|8,0:0|0:0|0:0,0:0:0:0:
316,339,78870,1,4,0:0:0:0:
142,292,79533,2,0,L|78:297,1,45,2|2,0:0|0:0,0:0:0:0:
224,328,80196,6,0,P|231:284|216:242,1,90,4|8,0:0|0:0,0:0:0:0:
136,202,80859,2,0,P|121:160|128:116,1,90,2|8,0:0|0:0,0:0:0:0:
210,152,81522,2,0,L|345:141,2,135,2|2|8,0:0|0:0|0:0,0:0:0:0:
216,242,82847,6,0,L|305:235,1,90,2|8,0:0|0:0,0:0:0:0:
349,313,83510,2,0,L|484:324,2,135,2|2|8,0:0|0:0|0:0,0:0:0:0:
305,235,84836,2,0,L|216:242,1,90,2|8,0:0|0:0,0:0:0:0:
166,166,85499,1,0,0:0:0:0:
256,192,85665,12,4,87488,0:0:0:0:
