osu file format v14

[General]
AudioFilename: idol.mp3
AudioLeadIn: 0
PreviewTime: 59234
Countdown: 0
SampleSet: Soft
StackLeniency: 0.5
Mode: 0
LetterboxInBreaks: 0
WidescreenStoryboard: 1

[Editor]
DistanceSpacing: 1
BeatDivisor: 4
GridSize: 32
TimelineZoom: 1.8

[Metadata]
Title:Mirai no Bokura wa Shitteru yo (TV Size)
TitleUnicode:未来の僕らは知ってるよ (TV Size)
Artist:Aqours
ArtistUnicode:Aqours
Creator:Syph
Version:Jennifer's Insane
Source:ラブライブ!サンシャイン!!
Tags:jennifer jennglebells japanese pop jpop j-pop season 2 lovelive love live sunshine opening anime school idol project inami anju 伊波杏樹 aida rikako 逢田梨香子 suwa nanaka 諏訪ななか komiya arisa 小宮有紗 saito shuka 斉藤朱夏 kobayashi aika 小林愛香 takatsuki kanako 高槻かなこ suzuki aina 鈴木愛奈 furihata ai 降幡 愛 takami chika 高海千歌 sakurauchi riko 桜内梨子 matsuura kanan 松浦果南 kurosawa dia 黒澤ダイヤ watanabe you 渡辺 曜 tsushima yoshiko 津島善子 kunikida hanamaru 国木田花丸 ohara mari 小原鞠莉 kurosawa ruby 黒澤ルビィ
BeatmapID:4512420
BeatmapSetID:2143453

[Difficulty]
HPDrainRate:5
CircleSize:4
OverallDifficulty:8
ApproachRate:8.9
SliderMultiplier:1.6
SliderTickRate:1

[Events]
//Background and Video events
0,0,"riko.jpg",0,0
Video,0,"video.mp4"
//Break Periods
//Storyboard Layer 0 (Background)
//Storyboard Layer 1 (Fail)
//Storyboard Layer 2 (Pass)
//Storyboard Layer 3 (Foreground)
//Storyboard Layer 4 (Overlay)
//Storyboard Sound Samples

[TimingPoints]
2898,331.491712707182,4,2,0,60,1,0
4148,-166.666666666667,4,2,0,60,0,0
8450,-166.666666666667,4,2,0,5,0,0
8533,-166.666666666667,4,2,0,60,0,0
10523,-100,4,2,0,60,0,0
10853,-125,4,2,0,65,0,0
13505,-100,4,2,0,65,0,0
14665,-100,4,2,0,70,0,0
14914,-100,4,2,0,5,0,0
14997,-100,4,2,0,70,0,0
16157,-83.3333333333333,4,2,0,70,0,0
20964,-83.3333333333333,4,2,0,65,0,0
21378,-83.3333333333333,4,2,0,5,0,0
21461,-83.3333333333333,4,2,0,65,0,0
25356,-83.3333333333333,4,2,0,5,0,0
25439,-83.3333333333333,4,2,0,65,0,0
26682,-83.3333333333333,4,2,0,5,0,0
26765,-83.3333333333333,4,2,0,65,0,0
28339,-83.3333333333333,4,2,0,5,0,0
28422,-83.3333333333333,4,2,0,65,0,0
30826,-83.3333333333333,4,2,0,5,0,0
30909,-83.3333333333333,4,2,0,65,0,0
32069,-83.3333333333333,4,2,0,70,0,0
33312,-83.3333333333333,4,2,0,5,0,0
33395,-83.3333333333333,4,2,0,70,0,0
34141,-83.3333333333333,4,2,0,5,0,0
34224,-83.3333333333333,4,2,0,70,0,0
35964,-83.3333333333333,4,2,0,5,0,0
36047,-83.3333333333333,4,2,0,70,0,0
36295,-83.3333333333333,4,2,0,5,0,0
36378,-83.3333333333333,4,2,0,70,0,0
38616,-83.3333333333333,4,2,0,5,0,0
38699,-83.3333333333333,4,2,0,70,0,0
39444,-83.3333333333333,4,2,0,5,0,0
39527,-83.3333333333333,4,2,0,70,0,0
44002,-125,4,2,0,65,0,0
45246,-125,4,2,0,5,0,0
45328,-125,4,2,0,65,0,0
46903,-125,4,2,0,5,0,0
46985,-125,4,2,0,65,0,0
47897,-125,4,2,0,5,0,0
47979,-125,4,2,0,65,0,0
48312,-100,4,2,0,65,0,0
49223,-100,4,2,0,5,0,0
49305,-100,4,2,0,65,0,0
51958,-100,4,2,0,70,0,0
55770,-100,4,2,0,75,0,0
57179,-100,4,2,0,5,0,0
57262,-100,4,2,0,75,0,0
58174,-100,4,2,0,5,0,0
58257,-100,4,2,0,75,0,0
59914,-83.3333333333333,4,2,0,80,0,1
60494,-83.3333333333333,4,2,0,5,0,1
60577,-83.3333333333333,4,2,0,80,0,1
61323,-83.3333333333333,4,2,0,5,0,1
61406,-83.3333333333333,4,2,0,80,0,1
63146,-83.3333333333333,4,2,0,5,0,1
63229,-83.3333333333333,4,2,0,80,0,1
65301,-83.3333333333333,4,2,0,5,0,1
65384,-83.3333333333333,4,2,0,80,0,1
66461,-83.3333333333333,4,2,0,5,0,1
66544,-83.3333333333333,4,2,0,80,0,1
67290,-83.3333333333333,4,2,0,5,0,1
67373,-83.3333333333333,4,2,0,80,0,1
71102,-83.3333333333333,4,2,0,5,0,1
71185,-83.3333333333333,4,2,0,80,0,1
71931,-83.3333333333333,4,2,0,5,0,1
72014,-83.3333333333333,4,2,0,80,0,1
73754,-83.3333333333333,4,2,0,5,0,1
73837,-83.3333333333333,4,2,0,80,0,1
74583,-83.3333333333333,4,2,0,5,0,1
74665,-83.3333333333333,4,2,0,80,0,1
78395,-83.3333333333333,4,2,0,5,0,1
78478,-83.3333333333333,4,2,0,80,0,1
81130,-100,4,2,0,70,0,0
83699,-100,4,2,0,5,0,0
83781,-100,4,2,0,70,0,0
86682,-100,4,2,0,5,0,0
86765,-100,4,2,0,70,0,0
87179,-100,4,2,0,5,0,0
87262,-100,4,2,0,70,0,0
87428,-153.846153846154,4,2,0,70,0,0

[Colours]
Combo1 : 252,207,252
Combo2 : 228,99,183
Combo3 : 183,134,249
Combo4 : 253,157,236

[HitObjects]
147,103,2898,5,2,0:0:0:0:
147,103,3892,1,0,0:0:0:0:
147,103,4058,1,0,0:0:0:0:
200,185,4223,6,0,P|254:154|333:163,1,143.999995605469,2|2,0:0|0:0,0:0:0:0:
392,277,4886,2,0,P|400:226|403:216,1,47.9999985351563,0|0,3:0|0:0,0:0:0:0:
328,104,5218,2,0,P|332:127|335:151,1,47.9999985351563
259,291,5549,5,2,0:0:0:0:
257,285,6047,1,2,0:0:0:0:
253,277,6544,1,2,0:0:0:0:
144,276,7373,1,0,0:0:0:0:
144,276,7456,1,0,0:0:0:0:
144,276,7538,2,0,P|152:327|154:339,1,47.9999985351563,0|0,3:0|0:0,0:0:0:0:
205,199,7870,1,2,0:0:0:0:
311,369,8201,6,0,P|321:308|297:259,1,95.9999970703126,2|0,0:0|3:0,0:0:0:0:
216,206,8699,1,2,0:0:0:0:
459,19,9527,6,0,P|452:66|445:114,1,95.9999970703126,2|0,0:0|0:0,0:0:0:0:
341,56,10025,1,4,3:0:0:0:
341,56,10107,1,8,3:0:0:0:
341,56,10190,1,8,1:3:0:0:
189,98,10523,6,0,P|230:114|266:125,1,80,0|2,0:0|0:0,0:0:0:0:
392,177,10853,6,0,B|353:191|324:196|324:196|308:229|308:229|274:234|228:255,1,192,6|0,1:2|0:0,0:0:0:0:
143,329,11516,1,2,0:0:0:0:
143,329,12179,6,0,P|108:307|10:304,1,128,2|0,1:2|3:0,0:0:0:0:
228,256,12677,2,0,P|236:325|246:405,1,128,2|0,1:2|3:0,0:0:0:0:
400,356,13174,1,2,3:2:0:0:
400,356,13505,6,0,P|355:364|312:374,1,80,2|0,1:2|0:0,0:0:0:0:
434,268,13837,2,0,P|473:276|512:283,1,80,0|0,3:0|3:2,0:0:0:0:
370,148,14168,1,2,1:2:0:0:
370,148,14334,1,4,3:0:0:0:
421,265,14500,1,2,1:2:0:0:
410,64,14665,6,0,P|348:112|269:109,1,160,6|8,1:2|3:0,0:0:0:0:
221,210,15163,1,4,3:0:0:0:
267,34,15328,1,2,1:2:0:0:
267,34,15411,1,0,0:0:0:0:
267,34,15494,1,0,1:0:0:0:
85,128,15660,1,2,1:2:0:0:
224,268,15826,2,0,L|227:224,3,40,0|0|0|0,1:2|0:0|3:0|0:0,0:0:0:0:
223,217,16157,6,0,P|163:230|120:236,1,95.9999970703126,6|0,1:2|0:0,0:0:0:0:
69,288,16489,1,0,1:0:0:0:
178,91,16654,2,0,P|231:136|361:124,1,191.999994140625,2|4,3:2|3:0,0:0:0:0:
423,85,17152,1,0,1:0:0:0:
463,210,17317,6,0,P|449:279|443:325,1,95.9999970703126,2|0,1:2|0:0,0:0:0:0:
430,95,17649,2,0,P|422:47|412:1,1,95.9999970703126,0|0,3:0|1:0,0:0:0:0:
228,133,17980,2,0,P|226:201|280:240,1,95.9999970703126,2|0,3:2|0:0,0:0:0:0:
337,290,18312,1,0,1:0:0:0:
337,290,18395,1,0,1:0:0:0:
337,290,18478,1,0,1:0:0:0:
170,378,18643,1,8,3:0:0:0:
254,316,18809,6,0,L|240:220,1,95.9999970703126,6|0,1:2|1:0,0:0:0:0:
241,221,19058,1,0,1:0:0:0:
241,221,19141,1,0,1:0:0:0:
312,107,19306,2,0,P|380:98|442:185,1,143.999995605469,6|0,3:2|0:0,0:0:0:0:
440,155,19638,5,2,1:2:0:0:
337,290,19804,1,0,1:0:0:0:
229,88,19969,1,6,1:2:0:0:
231,257,20964,1,0,1:0:0:0:
231,257,21047,1,0,0:0:0:0:
231,257,21130,2,0,P|239:310|250:361,1,95.9999970703126,4|0,1:3|0:0,0:0:0:0:
76,383,21461,6,0,P|26:303|59:217,1,191.999994140625,2|0,1:2|1:0,0:0:0:0:
142,267,21958,1,2,0:0:0:0:
105,136,22124,2,0,P|48:127|3:116,1,95.9999970703126,0|0,0:0|3:0,0:0:0:0:
229,228,22456,1,0,1:0:0:0:
143,276,22621,1,0,0:0:0:0:
321,291,22787,6,0,P|332:202|341:167,1,95.9999970703126,2|0,1:2|0:0,0:0:0:0:
415,167,23118,1,0,1:0:0:0:
412,24,23284,2,0,P|334:75|225:46,1,191.999994140625,2|4,3:2|3:0,0:0:0:0:
197,161,23781,1,0,1:0:0:0:
153,85,23947,1,0,3:0:0:0:
123,228,24113,6,0,P|66:215|11:211,1,95.9999970703126,2|0,1:2|0:0,0:0:0:0:
235,330,24444,2,0,P|240:282|251:235,1,95.9999970703126,0|0,1:0|3:0,0:0:0:0:
201,165,24776,1,4,3:0:0:0:
201,165,24942,1,8,3:0:0:0:
338,203,25107,2,0,P|404:191|439:188,1,95.9999970703126,2|0,1:2|0:0,0:0:0:0:
235,330,25439,6,0,P|184:286|99:289,1,143.999995605469,2|0,1:2|0:0,0:0:0:0:
94,290,25770,1,0,1:0:0:0:
219,115,25936,2,0,P|201:192|191:247,1,95.9999970703126,2|0,3:2|0:0,0:0:0:0:
272,246,26268,1,0,3:0:0:0:
94,290,26433,2,0,P|112:213|122:158,1,95.9999970703126,0|0,1:0|0:0,0:0:0:0:
30,141,26765,5,6,1:2:0:0:
30,141,27096,2,0,P|113:154|206:74,1,191.999994140625,2|2,1:2|3:2,0:0:0:0:
199,10,27594,1,0,3:0:0:0:
280,133,27759,2,0,P|292:77|270:17,1,95.9999970703126,0|0,1:0|0:0,0:0:0:0:
223,217,28091,6,0,P|270:212|315:228,1,95.9999970703126,2|0,1:2|0:0,0:0:0:0:
372,314,28422,1,0,1:0:0:0:
511,206,28588,2,0,P|426:208|352:132,1,191.999994140625,2|0,3:2|3:0,0:0:0:0:
266,90,29085,2,0,P|273:146|276:188,1,95.9999970703126,2|2,1:2|2:0,0:0:0:0:
372,314,29417,6,0,B|266:290|292:356|183:325,1,191.999994140625,2|0,1:2|1:0,0:0:0:0:
61,367,29914,2,0,P|55:303|81:266,1,95.9999970703126,2|0,3:2|0:0,0:0:0:0:
197,227,30246,1,0,1:0:0:0:
197,227,30328,1,0,1:0:0:0:
197,227,30411,2,0,P|202:290|176:327,1,95.9999970703126,2|8,1:2|3:0,0:0:0:0:
61,367,30909,5,2,1:2:0:0:
277,269,31074,1,2,1:2:0:0:
113,152,31240,1,2,1:2:0:0:
113,152,31406,1,12,3:0:0:0:
283,273,31572,2,0,P|328:226|313:86,1,191.999994140625,2|0,1:2|3:0,0:0:0:0:
186,3,32069,6,0,L|204:108,1,95.9999970703126,6|0,1:2|0:0,0:0:0:0:
260,154,32400,1,0,1:0:0:0:
167,235,32566,2,0,P|114:218|70:208,1,95.9999970703126,2|0,3:2|0:0,0:0:0:0:
267,148,32897,1,8,3:0:0:0:
258,300,33063,2,0,P|211:312|166:327,1,95.9999970703126,0|0,1:3|0:0,0:0:0:0:
267,148,33395,6,0,P|318:194|454:165,1,191.999994140625,2|0,1:2|1:0,0:0:0:0:
444,98,33892,1,2,3:2:0:0:
490,247,34058,2,0,P|475:302|465:346,1,95.9999970703126,0|2,0:0|3:2,0:0:0:0:
442,90,34389,1,2,1:2:0:0:
500,242,34555,1,0,3:0:0:0:
363,289,34721,6,0,P|308:260|254:255,1,95.9999970703126,2|0,1:2|0:0,0:0:0:0:
206,295,35052,1,0,1:0:0:0:
206,295,35218,1,0,0:0:0:0:
45,275,35384,2,0,P|59:344|63:389,1,95.9999970703126,2|0,1:2|3:0,0:0:0:0:
127,227,35715,2,0,P|116:180|110:132,1,95.9999970703126,2|0,1:2|0:0,0:0:0:0:
258,65,36047,6,0,P|303:135|283:242,1,191.999994140625,2|0,1:2|1:0,0:0:0:0:
156,334,36544,2,0,P|145:287|139:239,1,95.9999970703126,2|0,3:2|0:0,0:0:0:0:
210,183,36875,1,8,3:0:0:0:
210,183,36958,1,8,3:0:0:0:
210,183,37041,1,4,1:3:0:0:
302,315,37207,1,0,0:0:0:0:
415,171,37373,6,0,L|527:166,1,95.9999970703126,6|0,1:2|0:0,0:0:0:0:
340,229,37704,2,0,P|332:181|319:135,1,95.9999970703126,2|0,1:2|0:0,0:0:0:0:
268,62,38036,1,8,3:0:0:0:
268,62,38201,1,0,3:0:0:0:
177,170,38367,2,0,P|122:155|69:148,1,95.9999970703126,0|0,1:0|0:0,0:0:0:0:
11,325,38699,6,0,P|93:311|178:400,1,191.999994140625,2|2,1:2|1:2,0:0:0:0:
304,337,39196,2,0,P|350:351|418:323,1,95.9999970703126,2|0,3:2|0:0,0:0:0:0:
472,380,39527,1,4,3:0:0:0:
395,259,39693,2,0,P|413:198|431:132,1,95.9999970703126,0|0,1:0|0:0,0:0:0:0:
348,11,40025,5,2,1:2:0:0:
433,165,40190,1,2,3:2:0:0:
320,187,40356,1,2,1:2:0:0:
423,78,40522,2,0,L|516:113,1,95.9999970703126,2|0,3:2|0:0,0:0:0:0:
259,118,40853,1,2,1:2:0:0:
258,118,40936,1,0,1:0:0:0:
258,118,41019,1,0,1:0:0:0:
181,327,41185,6,0,P|132:250|178:142,1,191.999994140625,6|0,1:2|3:0,0:0:0:0:
258,118,41682,1,0,1:0:0:0:
159,159,41848,1,4,3:0:0:0:
258,118,42014,1,0,1:0:0:0:
360,233,42179,2,0,P|342:300|330:349,1,95.9999970703126,2|0,3:2|1:0,0:0:0:0:
405,383,42511,1,2,0:0:0:0:
244,347,42677,6,0,L|235:297,3,47.9999985351563,2|0|0|0,1:2|0:0|0:0|0:0,0:0:0:0:
235,358,43008,1,2,1:2:0:0:
307,168,43174,1,6,3:2:0:0:
154,226,43505,2,0,P|142:278|170:339,1,95.9999970703126,2|0,3:2|0:0,0:0:0:0:
235,358,43837,1,0,3:0:0:0:
315,164,44002,5,6,1:2:0:0:
319,172,44334,1,2,0:0:0:0:
244,215,44500,1,0,3:0:0:0:
183,158,44665,2,0,P|178:125|174:84,1,64,2|0,0:0|0:0,0:0:0:0:
247,226,44997,1,0,1:0:0:0:
315,180,45163,1,0,0:0:0:0:
449,262,45328,6,0,L|534:251,1,64,2|0,1:2|0:0,0:0:0:0:
376,225,45660,2,0,L|365:310,1,64,2|0,0:0|3:0,0:0:0:0:
445,177,45991,2,0,L|436:113,1,64,4|8,3:0|3:0,0:0:0:0:
412,356,46323,1,2,1:2:0:0:
412,356,46654,6,0,P|364:325|290:334,1,128,2|2,1:2|0:0,0:0:0:0:
207,322,47152,2,0,P|219:375|221:402,1,64,4|8,3:0|3:0,0:0:0:0:
129,354,47483,1,2,0:0:0:0:
120,214,47649,2,0,P|157:242|223:230,1,96,0|0,1:0|0:0,0:0:0:0:
219,236,47980,5,6,1:2:0:0:
120,358,48146,1,2,1:2:0:0:
301,282,48312,2,0,L|308:316,6,20,2|0|0|0|2|0|0,1:2|0:0|0:0|0:0|3:2|0:0|0:0,0:0:0:0:
366,231,48643,5,2,1:2:0:0:
74,153,48975,1,2,1:2:0:0:
245,39,49306,6,0,P|299:85|403:80,1,160,6|0,1:2|1:0,0:0:0:0:
421,164,49804,1,0,0:0:0:0:
512,95,49969,2,0,P|498:165|497:196,1,80,2|2,3:2|0:0,0:0:0:0:
417,174,50301,1,0,1:0:0:0:
294,348,50467,6,0,P|334:205|343:156,1,160,2|0,3:2|0:0,0:0:0:0:
421,164,50964,1,0,1:0:0:0:
242,194,51130,2,0,P|191:176|145:145,1,80,2|0,3:2|0:0,0:0:0:0:
0,221,51461,1,8,3:0:0:0:
163,171,51627,1,2,1:2:0:0:
82,290,51793,1,0,3:0:0:0:
263,316,51958,6,0,P|272:275|285:227,1,80,6|0,1:2|0:0,0:0:0:0:
359,207,52290,1,2,1:2:0:0:
359,207,52456,1,0,3:0:0:0:
470,45,52621,2,0,P|459:83|451:122,1,80,2|0,0:0|0:0,0:0:0:0:
359,207,52953,1,2,1:2:0:0:
359,207,53118,1,0,3:0:0:0:
484,323,53284,6,0,P|492:283|502:245,1,80,2|0,1:2|0:0,0:0:0:0:
359,207,53616,1,0,1:0:0:0:
359,207,53781,1,2,3:2:0:0:
247,85,53947,2,0,P|238:124|228:162,1,80,0|4,0:0|3:0,0:0:0:0:
359,207,54279,1,2,1:2:0:0:
359,207,54362,1,0,0:0:0:0:
359,207,54444,1,0,1:0:0:0:
313,29,54610,5,6,1:2:0:0:
313,29,54776,1,8,3:0:0:0:
379,93,54942,1,4,0:3:0:0:
187,181,55107,2,0,P|180:95|222:38,1,160,2|4,1:2|1:3,0:0:0:0:
313,29,55605,1,2,1:2:0:0:
313,243,55770,6,0,P|370:226|470:224,1,160,6|8,1:2|3:0,0:0:0:0:
456,120,56268,2,0,L|470:64,2,40,8|0|0,3:0|3:0|3:0,0:0:0:0:
498,300,56599,1,2,1:2:0:0:
498,300,56765,1,4,3:0:0:0:
280,162,56931,1,6,1:2:0:0:
353,342,57262,5,2,1:2:0:0:
353,342,57428,1,2,1:2:0:0:
501,139,57594,1,2,3:2:0:0:
347,352,57925,5,2,1:2:0:0:
487,57,58257,1,2,3:2:0:0:
487,57,58422,1,2,1:2:0:0:
234,132,58754,5,2,1:2:0:0:
234,132,58920,1,2,3:2:0:0:
282,210,59085,2,0,P|279:227|278:250,3,40,2|2|8|0,0:0|0:0|3:0|3:0,0:0:0:0:
281,198,59417,5,2,3:2:0:0:
220,335,59583,1,10,1:2:0:0:
146,130,59748,1,0,3:0:0:0:
294,357,59914,6,0,L|151:374,1,143.999995605469,2|0,3:2|0:0,0:0:0:0:
5,297,60246,1,6,1:2:0:0:
5,297,60577,2,0,P|6:241|54:196,1,95.9999970703126,2|0,3:2|0:0,0:0:0:0:
146,130,60909,1,0,1:0:0:0:
220,281,61074,6,0,P|172:287|125:295,1,95.9999970703126,2|0,3:2|0:0,0:0:0:0:
146,130,61406,1,2,3:2:0:0:
324,239,61572,2,0,P|315:286|310:333,1,95.9999970703126,2|0,1:2|0:0,0:0:0:0:
277,158,61903,1,0,3:0:0:0:
277,158,62069,1,0,3:0:0:0:
512,262,62235,1,2,1:2:0:0:
512,262,62566,6,0,P|469:214|351:226,1,191.999994140625,2|6,3:2|1:2,0:0:0:0:
277,158,63063,1,0,0:0:0:0:
319,354,63229,2,0,P|385:338|430:334,1,95.9999970703126,2|0,0:0|0:0,0:0:0:0:
272,153,63560,1,0,1:0:0:0:
179,358,63726,6,0,P|148:284|194:164,1,191.999994140625,6|0,3:2|3:0,0:0:0:0:
351,225,64223,2,0,P|400:244|464:254,1,95.9999970703126,2|0,1:2|0:0,0:0:0:0:
350,85,64555,2,0,P|298:67|237:56,1,95.9999970703126,2|0,3:2|3:0,0:0:0:0:
81,149,64886,1,2,1:2:0:0:
226,309,65052,6,0,P|273:244|264:130,1,191.999994140625,6|0,3:2|3:0,0:0:0:0:
350,85,65549,1,0,1:0:0:0:
350,85,65715,1,0,3:0:0:0:
94,147,65881,2,0,P|107:207|115:252,1,95.9999970703126,2|0,3:2|3:0,0:0:0:0:
184,100,66212,2,0,P|192:52|203:5,1,95.9999970703126,2|0,1:2|0:0,0:0:0:0:
298,212,66544,6,0,P|353:266|486:240,1,191.999994140625,6|0,1:2|1:0,0:0:0:0:
473,83,67041,2,0,P|457:128|447:175,1,95.9999970703126,6|0,3:2|0:0,0:0:0:0:
512,334,67373,1,0,1:0:0:0:
347,380,67538,1,2,1:2:0:0:
347,380,67621,1,0,3:0:0:0:
347,380,67704,1,0,3:0:0:0:
284,176,67870,6,0,P|296:236|306:301,1,95.9999970703126,6|0,1:2|3:0,0:0:0:0:
423,332,68201,1,2,1:2:0:0:
187,365,68367,2,0,P|195:317|204:270,1,95.9999970703126,2|2,3:2|1:2,0:0:0:0:
359,118,68699,2,0,P|368:165|375:212,1,95.9999970703126,2|0,3:2|1:0,0:0:0:0:
97,266,69030,6,0,P|80:196|166:106,1,191.999994140625,6|0,3:2|1:0,0:0:0:0:
151,109,69444,1,0,1:0:0:0:
151,109,69527,1,2,1:2:0:0:
386,212,69693,1,0,3:0:0:0:
242,37,69859,2,0,L|257:144,1,95.9999970703126,2|2,3:2|3:2,0:0:0:0:
396,213,70190,1,2,1:2:0:0:
276,305,70356,1,2,3:2:0:0:
444,129,70522,6,0,P|492:199|465:293,1,143.999995605469,2|0,3:2|0:0,0:0:0:0:
355,384,70853,1,6,1:2:0:0:
355,384,71185,2,0,L|368:281,1,95.9999970703126,2|0,3:2|0:0,0:0:0:0:
462,360,71516,1,0,1:0:0:0:
276,257,71682,6,0,P|185:242|72:228,1,191.999994140625,6|0,3:2|3:0,0:0:0:0:
0,318,72179,1,0,1:0:0:0:
192,145,72345,1,0,0:0:0:0:
89,19,72511,2,0,P|106:102|116:138,1,95.9999970703126,4|8,3:0|3:0,0:0:0:0:
199,373,72842,2,0,P|219:271|231:227,1,143.999995605469,2|0,1:2|0:0,0:0:0:0:
389,308,73174,5,2,1:2:0:0:
388,171,73505,2,0,P|442:162|495:151,1,95.9999970703126,6|0,1:2|0:0,0:0:0:0:
298,144,73837,2,0,P|307:191|315:238,1,95.9999970703126,2|0,3:2|0:0,0:0:0:0:
248,350,74168,1,2,1:2:0:0:
214,198,74334,6,0,P|148:264|175:388,1,191.999994140625,6|0,3:2|3:0,0:0:0:0:
440,333,74831,2,0,P|360:308|323:316,1,95.9999970703126,2|4,1:2|3:0,0:0:0:0:
350,310,75080,1,8,3:0:0:0:
350,310,75163,1,2,1:2:0:0:
248,350,75328,1,4,3:0:0:0:
405,226,75494,1,0,1:0:0:0:
228,160,75660,6,0,L|249:359,1,191.999994140625,6|0,3:2|3:0,0:0:0:0:
345,384,76157,1,0,1:0:0:0:
345,384,76323,1,0,0:0:0:0:
405,226,76489,2,0,L|510:214,1,95.9999970703126,2|0,3:2|3:0,0:0:0:0:
393,118,76820,2,0,L|288:106,1,95.9999970703126,0|0,1:0|0:0,0:0:0:0:
55,204,77152,5,2,1:2:0:0:
127,269,77317,1,0,3:0:0:0:
48,197,77483,1,0,1:0:0:0:
82,366,77649,2,0,L|177:353,1,95.9999970703126,6|0,1:2|0:0,0:0:0:0:
178,353,77897,1,0,0:0:0:0:
178,353,77980,1,4,3:0:0:0:
44,193,78146,1,4,0:3:0:0:
44,193,78312,1,0,0:0:0:0:
264,310,78478,6,0,P|290:249|246:125,1,191.999994140625,2|2,3:2|3:2,0:0:0:0:
187,74,78975,1,2,3:2:0:0:
355,36,79141,5,0,1:0:0:0:
172,173,79306,1,2,1:2:0:0:
172,173,79389,1,0,1:0:0:0:
172,173,79472,1,2,1:2:0:0:
261,321,79638,1,2,3:2:0:0:
351,46,79804,5,6,0:0:0:0:
153,132,80467,1,6,3:2:0:0:
153,132,80632,1,2,3:2:0:0:
368,350,81130,5,6,1:2:0:0:
368,350,81295,1,0,0:0:0:0:
450,310,81461,2,0,P|466:243|476:207,1,80,0|0,1:0|0:0,0:0:0:0:
356,363,81793,1,4,3:0:0:0:
356,363,81958,1,0,3:0:0:0:
459,306,82124,2,0,P|475:239|485:203,1,80,0|0,1:0|0:0,0:0:0:0:
284,71,82456,6,0,P|225:128|245:218,1,160,2|0,3:2|1:0,0:0:0:0:
298,255,82953,1,2,0:0:0:0:
184,346,83118,2,0,P|120:330|92:323,1,80,0|4,0:0|3:0,0:0:0:0:
106,326,83367,1,0,3:0:0:0:
106,326,83450,1,2,3:2:0:0:
31,360,83616,1,0,0:0:0:0:
261,325,83781,6,0,P|307:348|435:332,1,160,2|0,3:2|1:0,0:0:0:0:
420,349,84444,2,0,P|439:274|449:243,1,80,2|0,3:2|3:0,0:0:0:0:
512,240,84776,1,0,1:0:0:0:
409,139,84942,6,0,P|331:144|272:93,1,160,6|0,3:2|3:0,0:0:0:0:
108,158,85439,2,0,P|117:213|119:273,1,80,0|0,1:0|0:0,0:0:0:0:
186,119,85770,2,0,P|189:79|197:40,1,80,2|0,0:0|3:0,0:0:0:0:
22,213,86102,1,2,1:2:0:0:
22,213,86185,1,0,3:0:0:0:
22,213,86268,1,0,3:0:0:0:
111,363,86433,6,0,P|184:345|220:339,1,80,6|0,1:2|0:0,0:0:0:0:
256,263,86765,1,0,3:0:0:0:
425,368,86931,2,0,P|407:295|401:259,1,80,6|0,3:2|0:0,0:0:0:0:
260,254,87263,1,0,1:0:0:0:
192,121,87428,6,0,P|129:147|96:277,1,207.999990478516,6|0,1:2|0:0,0:0:0:0:
323,329,88257,1,4,3:0:0:0:
323,329,88339,1,0,3:0:0:0:
323,329,88422,1,2,1:2:0:0:
94,272,88588,5,6,3:2:0:0:
