osu file format v14

[General]
AudioFilename: idol.mp3
AudioLeadIn: 0
PreviewTime: 59234
Countdown: 0
SampleSet: Soft
StackLeniency: 1
Mode: 0
LetterboxInBreaks: 0
WidescreenStoryboard: 0

[Editor]
DistanceSpacing: 1
BeatDivisor: 4
GridSize: 32
TimelineZoom: 1

[Metadata]
Title:Mirai no Bokura wa Shitteru yo (TV Size)
TitleUnicode:未来の僕らは知ってるよ (TV Size)
Artist:Aqours
ArtistUnicode:Aqours
Creator:Syph
Version:Extra
Source:ラブライブ!サンシャイン!!
Tags:jennifer jennglebells japanese pop jpop j-pop season 2 lovelive love live sunshine opening anime school idol project inami anju 伊波杏樹 aida rikako 逢田梨香子 suwa nanaka 諏訪ななか komiya arisa 小宮有紗 saito shuka 斉藤朱夏 kobayashi aika 小林愛香 takatsuki kanako 高槻かなこ suzuki aina 鈴木愛奈 furihata ai 降幡 愛 takami chika 高海千歌 sakurauchi riko 桜内梨子 matsuura kanan 松浦果南 kurosawa dia 黒澤ダイヤ watanabe you 渡辺 曜 tsushima yoshiko 津島善子 kunikida hanamaru 国木田花丸 ohara mari 小原鞠莉 kurosawa ruby 黒澤ルビィ
BeatmapID:4512418
BeatmapSetID:2143453

[Difficulty]
HPDrainRate:5.7
CircleSize:4
OverallDifficulty:8.7
ApproachRate:9.1
SliderMultiplier:1.6
SliderTickRate:1

[Events]
//Background and Video events
0,0,"asdf.jpg",0,0
Video,0,"video.mp4"
//Break Periods
//Storyboard Layer 0 (Background)
//Storyboard Layer 1 (Fail)
//Storyboard Layer 2 (Pass)
//Storyboard Layer 3 (Foreground)
//Storyboard Layer 4 (Overlay)
//Storyboard Sound Samples

[TimingPoints]
2898,331.491712707182,4,2,0,60,1,0
2898,-133.333333333333,4,2,0,60,0,0
6544,-181.818181818181,4,2,0,60,0,0
8201,-133.333333333333,4,2,0,60,0,0
8450,-133.333333333333,4,2,0,5,0,0
8533,-133.333333333333,4,2,0,60,0,0
10853,-111.111111111111,4,2,0,65,0,0
13505,-100,4,2,0,65,0,0
14665,-80,4,2,0,70,0,0
14914,-80,4,2,0,5,0,0
14997,-80,4,2,0,70,0,0
19969,-100,4,2,0,70,0,0
20964,-100,4,2,0,65,0,0
21378,-100,4,2,0,5,0,0
21461,-100,4,2,0,65,0,0
25356,-100,4,2,0,5,0,0
25439,-100,4,2,0,65,0,0
26682,-100,4,2,0,5,0,0
26765,-100,4,2,0,65,0,0
28339,-100,4,2,0,5,0,0
28422,-100,4,2,0,65,0,0
30826,-100,4,2,0,5,0,0
30909,-100,4,2,0,65,0,0
32069,-100,4,2,0,70,0,0
33312,-100,4,2,0,5,0,0
33395,-100,4,2,0,70,0,0
34141,-100,4,2,0,5,0,0
34224,-100,4,2,0,70,0,0
35964,-100,4,2,0,5,0,0
36047,-100,4,2,0,70,0,0
36295,-100,4,2,0,5,0,0
36378,-100,4,2,0,70,0,0
38616,-100,4,2,0,5,0,0
38699,-100,4,2,0,70,0,0
39444,-100,4,2,0,5,0,0
39527,-100,4,2,0,70,0,0
44002,-100,4,2,0,65,0,0
45246,-100,4,2,0,5,0,0
45328,-100,4,2,0,65,0,0
46903,-100,4,2,0,5,0,0
46985,-100,4,2,0,65,0,0
47897,-100,4,2,0,5,0,0
47979,-100,4,2,0,65,0,0
49223,-100,4,2,0,5,0,0
49305,-100,4,2,0,65,0,0
51958,-86.9565217391304,4,2,0,70,0,0
55770,-80,4,2,0,75,0,0
57179,-80,4,2,0,5,0,0
57262,-80,4,2,0,75,0,0
57594,-90.9090909090909,4,2,0,75,0,0
58174,-90.9090909090909,4,2,0,5,0,0
58257,-90.9090909090909,4,2,0,75,0,0
59914,-90.9090909090909,4,2,0,80,0,1
60246,-76.9230769230769,4,2,0,80,0,1
60494,-76.9230769230769,4,2,0,5,0,1
60577,-83.3333333333333,4,2,0,80,0,1
61323,-83.3333333333333,4,2,0,5,0,1
61406,-83.3333333333333,4,2,0,80,0,1
62897,-55.5555555555556,4,2,0,80,0,1
63146,-55.5555555555556,4,2,0,5,0,1
63229,-83.3333333333333,4,2,0,80,0,1
63726,-71.4285714285714,4,2,0,80,0,1
64223,-83.3333333333333,4,2,0,80,0,1
65301,-83.3333333333333,4,2,0,5,0,1
65384,-83.3333333333333,4,2,0,80,0,1
66461,-83.3333333333333,4,2,0,5,0,1
66544,-83.3333333333333,4,2,0,80,0,1
67290,-83.3333333333333,4,2,0,5,0,1
67373,-83.3333333333333,4,2,0,80,0,1
70853,-55.5555555555556,4,2,0,80,0,1
71102,-55.5555555555556,4,2,0,5,0,1
71185,-83.3333333333333,4,2,0,80,0,1
71931,-83.3333333333333,4,2,0,5,0,1
72014,-83.3333333333333,4,2,0,80,0,1
73505,-55.5555555555556,4,2,0,80,0,1
73754,-55.5555555555556,4,2,0,5,0,1
73837,-83.3333333333333,4,2,0,80,0,1
74334,-66.6666666666667,4,2,0,80,0,1
74583,-66.6666666666667,4,2,0,5,0,1
74665,-66.6666666666667,4,2,0,80,0,1
74831,-80,4,2,0,80,0,1
78395,-80,4,2,0,5,0,1
78478,-80,4,2,0,80,0,1
79804,-95.2380952380952,4,2,0,80,0,1
80632,-86.9565217391304,4,2,0,80,0,1
81130,-86.9565217391304,4,2,0,70,0,0
83699,-86.9565217391304,4,2,0,5,0,0
83781,-86.9565217391304,4,2,0,70,0,0
86682,-86.9565217391304,4,2,0,5,0,0
86765,-86.9565217391304,4,2,0,70,0,0
87179,-86.9565217391304,4,2,0,5,0,0
87262,-86.9565217391304,4,2,0,70,0,0
87428,-133.333333333333,4,2,0,70,0,0

[Colours]
Combo1 : 12,218,115
Combo2 : 251,226,140
Combo3 : 251,143,113
Combo4 : 97,233,233

[HitObjects]
39,227,2898,5,2,0:0:0:0:
201,109,3892,1,0,0:0:0:0:
201,109,4058,1,0,0:0:0:0:
133,144,4223,2,0,P|151:191|165:270,1,120.000004577637,2|0,0:0|0:0,0:0:0:0:
141,333,4721,1,2,0:0:0:0:
70,348,4886,1,0,3:0:0:0:
70,348,5218,1,0,0:0:0:0:
266,381,5549,6,0,P|355:360|403:357,1,120.000004577637,2|0,0:0|0:0,0:0:0:0:
170,262,6047,2,0,P|81:241|33:238,1,120.000004577637,2|0,0:0|0:0,0:0:0:0:
265,97,6544,2,0,P|280:128|268:230,2,132.00000402832,2|0|0,0:0|0:0|3:0,0:0:0:0:
265,97,7870,1,2,0:0:0:0:
336,294,8201,6,0,P|368:293|406:250,1,90.0000034332277,2|0,0:0|0:0,0:0:0:0:
361,191,8533,1,0,3:0:0:0:
504,209,8699,2,0,P|487:169|346:110,1,180.000006866455,2|0,0:0|0:0,0:0:0:0:
256,0,9362,1,0,0:0:0:0:
256,0,9527,6,0,P|268:47|280:127,1,120.000004577637,2|0,0:0|0:0,0:0:0:0:
339,338,10025,1,4,3:0:0:0:
339,338,10107,1,8,3:0:0:0:
339,338,10190,2,0,P|348:279|363:221,1,120.000004577637,8|0,1:3|0:0,0:0:0:0:
250,242,10688,2,0,P|235:245|221:251,1,30.0000011444092,2|0,0:0|0:0,0:0:0:0:
64,270,10853,6,0,B|108:285|141:291|141:291|159:329|159:329|197:334|250:358,1,215.999993408203,6|0,1:2|0:0,0:0:0:0:
332,311,11516,1,2,0:0:0:0:
256,118,12179,2,0,P|223:168|228:269,1,143.999995605469,2|0,1:2|3:0,0:0:0:0:
340,319,12677,2,0,P|382:306|394:267,1,71.9999978027344,2|0,1:2|0:0,0:0:0:0:
310,229,13008,1,0,3:0:0:0:
394,181,13174,2,0,P|429:185|463:196,1,71.9999978027344,2|0,3:2|0:0,0:0:0:0:
362,29,13505,6,0,P|346:75|343:128,1,80,2|0,1:2|0:0,0:0:0:0:
182,171,13837,1,0,3:0:0:0:
182,171,14002,1,0,3:2:0:0:
406,297,14168,1,2,1:2:0:0:
342,105,14334,1,4,3:0:0:0:
252,345,14500,1,2,1:2:0:0:
494,269,14665,6,0,P|467:223|370:210,1,150,6|0,1:2|0:0,0:0:0:0:
311,250,14997,1,8,3:0:0:0:
248,60,15163,1,4,3:0:0:0:
153,308,15328,1,2,1:2:0:0:
38,152,15494,1,0,1:0:0:0:
38,152,15577,1,0,1:0:0:0:
38,152,15660,6,0,P|24:115|11:90,1,50,2|0,1:2|0:0,0:0:0:0:
153,308,15826,2,0,P|139:345|126:370,1,50,0|0,1:2|0:0,0:0:0:0:
258,188,15991,2,0,P|244:151|231:126,1,50,0|0,3:0|0:0,0:0:0:0:
383,372,16157,6,0,P|429:354|478:346,1,100,6|0,1:2|0:0,0:0:0:0:
256,295,16489,1,0,1:0:0:0:
391,152,16654,2,0,P|417:199|392:263,1,100,2|0,3:2|0:0,0:0:0:0:
245,307,16986,1,4,3:0:0:0:
317,95,17152,1,0,1:0:0:0:
300,373,17317,6,0,P|292:322|262:166,1,200,2|0,1:2|3:0,0:0:0:0:
444,84,17815,1,0,1:0:0:0:
338,15,17980,2,0,P|305:47|310:104,1,100,2|0,3:2|0:0,0:0:0:0:
459,234,18312,1,0,1:0:0:0:
459,234,18395,1,0,1:0:0:0:
459,234,18478,2,0,P|482:229|512:224,1,50,0|0,1:0|1:0,0:0:0:0:
320,339,18643,2,0,P|297:334|267:329,1,50,8|0,3:0|0:0,0:0:0:0:
104,151,18809,6,0,P|123:189|135:249,1,100,6|0,1:2|1:0,0:0:0:0:
99,311,19058,1,0,1:0:0:0:
99,311,19141,1,0,1:0:0:0:
197,106,19306,2,0,P|212:41|230:0,1,100,6|0,3:2|0:0,0:0:0:0:
4,164,19638,5,2,1:2:0:0:
285,91,19804,1,0,1:0:0:0:
66,8,19969,1,6,1:2:0:0:
17,370,20964,6,0,P|24:330|29:319,1,40,0|0,1:0|0:0,0:0:0:0:
79,275,21130,2,0,P|94:241|52:151,1,120,4|0,1:3|0:0,0:0:0:0:
70,165,21461,6,0,P|85:100|102:63,1,80,2|0,1:2|0:0,0:0:0:0:
33,0,21793,1,0,1:0:0:0:
33,0,21958,2,0,P|62:43|177:62,1,160,2|0,0:0|3:0,0:0:0:0:
250,26,22456,1,0,1:0:0:0:
250,26,22787,6,0,P|239:66|230:122,1,80,2|0,1:2|0:0,0:0:0:0:
305,214,23118,1,0,1:0:0:0:
378,185,23284,2,0,P|387:132|415:23,1,160,2|4,3:2|3:0,0:0:0:0:
296,209,23781,1,0,1:0:0:0:
440,118,23947,1,0,3:0:0:0:
510,273,24113,6,0,P|488:317|388:321,1,160,2|0,1:2|1:0,0:0:0:0:
387,320,24610,1,0,3:0:0:0:
213,247,24776,1,4,3:0:0:0:
302,214,24942,1,8,3:0:0:0:
245,360,25107,2,0,P|203:341|121:331,1,120,2|0,1:2|0:0,0:0:0:0:
130,330,25439,6,0,P|119:282|104:231,1,80,2|0,1:2|0:0,0:0:0:0:
2,87,25770,1,0,1:0:0:0:
74,118,25936,2,0,P|68:157|54:195,1,80,2|0,3:2|0:0,0:0:0:0:
5,252,26268,1,0,3:0:0:0:
157,165,26433,2,0,P|197:176|234:246,1,120,0|0,1:0|0:0,0:0:0:0:
224,316,26765,5,6,1:2:0:0:
224,316,27096,2,0,P|280:330|311:350,1,80,2|0,1:2|0:0,0:0:0:0:
425,290,27428,1,2,3:2:0:0:
335,246,27594,1,0,3:0:0:0:
403,373,27759,2,0,P|411:320|430:284,1,80,0|0,1:0|0:0,0:0:0:0:
502,101,28091,6,0,P|450:120|436:189,1,120,2|0,1:2|0:0,0:0:0:0:
490,226,28422,1,0,1:0:0:0:
336,302,28588,2,0,P|415:322|489:354,1,160,2|0,3:2|3:0,0:0:0:0:
495,361,29002,1,0,3:0:0:0:
495,361,29085,2,0,P|501:332|509:316,1,40,2|0,1:2|0:0,0:0:0:0:
425,290,29251,2,0,P|419:260|410:244,1,40,2|0,2:0|0:0,0:0:0:0:
488,71,29417,6,0,P|468:120|460:174,1,80,2|0,1:2|0:0,0:0:0:0:
239,90,29748,1,0,1:0:0:0:
282,210,29914,2,0,P|318:194|357:184,1,80,2|0,3:2|0:0,0:0:0:0:
147,240,30246,5,0,1:0:0:0:
147,240,30328,1,0,1:0:0:0:
147,240,30411,2,0,P|127:232|100:228,1,40,2|0,1:2|0:0,0:0:0:0:
32,285,30577,2,0,P|2:256|27:162,1,120,8|0,3:0|0:0,0:0:0:0:
70,138,30909,5,2,1:2:0:0:
131,356,31074,1,2,1:2:0:0:
279,196,31240,1,2,1:2:0:0:
147,240,31406,1,12,3:0:0:0:
240,2,31572,2,0,P|227:45|205:162,1,160,2|0,1:2|3:0,0:0:0:0:
353,264,31986,1,0,3:0:0:0:
353,264,32069,6,0,P|383:218|339:125,1,160,6|0,1:2|1:0,0:0:0:0:
211,275,32566,2,0,P|233:327|295:351,1,120,2|0,3:2|0:0,0:0:0:0:
288,351,32897,1,8,3:0:0:0:
209,166,33063,2,0,P|165:178|91:218,1,120,0|0,1:3|0:0,0:0:0:0:
99,212,33395,6,0,P|105:169|146:46,1,160,2|0,1:2|1:0,0:0:0:0:
325,238,33892,2,0,P|319:281|286:373,1,120,2|0,3:2|0:0,0:0:0:0:
295,353,34223,1,2,3:2:0:0:
208,123,34389,1,2,1:2:0:0:
235,218,34555,1,0,3:0:0:0:
369,75,34721,6,0,P|417:88|522:131,2,160,2|0|2,1:2|1:0|1:2,0:0:0:0:
308,126,35549,1,0,3:0:0:0:
122,0,35715,2,0,P|139:43|156:129,1,120,2|0,1:2|0:0,0:0:0:0:
104,203,36047,6,0,P|37:181|37:104,1,120,2|0,1:2|0:0,0:0:0:0:
24,138,36378,1,0,1:0:0:0:
217,204,36544,2,0,P|196:275|179:361,1,160,2|8,3:2|3:0,0:0:0:0:
22,316,36958,1,8,3:0:0:0:
22,316,37041,2,0,P|68:295|130:295,1,80,4|0,1:3|0:0,0:0:0:0:
296,346,37373,5,6,1:2:0:0:
296,346,37704,2,0,P|342:325|404:325,1,80,2|0,1:2|0:0,0:0:0:0:
447,358,38036,1,8,3:0:0:0:
447,358,38201,1,0,3:0:0:0:
469,128,38367,2,0,P|447:170|425:248,1,120,0|0,1:0|0:0,0:0:0:0:
495,273,38699,5,2,1:2:0:0:
327,192,38864,1,0,3:0:0:0:
375,327,39030,1,2,1:2:0:0:
391,114,39196,2,0,P|375:56|348:2,1,120,2|0,3:2|0:0,0:0:0:0:
348,2,39527,1,4,3:0:0:0:
215,96,39693,2,0,P|245:122|305:117,1,80,0|0,1:0|0:0,0:0:0:0:
114,167,40025,5,2,1:2:0:0:
273,39,40190,1,2,3:2:0:0:
180,228,40356,1,2,1:2:0:0:
64,74,40522,2,0,P|31:103|39:161,1,80,2|0,3:2|0:0,0:0:0:0:
190,310,40853,1,2,1:2:0:0:
190,310,40936,1,0,1:0:0:0:
190,310,41019,1,0,1:0:0:0:
14,261,41185,6,0,P|68:242|201:211,1,160,6|0,1:2|3:0,0:0:0:0:
255,249,41682,1,0,1:0:0:0:
128,103,41848,1,4,3:0:0:0:
190,305,42014,1,0,1:0:0:0:
242,56,42179,1,2,3:2:0:0:
119,111,42345,1,0,1:0:0:0:
329,205,42511,1,2,0:0:0:0:
182,307,42677,6,0,P|172:333|163:387,1,80,2|0,1:2|0:0,0:0:0:0:
338,198,43008,1,2,1:2:0:0:
106,276,43174,1,6,3:2:0:0:
106,276,43505,2,0,P|67:264|24:257,1,80,2|0,3:2|0:0,0:0:0:0:
28,257,43837,1,0,3:0:0:0:
346,192,44002,6,0,P|393:206|510:254,1,160,6|2,1:2|0:0,0:0:0:0:
502,327,44500,1,0,3:0:0:0:
434,369,44665,2,0,P|389:351|335:341,1,80,2|0,0:0|0:0,0:0:0:0:
262,205,44997,2,0,P|249:247|233:325,1,120,0|0,1:0|0:0,0:0:0:0:
233,321,45328,6,0,P|180:314|152:219,1,160,2|2,1:2|0:0,0:0:0:0:
199,134,45826,1,0,3:0:0:0:
94,168,45991,1,4,3:0:0:0:
94,168,46157,1,8,3:0:0:0:
0,22,46323,2,0,P|7:61|13:100,1,80,2|2,1:2|0:0,0:0:0:0:
60,287,46654,6,0,P|72:221|106:138,1,120,2|0,1:2|0:0,0:0:0:0:
89,171,46986,1,2,0:0:0:0:
162,230,47152,1,4,3:0:0:0:
244,180,47317,2,0,P|250:140|257:101,1,80,8|2,3:0|0:0,0:0:0:0:
459,11,47649,2,0,P|422:46|342:46,1,120,0|0,1:0|0:0,0:0:0:0:
291,8,47980,5,6,1:2:0:0:
459,160,48146,1,2,1:2:0:0:
459,160,48229,1,0,1:0:0:0:
459,160,48312,2,0,P|470:126|480:109,1,40,2|0,1:2|0:0,0:0:0:0:
323,214,48478,2,0,P|330:232|335:251,1,40,2|0,3:2|0:0,0:0:0:0:
453,376,48643,1,2,1:2:0:0:
512,225,48809,1,0,3:0:0:0:
453,376,48975,2,0,P|442:317|409:233,1,120,2|0,1:2|0:0,0:0:0:0:
323,214,49306,6,0,P|283:221|245:232,1,80,6|0,1:2|0:0,0:0:0:0:
73,141,49638,2,0,P|112:148|150:159,1,80,0|0,1:0|0:0,0:0:0:0:
316,24,49969,1,2,3:2:0:0:
242,29,50135,2,0,P|215:61|219:115,1,80,2|0,0:0|1:0,0:0:0:0:
465,92,50467,6,0,P|384:107|305:130,1,160,2|0,3:2|0:0,0:0:0:0:
149,20,50964,1,0,1:0:0:0:
110,141,51130,2,0,P|101:102|86:66,1,80,2|0,3:2|0:0,0:0:0:0:
51,297,51461,1,8,3:0:0:0:
51,297,51544,1,8,3:0:0:0:
51,297,51627,1,2,1:2:0:0:
0,199,51793,1,0,3:0:0:0:
140,347,51958,6,0,P|182:329|228:316,1,92.0000017547608,6|0,1:2|0:0,0:0:0:0:
51,297,52290,1,2,1:2:0:0:
235,238,52456,1,0,3:0:0:0:
77,143,52621,2,0,P|94:185|108:231,1,92.0000017547608,2|0,0:0|0:0,0:0:0:0:
306,173,52953,1,2,1:2:0:0:
235,238,53118,1,0,3:0:0:0:
226,8,53284,6,0,P|208:50|195:96,1,92.0000017547608,2|0,1:2|0:0,0:0:0:0:
328,268,53616,1,0,1:0:0:0:
385,92,53781,2,0,P|442:108|488:131,1,92.0000017547608,2|0,3:2|0:0,0:0:0:0:
264,331,54113,1,4,3:0:0:0:
264,331,54196,1,0,3:0:0:0:
264,331,54279,2,0,P|224:318|209:316,1,46.0000008773804,2|0,1:2|0:0,0:0:0:0:
485,227,54444,1,0,1:0:0:0:
485,227,54527,1,0,3:0:0:0:
485,227,54610,5,6,1:2:0:0:
297,176,54776,1,8,3:0:0:0:
392,88,54942,1,4,0:3:0:0:
437,337,55107,1,2,1:2:0:0:
437,337,55273,1,0,3:0:0:0:
400,81,55439,1,4,1:3:0:0:
197,243,55605,1,2,1:2:0:0:
0,37,55770,6,0,P|19:90|62:232,1,200,6|8,1:2|3:0,0:0:0:0:
105,325,56185,1,0,3:0:0:0:
105,325,56268,2,0,P|121:291|122:263,1,50,8|0,3:0|3:0,0:0:0:0:
208,94,56433,1,0,3:0:0:0:
208,94,56516,1,8,3:0:0:0:
208,94,56599,2,0,P|168:135|170:167,1,50,2|0,1:2|0:0,0:0:0:0:
406,260,56765,5,4,3:0:0:0:
406,260,56848,1,8,3:0:0:0:
406,260,56931,2,0,P|364:219|232:206,1,150,6|0,1:2|0:0,0:0:0:0:
214,267,57262,5,2,1:2:0:0:
141,15,57428,1,2,1:2:0:0:
214,267,57594,2,0,P|199:307|192:357,1,88.000002685547,2|0,3:2|0:0,0:0:0:0:
7,179,57925,2,0,P|37:221|118:223,1,132.00000402832,2|0,1:2|0:0,0:0:0:0:
176,184,58257,1,2,3:2:0:0:
319,0,58422,6,0,P|334:40|341:90,1,88.000002685547,2|0,1:2|0:0,0:0:0:0:
220,272,58754,1,2,1:2:0:0:
499,181,58920,1,2,3:2:0:0:
312,378,59085,5,2,0:0:0:0:
307,370,59168,1,2,0:0:0:0:
305,361,59251,2,0,P|313:323|326:309,1,44.0000013427735,8|0,3:0|3:0,0:0:0:0:
433,276,59417,2,0,P|425:238|412:224,1,44.0000013427735,2|0,3:2|3:0,0:0:0:0:
257,110,59583,5,10,1:2:0:0:
443,61,59748,1,0,3:0:0:0:
338,237,59914,1,2,3:2:0:0:
338,237,60246,6,0,B|297:226|268:244|268:244|243:293|181:279,1,155.999992858887,6|0,1:2|0:0,1:2:0:0:
82,358,60577,2,0,P|55:312|83:253,1,95.9999970703126,2|0,3:2|0:0,0:0:0:0:
201,37,60909,1,0,1:0:0:0:
8,88,61074,6,0,P|31:142|127:162,1,143.999995605469,2|0,3:2|0:0,0:0:0:0:
178,196,61406,1,2,3:2:0:0:
293,384,61572,2,0,P|300:318|341:187,1,191.999994140625,2|0,1:2|3:0,0:0:0:0:
201,37,62069,1,0,3:0:0:0:
185,190,62235,2,0,P|174:144|154:101,1,95.9999970703126,2|0,1:2|0:0,0:0:0:0:
479,259,62566,1,2,3:2:0:0:
479,259,62897,6,0,B|545:200|496:129|496:129|462:145|420:118,1,215.999993408203,6|0,1:2|0:0,0:0:0:0:
330,23,63229,2,0,P|303:69|331:128,1,95.9999970703126,2|0,0:0|0:0,0:0:0:0:
422,325,63560,1,0,1:0:0:0:
458,37,63726,6,0,P|419:125|385:252,1,223.999993164063,6|0,3:2|3:0,0:0:0:0:
243,383,64223,2,0,P|229:336|210:293,1,95.9999970703126,2|0,1:2|0:0,0:0:0:0:
70,102,64555,1,2,3:2:0:0:
265,195,64721,1,0,3:0:0:0:
45,312,64886,1,2,1:2:0:0:
107,10,65052,6,0,P|153:38|132:151,1,143.999995605469,6|0,3:2|0:0,0:0:0:0:
99,188,65384,1,0,3:0:0:0:
0,70,65549,1,0,1:0:0:0:
0,70,65715,1,0,3:0:0:0:
145,260,65881,5,2,3:2:0:0:
22,166,66047,1,0,3:0:0:0:
145,260,66212,2,0,P|194:238|304:228,1,143.999995605469,2|0,1:2|0:0,0:0:0:0:
389,91,66544,6,0,P|430:120|427:191,1,95.9999970703126,6|0,1:2|0:0,0:0:0:0:
235,65,66875,1,0,1:0:0:0:
298,320,67041,6,0,P|317:250|346:184,1,143.999995605469,6|0,3:2|0:0,0:0:0:0:
313,117,67373,1,0,1:0:0:0:
150,267,67538,1,2,1:2:0:0:
150,267,67621,1,0,3:0:0:0:
150,267,67704,2,0,P|115:252|99:248,1,47.9999985351563,0|0,3:0|0:0,0:0:0:0:
437,193,67870,5,6,1:2:0:0:
176,149,68036,1,0,3:0:0:0:
414,32,68201,1,2,1:2:0:0:
291,266,68367,1,2,3:2:0:0:
253,3,68533,1,2,1:2:0:0:
292,287,68699,1,2,3:2:0:0:
512,136,68864,1,0,1:0:0:0:
180,46,69030,6,0,P|147:92|166:155,1,95.9999970703126,6|0,3:2|0:0,0:0:0:0:
438,272,69362,1,0,1:0:0:0:
438,272,69444,1,0,1:0:0:0:
438,272,69527,2,0,P|398:283|379:297,1,47.9999985351563,2|0,1:2|0:0,0:0:0:0:
169,222,69693,2,0,P|191:212|215:208,1,47.9999985351563,0|0,3:0|0:0,0:0:0:0:
361,120,69859,5,2,3:2:0:0:
361,120,69942,1,0,3:2:0:0:
361,120,70025,2,0,P|352:157|350:173,1,47.9999985351563,2|0,3:2|0:0,0:0:0:0:
300,352,70190,2,0,P|296:328|289:305,1,47.9999985351563,2|0,1:2|3:0,0:0:0:0:
180,46,70356,1,2,3:2:0:0:
180,46,70439,1,0,3:0:0:0:
180,46,70522,1,2,3:2:0:0:
180,46,70853,6,0,B|129:-1|52:34|57:98|57:98|81:109|96:152,1,215.999993408203,6|0,1:2|0:0,0:0:0:0:
34,290,71185,2,0,P|1:256|14:192,1,95.9999970703126,2|0,3:2|0:0,0:0:0:0:
265,108,71516,1,0,1:0:0:0:
166,377,71682,6,0,P|178:309|195:235,1,143.999995605469,6|0,3:2|0:0,0:0:0:0:
155,169,72014,1,0,3:0:0:0:
326,33,72179,2,0,P|362:85|329:149,1,95.9999970703126,0|0,1:0|0:0,0:0:0:0:
92,226,72511,1,4,3:0:0:0:
272,111,72677,1,8,3:0:0:0:
14,49,72842,1,2,1:2:0:0:
9,42,73174,5,2,1:2:0:0:
95,236,73339,1,2,3:2:0:0:
177,13,73505,6,0,B|93:41|110:126|110:126|148:124|176:165,1,215.999993408203,6|0,1:2|0:0,0:0:0:0:
318,230,73837,2,0,P|362:215|427:210,1,95.9999970703126,2|0,3:2|0:0,0:0:0:0:
99,247,74168,1,2,1:2:0:0:
276,384,74334,6,0,P|315:346|308:222,1,180.000006866455,6|0,3:2|0:0,0:0:0:0:
259,167,74665,1,0,3:0:0:0:
442,16,74831,2,0,P|421:69|418:133,1,100,2|4,1:2|3:0,0:0:0:0:
501,168,75080,1,8,3:0:0:0:
501,168,75163,1,2,1:2:0:0:
254,77,75328,1,4,3:0:0:0:
455,19,75494,1,0,1:0:0:0:
249,303,75660,6,0,P|191:284|54:251,1,200,6|0,3:2|3:0,0:0:0:0:
312,227,76157,2,0,P|356:212|421:207,1,100,0|0,1:0|0:0,0:0:0:0:
186,158,76489,1,2,3:2:0:0:
254,314,76654,1,0,3:0:0:0:
327,107,76820,2,0,P|337:66|358:8,1,100,0|0,1:0|0:0,0:0:0:0:
261,322,77152,5,2,1:2:0:0:
193,61,77317,1,0,3:0:0:0:
412,213,77483,1,0,1:0:0:0:
189,52,77649,2,0,P|213:118|230:187,1,100,6|0,1:2|0:0,0:0:0:0:
0,251,77980,1,4,3:0:0:0:
0,251,78063,1,8,3:0:0:0:
0,251,78146,2,0,P|18:200|109:191,1,150,4|0,0:3|0:0,0:0:0:0:
190,242,78478,5,2,3:2:0:0:
94,282,78643,1,0,3:0:0:0:
228,146,78809,1,2,3:2:0:0:
144,362,78975,1,2,3:2:0:0:
67,80,79141,2,0,P|78:46|100:20,1,50,0|0,1:0|0:0,0:0:0:0:
241,267,79306,2,0,P|207:256|181:234,1,50,2|0,1:2|1:0,0:0:0:0:
324,65,79472,1,2,1:2:0:0:
370,94,79556,1,0,3:0:0:0:
401,139,79639,1,2,3:2:0:0:
407,193,79722,1,0,3:0:0:0:
387,245,79804,6,0,B|360:283|300:300|300:300|275:272|227:268,1,167.999994873047,6|0,0:0|0:0,0:0:0:0:
94,184,80301,1,0,3:0:0:0:
94,184,80384,1,0,3:0:0:0:
94,184,80467,1,6,3:2:0:0:
220,355,80632,2,0,P|226:281|256:156,1,184.000003509522,2|0,3:2|3:0,0:0:0:0:
10,8,81130,6,0,P|38:45|174:70,1,184.000003509522,6|0,1:2|1:0,0:0:0:0:
448,3,81793,1,4,3:0:0:0:
448,3,81958,1,0,3:0:0:0:
383,47,82124,2,0,P|401:101|403:168,1,92.0000017547608,0|0,1:0|0:0,0:0:0:0:
297,349,82456,6,0,P|284:258|259:167,1,184.000003509522,2|0,3:2|1:0,0:0:0:0:
84,187,82953,2,0,P|120:223|164:223,1,92.0000017547608,2|0,0:0|0:0,0:0:0:0:
397,279,83284,1,4,3:0:0:0:
397,279,83367,1,0,3:0:0:0:
397,279,83450,2,0,P|373:328|275:339,1,138.000002632141,2|0,3:2|0:0,0:0:0:0:
231,303,83781,5,2,3:2:0:0:
231,303,84113,2,0,P|177:315|134:336,1,92.0000017547608,0|0,1:0|0:0,0:0:0:0:
0,267,84444,1,2,3:2:0:0:
0,267,84610,1,0,3:0:0:0:
217,189,84776,1,0,1:0:0:0:
93,384,84942,6,0,P|93:302|68:178,1,184.000003509522,6|0,3:2|3:0,0:0:0:0:
176,20,85439,2,0,P|161:70|157:127,1,92.0000017547608,0|0,1:0|0:0,0:0:0:0:
272,0,85770,1,2,0:0:0:0:
215,200,85936,1,0,3:0:0:0:
426,109,86102,1,2,1:2:0:0:
434,123,86185,1,0,3:0:0:0:
440,136,86268,1,0,3:0:0:0:
443,151,86351,1,0,3:0:0:0:
443,165,86433,6,0,P|408:202|310:177,1,138.000002632141,6|0,1:2|0:0,0:0:0:0:
261,124,86765,2,0,P|268:87|295:68,1,46.0000008773804,0|0,3:0|0:0,0:0:0:0:
99,225,86931,6,0,P|124:283|144:356,1,138.000002632141,6|0,3:2|0:0,0:0:0:0:
233,384,87262,2,0,P|270:377|289:350,1,46.0000008773804,0|0,1:0|0:0,0:0:0:0:
90,111,87428,6,0,P|29:140|21:297,1,240.000009155274,6|0,1:2|0:0,0:0:0:0:
202,215,88257,1,4,3:0:0:0:
202,215,88339,1,0,3:0:0:0:
202,215,88422,1,2,1:2:0:0:
3,49,88588,1,6,3:2:0:0:
