osu file format v14

[General]
AudioFilename: audio.mp3
AudioLeadIn: 0
PreviewTime: 58400
Countdown: 0
SampleSet: Soft
StackLeniency: 0.7
Mode: 0
LetterboxInBreaks: 0
WidescreenStoryboard: 0

[Editor]
DistanceSpacing: 1.4
BeatDivisor: 4
GridSize: 32
TimelineZoom: 1.9

[Metadata]
Title:Mirai no Bokura wa Shitteru yo
TitleUnicode:未来の僕らは知ってるよ
Artist:Aqours
ArtistUnicode:Aqours
Creator:StarrStyx
Version:Underdogs's Insane
Source:Lovelive! Sunshine!!
Tags:ラブライブ!サンシャイン!! 2 opening anime tv size school idol project Inami Anju 伊波杏樹 Aida Rikako 逢田梨香子 Suwa Nanaka 諏訪ななか Komiya Arisa 小宮有紗 Saito Shuka 斉藤朱夏 Kobayashi Aika 小林愛香 Takatsuki Kanako 高槻かなこ Suzuki Aina 鈴木愛奈 Furihata Ai 降幡 愛 Takami Chika 高海千歌 Sakurauchi Riko 桜内梨子 Matsuura Kanan 松浦果南 Kurosawa Dia 黒澤ダイヤ Watanabe You 渡辺 曜 Tsushima Yoshiko 津島善子 Kunikida Hanamaru 国木田花丸 Ohara Mari 小原鞠莉 Kurosawa Ruby 黒澤ルビィ Sekai Sekaii Sekai-nyan CloudSplash16 Little Kisses Underdogs My Angel
BeatmapID:1437277
BeatmapSetID:679650

[Difficulty]
HPDrainRate:6
CircleSize:4
OverallDifficulty:6.5
ApproachRate:9
SliderMultiplier:1.6
SliderTickRate:1

[Events]
//Background and Video events
0,0,"llss_bg2.jpg",0,0
Video,-700,"opening.avi"
//Break Periods
//Storyboard Layer 0 (Background)
//Storyboard Layer 1 (Fail)
//Storyboard Layer 2 (Pass)
//Storyboard Layer 3 (Foreground)
//Storyboard Sound Samples

[TimingPoints]
1964,331.491712707182,4,2,1,50,1,0
1964,-125,4,2,1,50,0,0
7267,-125,4,2,1,60,0,0
8593,-125,4,2,1,70,0,0
9919,-100,4,2,1,70,0,0
15223,-100,4,2,1,80,0,0
20527,-100,4,2,1,60,0,0
28483,-100,4,2,1,65,0,0
29975,-100,4,2,1,75,0,0
31135,-100,4,2,1,60,0,0
39091,-100,4,2,1,75,0,0
43068,-125,4,2,1,55,0,0
47046,-125,4,2,1,70,0,0
47709,-125,4,2,1,80,0,0
48372,-111.111111111111,4,2,1,60,0,0
51024,-111.111111111111,4,2,1,70,0,0
53676,-111.111111111111,4,2,1,80,0,0
56328,-111.111111111111,4,2,1,90,0,0
58980,-100,4,2,1,65,0,1
59312,-100,4,2,1,75,0,1
61632,-100,4,2,1,65,0,1
61963,-100,4,2,1,75,0,1
66936,-100,4,2,1,85,0,1
69588,-100,4,2,1,65,0,1
69919,-100,4,2,1,75,0,1
72240,-100,4,2,1,65,0,1
72571,-100,4,2,1,75,0,1
78870,-100,4,2,1,60,0,0
79533,-100,4,2,1,75,0,0
80196,-100,4,2,1,75,0,1
86494,-100,4,2,1,75,0,0
87323,-100,4,2,1,85,0,0

[Colours]
Combo1 : 255,81,81
Combo2 : 255,104,32
Combo3 : 255,128,255
Combo4 : 72,255,255

[HitObjects]
256,192,803,12,0,1964,0:0:0:0:
173,85,2958,6,0,L|168:167,1,64,2|2,0:0|0:0,0:0:0:0:
241,248,3289,2,0,P|287:258|354:202,1,128,0|0,0:0|0:0,0:0:0:0:
378,120,3787,1,2,0:0:0:0:
295,55,3952,2,0,B|269:90|269:90|280:188,1,128,0|2,0:0|0:0,0:0:0:0:
172,84,4615,6,0,B|74:87|74:87|45:126,1,128,2|0,0:0|0:0,0:0:0:0:
214,157,5113,2,0,P|249:113|232:28,1,128,2|0,0:0|0:0,0:0:0:0:
172,84,5610,1,2,0:0:0:0:
153,272,5941,6,0,P|144:315|153:346,1,64
234,299,6273,2,0,P|239:265|230:233,1,64,2|2,0:0|0:0,0:0:0:0:
89,261,6604,2,0,L|166:274,1,64,2|0,0:0|0:0,0:0:0:0:
294,226,6936,2,0,L|217:239,1,64,2|0,0:0|0:0,0:0:0:0:
114,149,7267,6,0,P|76:118|92:27,1,128,2|2,0:0|0:0,0:0:0:0:
281,68,7765,2,0,B|229:95|229:95|138:79,1,128,2|0,0:0|0:0,0:0:0:0:
188,172,8262,2,0,L|268:184,1,64,0|0,0:0|0:0,0:0:0:0:
332,278,8593,6,0,B|175:255|175:255|203:311,1,192,4|8,0:0|0:3,0:0:0:0:
189,284,9173,1,8,0:3:0:0:
189,284,9256,1,8,0:3:0:0:
315,168,9588,1,2,0:0:0:0:
281,161,9670,1,0,0:0:0:0:
248,154,9753,1,2,0:0:0:0:
215,147,9836,1,0,0:0:0:0:
179,128,9919,6,0,P|148:88|43:108,1,160,4|0,0:0|0:0,0:0:0:0:
15,247,10582,2,0,P|46:287|151:267,1,160,0|0,0:0|0:0,0:0:0:0:
308,139,11245,2,0,P|306:177|290:308,1,160,4|0,0:0|0:0,0:0:0:0:
410,228,11743,2,0,P|399:148|393:68,1,160,0|0,1:0|0:0,0:0:0:0:
290,54,12240,1,0,1:0:0:0:
290,54,12571,5,4,0:3:0:0:
173,40,12737,1,4,0:3:0:0:
154,183,12903,1,4,0:3:0:0:
270,199,13069,1,4,0:3:0:0:
216,118,13234,1,0,1:0:0:0:
80,106,13400,1,0,1:0:0:0:
79,249,13566,1,0,1:0:0:0:
213,278,13731,6,0,B|243:303|289:291|289:291|308:307|308:307|337:296|378:309,1,160,4|4,0:0|0:3,0:0:0:0:
505,219,14229,1,4,0:3:0:0:
323,180,14394,1,0,1:0:0:0:
440,342,14560,1,0,1:0:0:0:
437,302,14642,1,0,1:0:0:0:
434,262,14725,1,0,1:0:0:0:
431,222,14808,1,0,1:0:0:0:
432,180,14892,2,0,L|440:114,1,40,0|0,1:0|0:0,0:0:0:0:
358,72,15057,2,0,L|362:111,1,40,0|0,0:0|0:0,0:0:0:0:
277,163,15223,6,0,P|237:165|186:152,1,80,6|0,0:2|0:0,0:0:0:0:
88,42,15555,1,0,1:0:0:0:
44,161,15720,2,0,B|41:219|41:219|59:250|59:250|53:322,1,160,2|2,0:0|0:0,0:0:0:0:
165,365,16218,1,0,1:0:0:0:
281,211,16383,6,0,L|106:192,1,160,2|0,0:0|0:0,0:0:0:0:
217,295,16881,1,0,1:0:0:0:
298,114,17046,2,0,L|201:106,1,80,2|0,0:0|0:0,0:0:0:0:
346,187,17378,1,0,1:0:0:0:
373,158,17460,1,0,1:0:0:0:
384,120,17543,1,0,1:0:0:0:
377,81,17626,1,0,1:0:0:0:
350,53,17709,1,0,1:0:0:0:
242,201,17875,6,0,L|258:298,1,80,0|0,1:0|1:0,0:0:0:0:
255,279,18124,1,0,1:0:0:0:
255,279,18207,1,0,1:0:0:0:
101,196,18372,1,2,0:0:0:0:
317,72,18704,1,2,0:0:0:0:
232,51,18870,1,2,0:0:0:0:
148,32,19035,1,4,0:0:0:0:
256,192,19118,12,0,20196,0:0:0:0:
368,318,20527,6,0,P|432:304|447:203,1,160,4|2,0:0|1:2,0:0:0:0:
410,98,21024,1,2,0:0:0:0:
337,176,21190,2,0,L|239:173,1,80,0|0,0:0|0:0,0:0:0:0:
172,53,21522,2,0,L|270:50,1,80,0|0,1:0|0:0,0:0:0:0:
120,148,21853,6,0,B|82:124|82:124|75:248,1,160,2|2,0:0|1:2,0:0:0:0:
168,333,22350,1,2,0:0:0:0:
269,263,22516,2,0,P|282:222|272:152,1,80,0|0,0:0|0:0,0:0:0:0:
152,77,22847,1,0,1:0:0:0:
194,195,23013,1,0,0:0:0:0:
401,105,23179,6,0,B|352:79|352:79|219:95,1,160,2|0,0:0|1:0,0:0:0:0:
319,191,23676,1,0,0:0:0:0:
462,180,23842,2,0,P|496:150|503:106,1,80,2|0,0:0|0:0,0:0:0:0:
416,258,24173,2,0,P|424:302|459:330,1,80,2|0,1:2|0:0,0:0:0:0:
414,109,24505,6,0,P|365:112|232:112,1,160,2|0,0:0|1:0,0:0:0:0:
138,208,25002,2,0,B|186:203|186:203|225:220|225:220|306:210,1,160,2|0,0:0|0:0,0:0:0:0:
130,100,25499,1,2,1:2:0:0:
181,295,25665,1,0,0:0:0:0:
248,138,25831,5,4,0:0:0:0:
248,138,26162,2,0,L|341:129,1,80,2|0,1:2|0:0,0:0:0:0:
506,61,26494,2,0,L|413:52,1,80,2|0,0:0|0:0,0:0:0:0:
373,233,26825,1,0,1:0:0:0:
461,158,26991,1,2,0:0:0:0:
330,49,27157,6,0,L|144:40,1,160,2|2,0:0|1:2,0:0:0:0:
59,140,27654,2,0,L|245:131,1,160,2|0,0:0|0:0,0:0:0:0:
69,51,28151,1,0,1:0:0:0:
130,237,28317,1,2,0:2:0:0:
248,94,28483,6,0,L|144:95,1,80,2|0,0:0|0:0,0:0:0:0:
248,228,28814,1,0,1:0:0:0:
321,136,28980,2,0,P|335:89|253:14,1,160,2|0,0:0|1:0,0:0:0:0:
266,14,29394,1,0,1:0:0:0:
266,14,29477,1,0,1:0:0:0:
377,273,29974,5,2,0:0:0:0:
170,303,30140,1,2,0:0:0:0:
314,359,30306,2,0,L|401:360,1,80,2|0,0:0|0:0,0:0:0:0:
316,210,30638,2,0,B|287:262|287:262|315:365,1,160,4|0,0:3|0:0,0:0:0:0:
417,180,31135,6,0,L|427:93,1,80,6|0,0:0|0:0,0:0:0:0:
318,29,31466,1,2,1:2:0:0:
289,176,31632,2,0,P|233:198|141:136,1,160,2|0,0:0|0:0,0:0:0:0:
85,46,32129,1,2,1:2:0:0:
85,46,32295,1,0,0:0:0:0:
61,222,32461,6,0,L|66:318,1,80,2|0,0:0|0:0,0:0:0:0:
161,353,32792,1,2,1:2:0:0:
319,311,32958,2,0,P|339:254|275:171,1,160,2|0,0:0|0:0,0:0:0:0:
160,132,33455,1,2,1:2:0:0:
253,258,33621,1,0,0:0:0:0:
297,57,33787,6,0,L|409:46,1,80,2|0,0:0|0:0,0:0:0:0:
505,136,34118,2,0,L|393:125,1,80,0|0,1:0|0:0,0:0:0:0:
329,239,34450,1,2,0:0:0:0:
407,298,34615,1,0,0:0:0:0:
425,128,34781,2,0,L|333:136,1,80,2|0,1:2|0:0,0:0:0:0:
199,203,35113,6,0,P|251:182|330:245,1,160,2|0,0:0|1:0,0:0:0:0:
141,276,35610,2,0,B|112:226|112:226|128:117,1,160,2|0,0:0|1:0,0:0:0:0:
126,124,36024,1,0,1:0:0:0:
126,124,36107,1,0,1:0:0:0:
334,102,36273,1,0,0:0:0:0:
255,259,36439,6,0,L|244:342,1,80,4|0,0:0|0:0,0:0:0:0:
361,231,36770,2,0,L|371:310,1,80,2|0,1:2|0:0,0:0:0:0:
454,140,37102,2,0,B|468:190|468:190|460:238|460:238|483:311,1,160,2|0,0:0|1:0,0:0:0:0:
419,373,37599,1,2,0:0:0:0:
282,226,37765,6,0,L|198:211,2,80,2|0|2,0:0|0:0|1:2,0:0:0:0:
147,271,38262,2,0,P|124:207|206:134,1,160,2|0,0:0|0:0,0:0:0:0:
321,124,38759,1,2,1:2:0:0:
221,53,38925,1,2,0:0:0:0:
282,226,39091,6,0,L|289:316,2,80,4|8|8,0:0|0:3|0:3,0:0:0:0:
197,141,39588,2,0,L|32:131,1,160,4|0,0:0|1:0,0:0:0:0:
37,131,40002,1,0,1:0:0:0:
37,131,40085,1,0,1:0:0:0:
190,245,40251,6,0,L|355:235,1,160,4|0,0:0|1:0,0:0:0:0:
438,190,40748,1,0,1:0:0:0:
362,140,40914,1,0,1:0:0:0:
369,335,41080,1,0,1:0:0:0:
446,275,41246,1,8,0:3:0:0:
289,196,41411,1,8,0:3:0:0:
291,283,41577,1,0,1:0:0:0:
425,89,41743,6,0,P|380:60|290:100,1,160,0|0,1:0|1:0,0:0:0:0:
126,151,42240,2,0,L|217:158,1,80,2|0,1:2|0:0,0:0:0:0:
168,51,42571,2,0,L|77:58,1,80,0|0,1:2|0:0,0:0:0:0:
18,151,42903,1,0,0:0:0:0:
78,240,43068,1,4,0:0:0:0:
77,239,43400,6,0,L|70:371,2,128,0|2|0,0:0|0:0|1:0,0:0:0:0:
157,161,44229,1,0,0:0:0:0:
223,251,44394,6,0,L|308:261,1,64,2|0,0:0|0:0,0:0:0:0:
167,144,44726,1,0,0:0:0:0:
223,276,44892,2,0,L|308:286,1,64,2|2,0:0|0:0,0:0:0:0:
439,229,45223,1,0,0:0:0:0:
295,154,45389,1,0,1:0:0:0:
376,312,45555,1,8,0:3:0:0:
500,118,45720,6,0,B|409:99|409:99|381:133,1,128,2|0,0:0|0:0,0:0:0:0:
285,30,46218,2,0,P|307:74|273:142,1,128,2|0,0:0|0:0,0:0:0:0:
145,121,46715,1,0,1:0:0:0:
228,75,46881,1,2,0:0:0:0:
210,259,47046,5,0,1:0:0:0:
210,259,47212,1,0,1:0:0:0:
77,271,47378,2,0,L|92:358,1,64,0|0,1:0|1:0,0:0:0:0:
271,185,47709,1,4,0:3:0:0:
28,120,48041,1,4,0:3:0:0:
250,268,48372,6,0,P|302:267|355:173,2,143.999995605469,4|2|2,0:0|1:2|0:0,0:0:0:0:
146,179,49201,1,2,0:0:0:0:
231,86,49367,1,2,1:2:0:0:
251,268,49533,6,0,L|404:283,1,143.999995605469,2|0,0:0|0:0,0:0:0:0:
481,191,50030,1,0,1:0:0:0:
442,81,50196,2,0,L|289:96,1,143.999995605469,2|0,0:0|1:0,0:0:0:0:
130,164,50693,1,0,1:0:0:0:
307,195,50859,1,2,0:0:0:0:
172,92,51024,6,0,P|116:83|44:161,1,143.999995605469,4|0,0:0|1:0,0:0:0:0:
115,298,51522,2,0,B|143:261|143:261|129:158,1,143.999995605469,4|4,0:3|0:3,0:0:0:0:
18,233,52019,1,0,1:0:0:0:
18,233,52184,1,4,0:3:0:0:
239,208,52350,6,0,B|290:194|358:226|358:226|328:243,1,143.999995605469,0|0,1:0|1:0,0:0:0:0:
239,311,52847,2,0,B|221:322|221:322|289:354|340:340,1,143.999995605469,4|0,0:3|1:0,0:0:0:0:
340,340,53262,1,0,1:0:0:0:
340,340,53345,1,0,1:0:0:0:
434,211,53510,1,0,1:0:0:0:
434,211,53593,1,0,1:0:0:0:
434,211,53676,6,0,L|430:120,1,71.9999978027344,4|4,0:0|0:3,0:0:0:0:
310,66,54008,1,4,0:3:0:0:
430,139,54173,2,0,L|271:173,1,143.999995605469,4|4,0:0|0:3,0:0:0:0:
187,267,54671,1,4,0:3:0:0:
57,95,54836,6,0,B|114:71|114:71|88:227,1,215.999993408203,4|8,0:0|0:3,0:0:0:0:
199,306,55499,1,8,0:3:0:0:
306,117,55665,2,0,L|234:128,1,71.9999978027344,2|2,0:0|0:0,0:0:0:0:
289,244,55997,2,0,L|409:217,1,107.999996704102,0|0,1:0|0:0,0:0:0:0:
394,220,56328,5,4,0:0:0:0:
432,31,56494,1,4,0:3:0:0:
473,277,56660,1,4,0:3:0:0:
473,277,56991,2,0,L|324:253,1,143.999995605469,4|4,0:3|0:3,0:0:0:0:
169,109,57488,2,0,L|318:85,1,143.999995605469,4|4,0:3|0:3,0:0:0:0:
455,171,57986,1,4,0:3:0:0:
249,338,58151,5,0,0:0:0:0:
249,338,58234,1,0,0:0:0:0:
249,338,58317,2,0,L|253:277,3,35.9999989013672,8|8|8|8,0:3|0:3|0:3|0:3,0:0:0:0:
219,274,58649,2,0,L|347:279,1,107.999996704102,8|0,0:3|0:0,0:0:0:0:
346,270,58980,6,0,P|319:231|370:137,1,160,2|4,0:0|1:2,0:0:0:0:
483,152,59477,1,0,0:0:0:0:
386,37,59643,2,0,L|377:124,1,80,2|0,0:0|0:0,0:0:0:0:
443,253,59975,1,2,1:2:0:0:
273,108,60140,6,0,L|96:118,1,160,2|2,0:0|0:0,0:0:0:0:
7,240,60638,2,0,L|184:250,1,160,2|2,1:2|0:0,0:0:0:0:
283,183,61135,1,2,0:0:0:0:
384,263,61301,2,0,L|378:365,1,80,2|0,1:2|0:0,0:0:0:0:
452,173,61632,6,0,L|266:172,1,160,2|4,0:0|1:2,0:0:0:0:
154,144,62129,1,0,0:0:0:0:
211,313,62295,2,0,L|224:207,1,80,2|0,0:2|0:0,0:0:0:0:
84,261,62626,1,2,1:2:0:0:
307,353,62792,6,0,B|319:301|319:301|310:257|310:257|324:194,1,160,2|0,0:0|0:0,0:0:0:0:
236,55,63289,2,0,P|198:44|137:61,1,80,2|0,1:2|0:0,0:0:0:0:
143,203,63621,2,0,P|181:214|242:197,1,80,2|2,0:0|0:0,0:0:0:0:
315,109,63952,1,2,1:2:0:0:
109,128,64118,6,0,P|66:166|100:272,1,160,6|0,0:0|0:0,0:0:0:0:
192,321,64615,1,0,1:0:0:0:
192,321,64781,1,0,0:0:0:0:
291,188,64947,2,0,L|388:206,1,80,2|0,0:0|0:0,0:0:0:0:
377,319,65278,2,0,L|280:337,1,80,0|0,1:0|0:0,0:0:0:0:
194,211,65610,6,0,B|183:154|183:154|195:113|195:113|178:50,1,160,2|2,0:0|1:2,0:0:0:0:
119,246,66107,2,0,P|169:287|269:240,1,160,2|0,0:0|1:0,0:0:0:0:
426,155,66604,1,0,1:0:0:0:
284,176,66770,1,0,1:0:0:0:
284,176,66853,1,0,0:0:0:0:
284,176,66936,6,0,L|296:68,1,80,0|4,1:0|0:3,0:0:0:0:
365,251,67267,2,0,L|370:363,1,80,0|4,1:0|0:3,0:0:0:0:
257,262,67599,1,0,1:0:0:0:
366,155,67765,1,4,0:3:0:0:
466,262,67930,1,0,1:0:0:0:
252,357,68096,6,0,B|187:355|165:286|165:286|152:308|136:323,1,160,2|0,0:0|1:0,0:0:0:0:
141,317,68510,1,0,1:0:0:0:
141,317,68593,1,0,1:0:0:0:
307,194,68759,1,4,0:3:0:0:
307,194,68842,1,0,0:0:0:0:
307,194,68925,1,0,1:0:0:0:
177,196,69091,6,0,L|169:257,1,40,8|8,0:3|0:3,0:0:0:0:
96,139,69256,1,8,0:3:0:0:
76,104,69338,1,8,0:3:0:0:
75,64,69421,1,8,0:3:0:0:
92,29,69504,1,8,0:3:0:0:
125,6,69588,2,0,L|223:15,1,80,8|0,0:3|0:0,0:0:0:0:
390,129,69919,6,0,P|312:104|241:179,1,160,4|2,1:2|0:0,0:0:0:0:
272,288,70417,1,0,0:0:0:0:
413,267,70582,1,2,1:2:0:0:
326,183,70748,2,0,L|336:95,1,80,0|0,0:0|0:0,0:0:0:0:
255,28,71080,1,2,0:0:0:0:
89,207,71245,6,0,B|153:196|153:196|186:210|186:210|266:203,1,160,2|2,1:2|0:0,0:0:0:0:
316,297,71743,1,2,0:0:0:0:
155,364,71908,2,0,L|140:281,1,80,0|0,1:0|0:0,0:0:0:0:
230,48,72240,2,0,L|215:126,1,80,2|0,0:0|0:0,0:0:0:0:
241,262,72571,6,0,P|297:216|390:251,1,160,4|2,1:2|0:0,0:0:0:0:
458,311,73068,1,0,0:0:0:0:
315,295,73234,1,2,1:2:0:0:
475,135,73400,6,0,B|417:141|417:141|379:129|379:129|307:140,1,160,2|0,0:0|0:0,0:0:0:0:
149,128,73897,2,0,P|125:76|137:27,1,80,0|0,1:3|0:0,0:0:0:0:
239,150,74229,2,0,P|205:196|157:210,1,80,2|0,0:0|0:0,0:0:0:0:
226,66,74560,1,0,1:0:0:0:
268,279,74726,6,0,L|444:271,1,160,4|0,0:0|0:0,0:0:0:0:
233,352,75223,2,0,P|198:331|186:281,1,80,0|0,1:0|0:0,0:0:0:0:
246,113,75555,2,0,L|237:201,1,80,2|0,0:0|0:0,0:0:0:0:
362,260,75886,2,0,L|353:180,1,80,2|0,1:2|0:0,0:0:0:0:
157,55,76218,5,2,0:0:0:0:
235,193,76383,1,2,0:0:0:0:
349,89,76549,1,0,1:0:0:0:
157,55,76715,2,0,B|123:168|123:168|91:128,1,160,2|0,0:0|1:0,0:0:0:0:
96,135,77129,1,0,1:0:0:0:
96,135,77212,1,0,1:0:0:0:
256,50,77378,1,2,0:0:0:0:
426,173,77544,6,0,L|403:275,1,80,2|0,0:0|0:0,0:0:0:0:
165,293,77875,1,0,1:0:0:0:
241,175,78041,1,4,0:3:0:0:
335,338,78207,1,0,1:0:0:0:
242,260,78372,5,4,0:3:0:0:
348,140,78538,1,4,0:3:0:0:
386,128,78620,1,0,0:0:0:0:
424,116,78703,1,4,0:3:0:0:
462,105,78786,1,0,0:0:0:0:
490,93,78870,6,0,L|295:59,1,160,4|0,0:3|0:0,0:0:0:0:
161,87,79367,2,0,L|172:148,1,40,0|0,1:0|1:0,0:0:0:0:
219,234,79533,1,0,1:0:0:0:
428,204,79698,1,0,1:0:0:0:
428,204,80030,1,2,0:0:0:0:
436,297,80196,6,0,P|386:286|340:174,2,160,4|0|0,0:0|1:0|0:0,0:0:0:0:
511,217,81024,1,2,0:0:0:0:
369,99,81190,2,0,L|286:118,1,80,2|0,1:2|0:0,0:0:0:0:
125,177,81522,6,0,B|99:74|99:74|123:11,1,160,2|0,0:0|1:0,0:0:0:0:
211,175,82019,2,0,P|200:227|165:255,1,80,2|0,0:0|0:0,0:0:0:0:
189,77,82350,1,0,1:0:0:0:
189,77,82433,1,0,1:0:0:0:
189,77,82516,1,2,1:2:0:0:
313,111,82682,1,0,0:0:0:0:
182,245,82847,6,0,L|356:215,2,160,6|0|2,0:0|1:0|0:2,0:0:0:0:
89,342,83676,1,0,0:0:0:0:
92,161,83842,1,2,1:2:0:0:
261,189,84008,6,0,P|294:244|248:328,1,160,2|0,0:0|0:0,0:0:0:0:
136,241,84505,2,0,L|233:255,1,80,2|0,1:2|0:0,0:0:0:0:
384,111,84836,2,0,L|287:125,1,80,8|8,0:3|0:3,0:0:0:0:
246,341,85168,1,0,1:0:0:0:
279,319,85250,1,0,1:0:0:0:
301,286,85333,1,0,1:0:0:0:
308,247,85416,1,0,1:0:0:0:
298,208,85499,6,0,P|367:246|458:207,1,160,4|0,0:0|0:0,0:0:0:0:
279,109,85997,2,0,P|212:149|200:248,1,160,4|0,0:0|0:0,0:0:0:0:
377,146,86494,1,4,0:0:0:0:
256,192,86660,12,0,87654,0:0:0:0:
