osu file format v14

[General]
AudioFilename: audio.mp3
AudioLeadIn: 0
PreviewTime: 58400
Countdown: 0
SampleSet: Soft
StackLeniency: 0.4
Mode: 0
LetterboxInBreaks: 0
WidescreenStoryboard: 0

[Editor]
Bookmarks: 58980
DistanceSpacing: 1
BeatDivisor: 4
GridSize: 32
TimelineZoom: 1.9

[Metadata]
Title:Mirai no Bokura wa Shitteru yo
TitleUnicode:未来の僕らは知ってるよ
Artist:Aqours
ArtistUnicode:Aqours
Creator:StarrStyx
Version:Our Future
Source:Lovelive! Sunshine!!
Tags:ラブライブ!サンシャイン!! 2 opening anime tv size school idol project Inami Anju 伊波杏樹 Aida Rikako 逢田梨香子 Suwa Nanaka 諏訪ななか Komiya Arisa 小宮有紗 Saito Shuka 斉藤朱夏 Kobayashi Aika 小林愛香 Takatsuki Kanako 高槻かなこ Suzuki Aina 鈴木愛奈 Furihata Ai 降幡 愛 Takami Chika 高海千歌 Sakurauchi Riko 桜内梨子 Matsuura Kanan 松浦果南 Kurosawa Dia 黒澤ダイヤ Watanabe You 渡辺 曜 Tsushima Yoshiko 津島善子 Kunikida Hanamaru 国木田花丸 Ohara Mari 小原鞠莉 Kurosawa Ruby 黒澤ルビィ Sekai Sekaii Sekai-nyan CloudSplash16 Little Kisses Underdogs My Angel
BeatmapID:1437218
BeatmapSetID:679650

[Difficulty]
HPDrainRate:7
CircleSize:4
OverallDifficulty:8.3
ApproachRate:9.2
SliderMultiplier:1.76
SliderTickRate:1

[Events]
//Background and Video events
Video,-700,"opening.avi"
0,0,"llss_bg2.jpg",0,0
//Break Periods
//Storyboard Layer 0 (Background)
//Storyboard Layer 1 (Fail)
//Storyboard Layer 2 (Pass)
//Storyboard Layer 3 (Foreground)
//Storyboard Sound Samples

[TimingPoints]
1964,331.491712707182,4,2,1,50,1,0
1964,-133.333333333333,4,2,1,50,0,0
7267,-133.333333333333,4,2,1,60,0,0
8593,-100,4,2,1,70,0,0
15223,-100,4,2,1,80,0,0
20527,-125,4,2,1,60,0,0
28483,-100,4,2,1,65,0,0
29975,-100,4,2,1,75,0,0
31135,-100,4,2,1,60,0,0
39091,-100,4,2,1,75,0,0
43068,-125,4,2,1,55,0,0
47046,-125,4,2,1,70,0,0
47709,-83.3333333333333,4,2,1,80,0,0
48372,-100,4,2,1,70,0,0
51024,-100,4,2,1,75,0,0
53676,-100,4,2,1,80,0,0
55665,-83.3333333333333,4,2,1,80,0,0
56328,-83.3333333333333,4,2,1,90,0,0
58980,-125,4,2,1,65,0,1
59312,-83.3333333333333,4,2,1,75,0,1
61632,-125,4,2,1,65,0,1
61963,-83.3333333333333,4,2,1,75,0,1
66936,-83.3333333333333,4,2,1,85,0,1
69588,-125,4,2,1,65,0,0
69919,-83.3333333333333,4,2,1,75,0,1
72240,-125,4,2,1,65,0,1
72571,-83.3333333333333,4,2,1,75,0,1
78870,-125,4,2,1,60,0,1
79533,-83.3333333333333,4,2,1,75,0,1
80196,-100,4,2,1,75,0,1
86494,-71.4285714285714,4,2,1,75,0,0
87323,-71.4285714285714,4,2,1,85,0,0

[Colours]
Combo1 : 255,81,81
Combo2 : 255,104,32
Combo3 : 255,128,255
Combo4 : 72,255,255

[HitObjects]
207,103,1964,6,0,B|263:50|263:50|330:136|241:230,1,264.000010070801,4|0,0:0|0:0,0:0:0:0:
250,219,2958,2,0,P|286:223|321:210,1,66.0000025177003,2|2,0:0|0:0,0:0:0:0:
379,158,3289,1,0,0:0:0:0:
461,180,3455,1,0,0:0:0:0:
482,262,3621,1,0,0:0:0:0:
421,321,3787,1,0,0:0:0:0:
349,259,3952,2,0,P|324:317|347:381,1,132.000005035401,2|2,0:0|0:0,0:0:0:0:
345,379,4615,6,0,L|199:367,1,132.000005035401,2|0,0:0|0:0,0:0:0:0:
148,237,5113,2,0,P|148:302|104:349,1,132.000005035401,2|0,0:0|0:0,0:0:0:0:
43,215,5610,2,0,L|189:203,1,132.000005035401,2|0,0:0|0:0,0:0:0:0:
232,140,6107,1,0,0:0:0:0:
318,136,6273,1,2,0:0:0:0:
381,193,6439,1,2,0:0:0:0:
460,166,6604,2,0,P|469:136|458:98,1,66.0000025177003,2|0,0:0|0:0,0:0:0:0:
381,193,6936,2,0,P|373:224|382:256,1,66.0000025177003,2|0,0:0|0:0,0:0:0:0:
474,326,7267,6,0,P|424:291|347:305,1,132.000005035401,2|2,0:0|0:0,0:0:0:0:
280,353,7765,1,2,0:0:0:0:
205,298,7930,2,0,L|115:308,1,66.0000025177003,0|0,0:0|0:0,0:0:0:0:
61,217,8262,2,0,L|126:209,1,66.0000025177003,0|0,0:0|0:0,0:0:0:0:
260,87,8593,6,0,B|209:89|186:126|186:126|150:97|96:111,1,176,4|0,0:0|0:0,0:0:0:0:
310,174,9091,1,8,0:3:0:0:
310,174,9173,1,8,0:3:0:0:
310,174,9256,2,0,P|359:105|327:13,1,176,8|2,0:3|0:0,0:0:0:0:
456,164,9754,1,2,0:0:0:0:
336,319,9919,5,4,0:0:0:0:
256,192,10002,12,0,11080,0:0:0:0:
367,303,11245,5,4,0:0:0:0:
367,303,11743,1,0,1:0:0:0:
367,303,12240,1,0,1:0:0:0:
110,95,12571,5,4,0:3:0:0:
110,95,12737,1,4,0:3:0:0:
110,95,12903,1,4,0:3:0:0:
110,95,13068,1,4,0:3:0:0:
196,331,13234,5,0,1:0:0:0:
110,95,13400,1,0,1:0:0:0:
0,248,13566,1,0,1:0:0:0:
130,179,13731,6,0,P|173:175|212:196,1,88,4|0,0:0|0:0,0:0:0:0:
0,248,14063,1,4,0:3:0:0:
196,331,14229,1,4,0:3:0:0:
330,192,14394,5,0,1:0:0:0:
364,166,14476,1,0,1:0:0:0:
410,166,14559,1,0,1:0:0:0:
446,190,14642,1,0,1:0:0:0:
457,232,14725,1,0,1:0:0:0:
441,273,14808,1,0,1:0:0:0:
405,299,14892,2,0,L|309:285,1,88,0|0,1:0|0:0,0:0:0:0:
86,165,15223,6,0,P|141:124|215:138,1,132,6|0,0:2|0:0,0:0:0:0:
228,144,15555,1,0,1:0:0:0:
110,250,15720,2,0,L|-4:236,1,88,2|0,0:0|0:0,0:0:0:0:
23,239,16052,1,2,0:0:0:0:
194,364,16218,1,0,1:0:0:0:
312,243,16383,6,0,P|375:217|443:250,1,132,2|0,0:0|0:0,0:0:0:0:
454,259,16715,1,0,0:0:0:0:
278,125,16881,1,0,1:0:0:0:
450,50,17046,2,0,L|439:143,1,88,2|0,0:0|0:0,0:0:0:0:
214,185,17378,5,0,1:0:0:0:
193,146,17460,1,0,1:0:0:0:
194,102,17543,1,0,1:0:0:0:
214,64,17626,1,0,1:0:0:0:
250,40,17709,1,0,1:0:0:0:
278,125,17875,5,0,1:0:0:0:
174,275,18041,1,0,1:0:0:0:
174,275,18124,1,0,1:0:0:0:
174,275,18207,1,0,1:0:0:0:
347,384,18372,1,2,0:0:0:0:
347,384,18704,5,2,0:0:0:0:
68,292,18870,1,2,0:0:0:0:
278,125,19035,1,4,0:0:0:0:
256,192,19118,12,0,20196,0:0:0:0:
158,216,20527,6,0,P|192:214|225:226,1,70.4,4|0,0:0|0:0,0:0:0:0:
297,177,20859,1,2,1:2:0:0:
365,227,21024,2,0,P|431:237|484:187,1,140.8,2|0,0:0|0:0,0:0:0:0:
407,80,21522,1,0,1:0:0:0:
407,80,21853,6,0,P|416:113|398:161,1,70.4,2|0,0:0|0:0,0:0:0:0:
351,210,22184,1,2,1:2:0:0:
284,158,22350,2,0,P|221:132|144:147,1,140.8,2|0,0:0|0:0,0:0:0:0:
63,99,22847,2,0,L|56:185,1,70.4,0|0,1:0|0:0,0:0:0:0:
227,363,23179,6,0,L|215:222,1,140.8,2|0,0:0|1:0,0:0:0:0:
215,222,23676,1,0,0:0:0:0:
151,143,23842,2,0,P|132:185|142:216,1,70.4,2|0,0:0|0:0,0:0:0:0:
310,276,24173,2,0,P|313:241|295:211,1,70.4,2|0,1:2|0:0,0:0:0:0:
268,99,24505,6,0,L|350:110,1,70.4,2|0,0:0|0:0,0:0:0:0:
337,108,24836,1,0,1:0:0:0:
204,150,25002,2,0,P|187:83|227:27,1,140.8,2|0,0:0|0:0,0:0:0:0:
268,99,25499,1,2,1:2:0:0:
111,319,25831,5,4,0:0:0:0:
111,319,26162,2,0,L|100:247,1,70.4,2|0,1:2|0:0,0:0:0:0:
217,219,26494,2,0,L|227:149,1,70.4,2|0,0:0|0:0,0:0:0:0:
183,51,26825,1,0,1:0:0:0:
328,164,26991,1,2,0:0:0:0:
136,226,27157,6,0,P|103:225|61:197,1,70.4,2|0,0:0|0:0,0:0:0:0:
70,207,27488,1,2,1:2:0:0:
227,149,27654,2,0,P|250:208|213:286,1,140.8,2|0,0:0|0:0,0:0:0:0:
328,164,28151,1,0,1:0:0:0:
158,89,28317,1,2,0:2:0:0:
288,26,28483,6,0,B|357:32|357:32|385:50|385:50|475:58,1,176,2|0,0:0|1:0,0:0:0:0:
299,197,28980,2,0,P|288:155|321:112,1,88,2|0,0:0|0:0,0:0:0:0:
431,211,29312,1,0,1:0:0:0:
455,246,29394,1,0,1:0:0:0:
461,290,29477,1,0,1:0:0:0:
445,330,29560,1,0,1:0:0:0:
413,359,29643,1,0,1:0:0:0:
413,359,29975,6,0,L|458:352,1,44,2|0,0:0|0:0,0:0:0:0:
222,261,30140,2,0,L|177:253,1,44,2|0,0:0|0:0,0:0:0:0:
384,164,30306,2,0,L|428:156,1,44,2|0,0:0|0:0,0:0:0:0:
269,22,30638,6,0,P|297:94|240:169,1,176,4|0,0:3|0:0,0:0:0:0:
102,116,31135,6,0,L|114:18,1,88,6|0,0:0|0:0,0:0:0:0:
243,167,31466,1,2,1:2:0:0:
127,204,31632,2,0,P|83:198|43:214,1,88,2|0,0:0|0:0,0:0:0:0:
232,261,31963,1,0,0:0:0:0:
204,81,32129,1,2,1:2:0:0:
204,81,32461,6,0,P|249:96|300:88,1,88,2|0,0:0|0:0,0:0:0:0:
402,32,32792,1,2,1:2:0:0:
470,201,32958,2,0,P|397:149|313:169,1,176,2|0,0:0|0:0,0:0:0:0:
381,305,33455,2,0,P|406:273|380:243,1,88,2|0,1:2|0:0,0:0:0:0:
260,303,33787,6,0,B|198:294|198:294|151:313|151:313|75:302,1,176,2|0,0:0|1:0,0:0:0:0:
88,304,34284,1,0,0:0:0:0:
227,180,34450,2,0,P|236:225|204:268,1,88,2|0,0:0|0:0,0:0:0:0:
75,162,34781,2,0,P|54:124|63:82,1,88,2|0,1:2|0:0,0:0:0:0:
155,17,35113,6,0,L|242:28,1,88,2|0,0:0|0:0,0:0:0:0:
242,28,35444,1,0,1:0:0:0:
164,162,35610,2,0,L|354:152,1,176,2|0,0:0|1:0,0:0:0:0:
415,209,36024,1,0,1:0:0:0:
415,209,36107,2,0,P|431:168|428:124,1,88,0|0,1:0|0:0,0:0:0:0:
321,187,36439,6,0,L|329:281,1,88,4|0,0:0|0:0,0:0:0:0:
243,118,36770,2,0,L|202:203,1,88,2|0,1:2|0:0,0:0:0:0:
279,33,37102,2,0,L|78:50,1,176,2|0,0:0|1:0,0:0:0:0:
103,48,37599,1,2,0:0:0:0:
3,223,37765,6,0,P|83:171|163:198,1,176,2|2,0:0|1:2,0:0:0:0:
244,270,38262,2,0,P|327:288|396:238,1,176,2|0,0:0|0:0,0:0:0:0:
445,123,38759,1,2,1:2:0:0:
285,87,38925,1,2,0:0:0:0:
396,237,39091,5,4,0:0:0:0:
339,33,39256,1,8,0:3:0:0:
339,33,39339,1,8,0:3:0:0:
339,33,39422,1,8,0:3:0:0:
174,157,39588,2,0,P|83:177|14:117,1,176,4|0,0:0|1:0,0:0:0:0:
20,130,40002,1,0,1:0:0:0:
20,130,40085,1,0,1:0:0:0:
183,347,40251,1,4,0:0:0:0:
263,26,40582,5,0,1:0:0:0:
372,222,40748,1,0,1:0:0:0:
130,86,40914,1,0,1:0:0:0:
378,134,41080,1,0,1:0:0:0:
103,251,41245,1,8,0:3:0:0:
103,251,41328,1,8,0:3:0:0:
103,251,41411,1,8,0:3:0:0:
375,341,41577,1,0,1:0:0:0:
244,151,41743,6,0,L|255:259,1,88,0|0,1:0|1:0,0:0:0:0:
260,277,41991,1,0,1:0:0:0:
260,277,42074,1,0,1:0:0:0:
86,82,42240,1,2,1:2:0:0:
86,82,42571,2,0,P|137:100|182:87,1,88,0|0,1:0|0:0,0:0:0:0:
236,33,42903,1,0,0:0:0:0:
319,17,43068,6,0,L|476:34,1,140.8,4|0,0:0|0:0,0:0:0:0:
361,113,43566,1,2,0:0:0:0:
427,182,43731,2,0,P|432:216|420:256,1,70.4,2|0,0:0|0:0,0:0:0:0:
361,113,44063,2,0,P|352:79|357:44,1,70.4,0|0,1:0|0:0,0:0:0:0:
293,187,44394,6,0,P|260:195|211:186,1,70.4,2|0,0:0|0:0,0:0:0:0:
163,131,44726,1,0,0:0:0:0:
82,110,44892,1,2,0:0:0:0:
9,152,45057,2,0,L|16:233,1,70.4,2|0,0:0|0:0,0:0:0:0:
96,267,45389,2,0,L|89:348,1,70.4,0|0,1:0|0:0,0:0:0:0:
175,212,45720,6,0,P|233:245|307:230,1,140.8,2|0,0:0|0:0,0:0:0:0:
380,166,46218,1,2,0:0:0:0:
380,166,46383,2,0,P|353:189|340:229,1,70.4,2|0,0:0|0:0,0:0:0:0:
345,315,46715,2,0,P|364:345|394:363,1,70.4,0|2,1:0|0:0,0:0:0:0:
454,260,47046,5,0,1:0:0:0:
281,167,47212,1,0,1:0:0:0:
281,167,47295,1,0,1:0:0:0:
281,167,47378,1,0,1:0:0:0:
458,71,47544,1,0,1:0:0:0:
281,167,47709,6,0,P|238:196|185:185,1,105.599996777344,4|0,0:3|0:0,0:0:0:0:
121,116,48041,2,0,P|78:87|25:98,1,105.599996777344,4|0,0:3|0:0,0:0:0:0:
4,259,48372,6,0,P|53:261|107:277,1,88,4|0,0:0|0:0,0:0:0:0:
187,346,48704,2,0,P|236:344|290:328,1,88,2|0,1:2|0:0,0:0:0:0:
394,209,49035,1,2,0:0:0:0:
206,233,49201,1,2,0:0:0:0:
372,355,49367,1,2,1:2:0:0:
483,171,49533,6,0,P|429:121|326:138,1,176,2|0,0:0|0:0,0:0:0:0:
206,233,50030,1,0,1:0:0:0:
263,166,50196,2,0,P|282:127|274:73,1,88,2|0,0:0|0:0,0:0:0:0:
112,55,50527,1,0,1:0:0:0:
112,55,50610,1,0,1:0:0:0:
112,55,50693,2,0,L|117:152,1,88,0|2,1:0|0:0,0:0:0:0:
52,344,51024,5,4,0:0:0:0:
248,374,51190,1,0,0:0:0:0:
38,244,51356,5,0,1:0:0:0:
267,258,51522,1,4,0:3:0:0:
5,150,51687,5,0,1:0:0:0:
256,132,51853,1,4,0:3:0:0:
22,54,52019,5,0,1:0:0:0:
265,4,52185,1,4,0:3:0:0:
144,232,52350,6,0,L|57:218,1,88,0|4,1:0|0:3,0:0:0:0:
294,125,52682,1,0,1:0:0:0:
376,287,52847,2,0,P|379:331|364:372,1,88,4|0,0:3|1:3,0:0:0:0:
294,125,53179,1,0,1:0:0:0:
294,125,53262,1,0,1:0:0:0:
294,125,53345,1,0,1:0:0:0:
495,77,53510,1,0,1:0:0:0:
201,312,53676,5,4,0:0:0:0:
512,281,53842,1,4,0:3:0:0:
330,51,54008,1,4,0:3:0:0:
393,367,54173,1,4,0:0:0:0:
393,367,54505,5,4,0:3:0:0:
322,73,54671,1,4,0:3:0:0:
142,222,54836,2,0,P|57:227|1:163,1,176,4|8,0:0|0:3,0:0:0:0:
178,54,55334,1,8,0:3:0:0:
205,38,55416,1,8,0:3:0:0:
236,33,55499,1,8,0:3:0:0:
267,37,55582,1,8,0:3:0:0:
295,53,55665,6,0,P|346:80|401:64,1,105.599996777344,2|2,0:0|0:0,0:0:0:0:
264,187,55914,1,2,0:0:0:0:
264,187,55997,2,0,L|431:175,1,158.399995166016,0|0,1:0|0:0,0:0:0:0:
448,172,56328,6,0,L|436:228,1,52.7999983886719,4|0,0:0|0:0,0:0:0:0:
271,313,56494,2,0,L|228:274,1,52.7999983886719,4|0,0:3|0:0,0:0:0:0:
313,98,56660,2,0,L|367:80,1,52.7999983886719,4|0,0:0|0:0,0:0:0:0:
78,189,56991,5,4,0:3:0:0:
391,384,57323,5,4,0:3:0:0:
331,289,57488,2,0,P|318:243|348:189,1,105.599996777344,4|0,0:0|0:0,0:0:0:0:
417,127,57820,1,4,0:3:0:0:
214,226,57986,2,0,L|46:199,1,158.399995166016,4|0,0:0|0:0,0:0:0:0:
45,51,58317,1,8,0:3:0:0:
69,81,58399,1,8,0:3:0:0:
104,100,58482,1,8,0:3:0:0:
143,104,58565,1,8,0:3:0:0:
181,93,58649,2,0,P|231:77|276:102,1,105.599996777344,8|8,0:3|0:3,0:0:0:0:
334,198,58980,6,0,P|375:184|427:217,1,105.6,2|0,0:0|0:0,0:0:0:0:
500,249,59312,6,0,L|383:259,1,105.599996777344,4|0,1:2|0:0,0:0:0:0:
276,337,59643,2,0,L|159:327,1,105.599996777344,2|0,0:0|0:0,0:0:0:0:
62,219,59975,1,2,1:2:0:0:
200,34,60140,6,0,B|222:51|269:56|269:56|199:117|239:185,1,211.199993554688,2|2,0:0|0:0,0:0:0:0:
407,119,60638,2,0,P|354:119|304:135,1,105.599996777344,2|0,1:2|0:0,0:0:0:0:
162,240,60969,2,0,P|114:220|62:218,1,105.599996777344,2|2,0:0|0:0,0:0:0:0:
256,294,61301,2,0,P|304:272|357:272,1,105.599996777344,0|2,1:0|0:0,0:0:0:0:
462,327,61632,6,0,P|445:280|481:240,1,105.6,2|0,0:0|0:0,0:0:0:0:
483,198,61963,6,0,L|377:205,1,105.599996777344,4|0,1:2|0:0,0:0:0:0:
324,59,62295,2,0,L|218:51,1,105.599996777344,2|0,0:2|0:0,0:0:0:0:
97,146,62626,1,2,1:2:0:0:
252,289,62792,6,0,B|312:248|257:160|257:160|249:195|211:218,1,211.199993554688,2|0,0:0|0:0,0:0:0:0:
358,322,63289,2,0,P|380:273|367:218,1,105.599996777344,2|0,1:2|0:0,0:0:0:0:
181,121,63621,2,0,P|186:174|225:215,1,105.599996777344,2|2,0:0|0:0,0:0:0:0:
430,67,63952,1,2,1:2:0:0:
430,67,64118,6,0,B|275:51|275:51|332:92,1,211.199993554688,6|0,0:0|0:0,0:0:0:0:
468,210,64615,2,0,P|414:202|367:226,1,105.599996777344,0|0,1:0|0:0,0:0:0:0:
258,364,64947,1,2,0:0:0:0:
430,299,65113,1,0,0:0:0:0:
254,118,65278,2,0,P|222:159|240:212,1,105.599996777344,0|0,1:0|0:0,0:0:0:0:
304,292,65610,5,2,0:0:0:0:
402,124,65776,1,2,0:0:0:0:
214,26,65941,1,2,1:2:0:0:
67,182,66107,2,0,B|198:165|198:165|160:187|153:226,1,211.199993554688,2|0,0:0|1:0,0:0:0:0:
240,242,66522,1,0,0:0:0:0:
240,242,66604,2,0,P|277:206|284:155,1,105.599996777344,0|0,1:0|1:0,0:0:0:0:
178,14,66936,5,0,1:0:0:0:
397,47,67102,1,4,0:3:0:0:
103,126,67267,5,0,1:0:0:0:
351,130,67433,1,4,0:3:0:0:
131,256,67599,5,0,1:0:0:0:
386,223,67765,1,4,0:3:0:0:
105,381,67930,5,0,1:0:0:0:
412,320,68096,2,0,P|481:239|425:129,1,211.199993554688,2|0,0:0|1:0,0:0:0:0:
375,108,68510,1,0,1:0:0:0:
375,108,68593,2,0,P|431:109|470:76,1,105.599996777344,0|4,1:0|0:3,0:0:0:0:
296,227,68925,1,0,1:0:0:0:
227,119,69091,5,8,0:3:0:0:
197,100,69173,1,8,0:3:0:0:
162,96,69256,1,8,0:3:0:0:
128,105,69339,1,8,0:3:0:0:
102,129,69422,1,8,0:3:0:0:
72,148,69504,1,8,0:3:0:0:
37,152,69588,6,0,P|54:110|116:119,1,105.6,8|0,0:3|0:0,0:0:0:0:
169,177,69919,6,0,L|302:166,1,105.599996777344,4|0,1:2|0:0,0:0:0:0:
449,299,70251,2,0,L|316:288,1,105.599996777344,2|0,0:0|0:0,0:0:0:0:
274,168,70582,1,2,1:2:0:0:
400,47,70748,6,0,B|448:8|448:8|497:86|416:146,1,211.199993554688,0|2,0:0|0:0,0:0:0:0:
274,168,71245,2,0,P|260:117|288:63,1,105.599996777344,2|0,1:2|0:0,0:0:0:0:
499,178,71577,2,0,P|461:215|401:218,1,105.599996777344,2|2,0:0|0:0,0:0:0:0:
201,180,71908,2,0,P|252:193|284:244,1,105.599996777344,0|0,1:0|0:0,0:0:0:0:
187,292,72240,6,0,L|67:284,1,105.6,2|0,0:0|0:0,0:0:0:0:
23,235,72571,6,0,P|77:243|126:222,1,105.599996777344,4|0,1:2|0:0,0:0:0:0:
230,115,72903,2,0,P|284:107|333:128,1,105.599996777344,2|0,0:0|0:0,0:0:0:0:
474,37,73234,1,2,1:2:0:0:
320,217,73400,6,0,B|373:219|411:172|411:172|432:231|496:242,1,211.199993554688,2|0,0:0|0:0,0:0:0:0:
367,45,73897,2,0,P|327:75|331:126,1,105.599996777344,0|0,1:3|0:0,0:0:0:0:
449,310,74229,2,0,L|336:294,1,105.599996777344,2|0,0:0|0:0,0:0:0:0:
55,192,74560,1,0,1:0:0:0:
55,192,74726,6,0,B|206:174|206:174|171:187|156:222,1,211.199993554688,4|0,0:0|0:0,0:0:0:0:
287,98,75223,2,0,P|242:64|187:59,1,105.599996777344,0|0,1:0|0:0,0:0:0:0:
350,210,75555,2,0,P|405:216|456:193,1,105.599996777344,2|0,0:0|0:0,0:0:0:0:
232,251,75886,2,0,P|198:296|192:351,1,105.599996777344,2|0,1:2|0:0,0:0:0:0:
100,212,76218,5,2,0:0:0:0:
100,212,76383,2,0,P|66:173|15:166,1,105.599996777344,2|0,0:0|1:0,0:0:0:0:
149,51,76715,2,0,B|211:51|234:98|234:98|281:62|352:86,1,211.199993554688,2|0,0:0|1:0,0:0:0:0:
419,49,77129,1,0,1:0:0:0:
419,49,77212,2,0,P|425:104|386:153,1,105.599996777344,0|2,1:0|0:0,0:0:0:0:
272,213,77544,6,0,L|453:233,1,158.399995166016,2|0,0:0|0:0,0:0:0:0:
460,234,77875,1,0,1:0:0:0:
249,364,78041,1,4,0:3:0:0:
398,144,78207,1,0,1:0:0:0:
451,333,78372,1,4,0:3:0:0:
208,162,78538,5,4,0:3:0:0:
228,143,78620,1,0,0:0:0:0:
254,133,78703,1,4,0:3:0:0:
281,131,78786,1,0,0:0:0:0:
308,138,78870,2,0,P|338:80|303:16,1,140.8,4|0,0:3|0:0,0:0:0:0:
163,110,79367,5,0,1:0:0:0:
163,110,79450,1,0,1:0:0:0:
163,110,79533,2,0,L|173:223,1,105.599996777344,0|0,1:0|1:0,0:0:0:0:
172,215,80030,1,2,0:0:0:0:
172,215,80196,6,0,P|90:178|11:207,2,176,4|0|0,0:0|1:0|0:0,0:0:0:0:
281,131,81024,1,2,0:0:0:0:
421,206,81190,2,0,P|439:165|425:115,1,88,2|0,1:2|0:0,0:0:0:0:
310,42,81522,6,0,L|297:220,1,176,2|0,0:0|1:0,0:0:0:0:
64,197,82019,2,0,P|130:149|222:182,1,176,2|0,0:0|1:0,0:0:0:0:
113,257,82433,1,0,1:0:0:0:
113,257,82516,2,0,L|6:243,1,88,2|0,1:2|0:0,0:0:0:0:
257,311,82847,6,0,B|349:277|349:358|445:323,1,176,6|0,0:0|1:0,0:0:0:0:
280,207,83345,1,2,0:0:0:0:
422,120,83510,2,0,P|424:161|408:220,1,88,2|0,0:2|0:0,0:0:0:0:
299,40,83842,1,2,1:2:0:0:
166,117,84008,6,0,P|77:134|0:79,1,176,2|0,0:0|0:0,0:0:0:0:
105,210,84505,2,0,P|116:243|89:301,1,88,2|0,1:2|0:0,0:0:0:0:
241,314,84836,1,8,0:3:0:0:
268,292,84918,1,8,0:3:0:0:
303,285,85001,1,8,0:3:0:0:
335,296,85084,1,8,0:3:0:0:
369,318,85168,1,0,1:0:0:0:
404,339,85250,1,0,1:0:0:0:
444,341,85333,1,0,1:0:0:0:
481,323,85416,1,0,1:0:0:0:
512,282,85499,5,4,0:0:0:0:
283,37,85997,5,4,0:0:0:0:
109,359,86494,6,0,B|132:272|89:223|-25:268|-10:198|6:128|54:103|101:140|101:140|123:91|194:97|243:146|210:220|137:226|149:304,1,615.999981201172,4|0,0:0|1:0,0:0:0:0:
147,287,87405,1,0,1:0:0:0:
147,287,87488,1,0,1:0:0:0:
354,131,87654,1,4,1:2:0:0:
