osu file format v14

[General]
AudioFilename: audio.mp3
AudioLeadIn: 0
PreviewTime: 58400
Countdown: 0
SampleSet: Soft
StackLeniency: 0.7
Mode: 0
LetterboxInBreaks: 0
WidescreenStoryboard: 0

[Editor]
DistanceSpacing: 1
BeatDivisor: 4
GridSize: 4
TimelineZoom: 1.9

[Metadata]
Title:Mirai no Bokura wa Shitteru yo
TitleUnicode:未来の僕らは知ってるよ
Artist:Aqours
ArtistUnicode:Aqours
Creator:StarrStyx
Version:My Angel Kanan's Easy
Source:Lovelive! Sunshine!!
Tags:ラブライブ!サンシャイン!! 2 opening anime tv size school idol project Inami Anju 伊波杏樹 Aida Rikako 逢田梨香子 Suwa Nanaka 諏訪ななか Komiya Arisa 小宮有紗 Saito Shuka 斉藤朱夏 Kobayashi Aika 小林愛香 Takatsuki Kanako 高槻かなこ Suzuki Aina 鈴木愛奈 Furihata Ai 降幡 愛 Takami Chika 高海千歌 Sakurauchi Riko 桜内梨子 Matsuura Kanan 松浦果南 Kurosawa Dia 黒澤ダイヤ Watanabe You 渡辺 曜 Tsushima Yoshiko 津島善子 Kunikida Hanamaru 国木田花丸 Ohara Mari 小原鞠莉 Kurosawa Ruby 黒澤ルビィ Sekai Sekaii Sekai-nyan CloudSplash16 Little Kisses Underdogs My Angel
BeatmapID:1437291
BeatmapSetID:679650

[Difficulty]
HPDrainRate:2
CircleSize:3
OverallDifficulty:2
ApproachRate:3
SliderMultiplier:0.8
SliderTickRate:1

[Events]
//Background and Video events
Video,-700,"opening.avi"
0,0,"llss_bg2.jpg",0,0
//Break Periods
//Storyboard Layer 0 (Background)
//Storyboard Layer 1 (Fail)
//Storyboard Layer 2 (Pass)
//Storyboard Layer 3 (Foreground)
//Storyboard Sound Samples

[TimingPoints]
1964,331.491712707182,4,2,1,50,1,0
7267,-100,4,2,1,60,0,0
8593,-100,4,2,1,70,0,0
15223,-100,4,2,1,80,0,0
20527,-100,4,2,1,60,0,0
28483,-100,4,2,1,65,0,0
29975,-100,4,2,1,75,0,0
31135,-100,4,2,1,60,0,0
39091,-100,4,2,1,75,0,0
43068,-100,4,2,1,55,0,0
47046,-100,4,2,1,70,0,0
47709,-100,4,2,1,80,0,0
48372,-100,4,2,1,70,0,0
51024,-100,4,2,1,75,0,0
53676,-100,4,2,1,80,0,0
56328,-100,4,2,1,90,0,0
58980,-100,4,2,1,65,0,1
59312,-100,4,2,1,75,0,1
61632,-100,4,2,1,65,0,1
61963,-100,4,2,1,75,0,1
66936,-100,4,2,1,85,0,1
69588,-100,4,2,1,65,0,1
69919,-100,4,2,1,75,0,1
72240,-100,4,2,1,65,0,1
72571,-100,4,2,1,75,0,1
78870,-100,4,2,1,60,0,1
79533,-100,4,2,1,75,0,1
80196,-100,4,2,1,75,0,0
87323,-100,4,2,1,85,0,0

[Colours]
Combo1 : 255,81,81
Combo2 : 255,104,32
Combo3 : 255,128,255
Combo4 : 72,255,255

[HitObjects]
392,325,1964,6,0,P|412:245|391:166,1,160,4|0,0:0|0:0,0:0:0:0:
348,101,2958,1,2,0:0:0:0:
286,49,3289,2,0,L|117:41,1,160,0|2,0:0|0:0,0:0:0:0:
54,184,4615,2,0,P|76:253|73:309,2,120,2|2|2,0:0|0:0|0:0,0:0:0:0:
287,238,6604,6,0,P|326:241|377:232,1,80,2|2,0:0|0:0,0:0:0:0:
431,186,7267,2,0,P|415:124|431:15,1,160,2|0,0:0|0:0,0:0:0:0:
265,29,8593,2,0,B|192:28|144:51|144:51|96:22|28:28,1,240,4|2,0:0|0:0,0:0:0:0:
21,106,9919,6,0,L|16:270,1,160,4|0,0:0|0:0,0:0:0:0:
173,297,11245,2,0,P|248:276|338:298,1,160,4|0,0:0|0:0,0:0:0:0:
405,307,12240,1,0,1:0:0:0:
458,246,12571,6,0,P|446:179|464:79,1,160,4|0,0:3|1:0,0:0:0:0:
359,23,13731,2,0,P|296:31|234:24,1,120,4|4,0:0|0:3,0:0:0:0:
172,70,14560,2,0,P|135:62|87:69,1,80,0|0,1:0|1:0,0:0:0:0:
27,113,15223,6,0,P|56:186|41:264,1,160,6|0,0:2|0:0,0:0:0:0:
81,335,16218,1,0,1:0:0:0:
143,285,16549,2,0,L|239:286,1,80,0|0,0:0|1:0,0:0:0:0:
302,298,17212,2,0,L|389:297,1,80,0|0,0:0|1:0,0:0:0:0:
461,284,17875,6,0,L|463:157,1,120,0|2,1:0|0:0,0:0:0:0:
433,89,18704,1,2,0:0:0:0:
364,47,19035,2,0,B|294:60|254:107|254:107|216:60|149:51,1,240,4|0,0:0|0:0,0:0:0:0:
38,57,20527,6,0,P|54:135|34:219,1,160,4|0,0:0|0:0,0:0:0:0:
197,211,21853,2,0,P|181:133|201:49,1,160,2|0,0:0|0:0,0:0:0:0:
271,24,22847,1,0,1:0:0:0:
345,54,23179,6,0,B|372:133|344:210,1,160,2|2,0:0|0:0,0:0:0:0:
303,279,24173,1,2,1:2:0:0:
225,259,24505,2,0,L|56:253,1,160,2|0,0:0|0:0,0:0:0:0:
193,348,25831,5,4,0:0:0:0:
272,352,26162,2,0,P|343:319|421:341,1,160,2|0,1:2|1:0,0:0:0:0:
444,263,27157,2,0,L|443:92,1,160,2|0,0:0|0:0,0:0:0:0:
392,41,28151,1,0,1:0:0:0:
313,54,28483,6,0,B|239:29|185:51|185:51|127:71|63:48,1,240,2|0,0:0|1:0,0:0:0:0:
31,163,29975,2,0,L|28:251,2,80,2|2|4,0:0|0:0|0:3,0:0:0:0:
148,186,31135,6,0,P|226:200|304:184,1,160,6|0,0:0|0:0,0:0:0:0:
299,23,32461,2,0,P|221:6|142:21,1,160,2|0,0:0|0:0,0:0:0:0:
79,69,33455,1,2,1:2:0:0:
130,130,33787,6,0,L|123:302,1,160,2|2,0:0|0:0,0:0:0:0:
178,347,34781,1,2,1:2:0:0:
238,294,35113,2,0,L|243:170,2,120,2|2|0,0:0|0:0|1:0,0:0:0:0:
303,339,36439,5,4,0:0:0:0:
373,300,36770,2,0,L|375:211,1,80,2|2,1:2|0:0,0:0:0:0:
375,139,37433,1,0,1:0:0:0:
358,60,37765,2,0,B|316:41|316:41|249:62|198:44,1,160,2|0,0:0|0:0,0:0:0:0:
127,23,38759,1,2,1:2:0:0:
63,72,39091,6,0,P|24:153|71:245,1,200,4|0,0:0|1:0,0:0:0:0:
56,323,40251,2,0,P|115:335|184:311,1,120,4|0,0:0|1:0,0:0:0:0:
191,241,41080,2,0,P|181:199|200:159,1,80,0|8,1:0|0:3,0:0:0:0:
271,143,41743,2,0,P|285:88|276:10,2,120,0|2|0,1:0|1:2|0:0,0:0:0:0:
291,220,43068,6,0,P|345:202|453:226,1,160,4|2,0:0|0:0,0:0:0:0:
451,60,44394,2,0,P|367:75|281:45,1,160,2|2,0:0|0:0,0:0:0:0:
224,90,45389,1,0,1:0:0:0:
153,128,45720,6,0,B|151:177|151:177|169:215|169:215|169:259,2,120,2|2|0,0:0|0:0|1:0,0:0:0:0:
224,90,47046,2,0,L|311:90,1,80,0|0,1:0|1:0,0:0:0:0:
375,54,47709,1,0,0:0:0:0:
454,49,48041,1,0,0:0:0:0:
484,122,48372,6,0,P|459:198|473:293,1,160,4|2,0:0|0:0,0:0:0:0:
370,348,49533,2,0,B|292:305|292:386|198:356,1,160,2|0,0:0|1:0,0:0:0:0:
111,303,50693,1,0,1:0:0:0:
61,240,51024,6,0,P|36:166|63:90,1,160,4|0,0:0|1:0,0:0:0:0:
209,38,52350,2,0,L|369:38,1,160,0|0,1:0|1:3,0:0:0:0:
419,100,53345,1,0,1:0:0:0:
457,169,53676,6,0,B|444:218|479:268|479:268|445:308|454:368,1,200,4|4,0:0|0:3,0:0:0:0:
374,337,54836,2,0,B|321:322|272:347|272:347|220:322|220:322|165:355|106:339,1,280,4|0,0:0|1:0,0:0:0:0:
95,260,56328,6,0,P|106:214|65:95,1,160,4|4,0:0|0:0,0:0:0:0:
173,37,57488,2,0,P|237:59|296:40,1,120,4|4,0:0|0:0,0:0:0:0:
479,187,58980,6,0,L|479:273,1,80,2|4,0:0|1:2,0:0:0:0:
410,311,59643,2,0,P|350:307|292:322,2,120,2|2|2,0:0|0:0|1:2,0:0:0:0:
461,249,60969,1,0,0:0:0:0:
423,177,61301,1,0,0:0:0:0:
344,190,61632,6,0,P|304:195|264:191,1,80,2|4,0:0|1:2,0:0:0:0:
193,155,62295,2,0,B|160:160|160:160|74:144,2,120,2|2|2,0:2|0:0|1:2,0:0:0:0:
266,122,63621,6,0,L|282:-3,2,120,2|6|0,0:0|0:0|1:0,0:0:0:0:
235,195,64947,2,0,P|194:200|148:193,1,80,2|0,0:0|1:0,0:0:0:0:
75,200,65610,2,0,B|82:148|82:148|72:71,2,120,2|2|0,0:0|0:0|1:0,0:0:0:0:
83,280,66936,6,0,B|163:256|163:256|215:294|283:287,1,200,0|4,1:0|0:3,0:0:0:0:
341,248,68096,2,0,L|465:247,1,120,2|0,0:0|1:0,0:0:0:0:
446,168,68925,2,0,P|410:154|368:155,1,80,0|8,1:0|0:3,0:0:0:0:
291,136,69588,6,0,P|303:95|293:52,1,80,8|4,0:3|1:2,0:0:0:0:
217,44,70251,2,0,B|156:57|156:57|89:45,2,120,2|0|2,0:0|0:0|1:2,0:0:0:0:
294,63,71577,1,0,0:0:0:0:
373,73,71908,1,0,0:0:0:0:
415,143,72240,6,0,P|411:181|380:222,1,80,2|4,0:0|1:2,0:0:0:0:
308,220,72903,2,0,B|232:205|232:205|183:221,2,120,2|2|0,0:0|0:0|1:3,0:0:0:0:
383,190,74229,6,0,L|383:61,2,120,2|4|0,0:0|0:0|1:0,0:0:0:0:
426,257,75555,2,0,L|423:353,1,80,2|2,0:0|1:2,0:0:0:0:
345,355,76218,2,0,B|299:344|299:344|265:360|221:345,2,120,2|2|0,0:0|0:0|1:0,0:0:0:0:
405,302,77544,6,0,L|406:138,1,160,2|0,0:0|1:0,0:0:0:0:
377,67,78538,1,4,0:3:0:0:
297,70,78870,2,0,B|212:58|212:58|137:82,1,160,4|0,0:3|1:0,0:0:0:0:
148,240,80196,6,0,B|233:252|233:252|308:228,1,160,4|0,0:0|0:0,0:0:0:0:
364,281,81190,1,2,1:2:0:0:
421,227,81522,2,0,L|422:143,1,80,2|0,0:0|1:0,0:0:0:0:
407,68,82184,2,0,P|367:74|315:67,1,80,0|2,0:0|1:2,0:0:0:0:
250,48,82847,6,0,L|252:207,1,160,6|2,0:0|0:2,0:0:0:0:
254,321,84008,2,0,P|179:302|55:321,1,200,0|8,0:0|0:3,0:0:0:0:
14,253,85168,1,0,1:0:0:0:
57,185,85499,6,0,B|34:112|34:112|54:59,1,120,4|4,0:0|0:0,0:0:0:0:
161,27,86494,2,0,B|193:80|163:144|163:144|235:118|290:144,1,240,4|0,0:0|1:0,0:0:0:0:
