osu file format v14

[General]
AudioFilename: audio.mp3
AudioLeadIn: 0
PreviewTime: 58400
Countdown: 0
SampleSet: Soft
StackLeniency: 0.4
Mode: 0
LetterboxInBreaks: 0
WidescreenStoryboard: 0

[Editor]
Bookmarks: 58980
DistanceSpacing: 0.9
BeatDivisor: 4
GridSize: 32
TimelineZoom: 1.9

[Metadata]
Title:Mirai no Bokura wa Shitteru yo
TitleUnicode:未来の僕らは知ってるよ
Artist:Aqours
ArtistUnicode:Aqours
Creator:StarrStyx
Version:Kisses's Insane
Source:Lovelive! Sunshine!!
Tags:ラブライブ!サンシャイン!! 2 opening anime tv size school idol project Inami Anju 伊波杏樹 Aida Rikako 逢田梨香子 Suwa Nanaka 諏訪ななか Komiya Arisa 小宮有紗 Saito Shuka 斉藤朱夏 Kobayashi Aika 小林愛香 Takatsuki Kanako 高槻かなこ Suzuki Aina 鈴木愛奈 Furihata Ai 降幡 愛 Takami Chika 高海千歌 Sakurauchi Riko 桜内梨子 Matsuura Kanan 松浦果南 Kurosawa Dia 黒澤ダイヤ Watanabe You 渡辺 曜 Tsushima Yoshiko 津島善子 Kunikida Hanamaru 国木田花丸 Ohara Mari 小原鞠莉 Kurosawa Ruby 黒澤ルビィ Sekai Sekaii Sekai-nyan CloudSplash16 Little Kisses Underdogs My Angel
BeatmapID:1437261
BeatmapSetID:679650

[Difficulty]
HPDrainRate:6
CircleSize:4
OverallDifficulty:8
ApproachRate:9
SliderMultiplier:1.8
SliderTickRate:1

[Events]
//Background and Video events
Video,-700,"opening.avi"
0,0,"llss_bg2.jpg",0,0
//Break Periods
//Storyboard Layer 0 (Background)
//Storyboard Layer 1 (Fail)
//Storyboard Layer 2 (Pass)
//Storyboard Layer 3 (Foreground)
//Storyboard Sound Samples

[TimingPoints]
1964,331.491712707182,4,2,0,50,1,0
1964,-133.333333333333,4,2,0,50,0,0
5113,-83.3333333333333,4,2,0,50,0,0
5361,-66.6666666666667,4,2,0,5,0,0
5610,-133.333333333333,4,2,0,50,0,0
8593,-100,4,2,0,50,0,0
13731,-90.9090909090909,4,2,0,50,0,0
19035,-111.111111111111,4,2,0,50,0,0
20527,-125,4,2,0,50,0,0
28483,-100,4,2,0,50,0,0
43068,-125,4,2,0,50,0,0
48372,-100,4,2,0,50,0,0
55665,-83.3333333333333,4,2,0,50,0,0
58980,-111.111111111111,4,2,0,50,0,1
59312,-83.3333333333333,4,2,0,70,0,1
61632,-125,4,2,0,70,0,1
61963,-83.3333333333333,4,2,0,70,0,1
69091,-83.3333333333333,4,2,0,70,0,0
69588,-125,4,2,0,70,0,1
69919,-83.3333333333333,4,2,0,70,0,1
80196,-83.3333333333333,4,2,0,65,0,0
86494,-83.3333333333333,4,2,0,65,0,0

[Colours]
Combo1 : 255,81,81
Combo2 : 255,104,32
Combo3 : 255,128,255
Combo4 : 72,255,255

[HitObjects]
256,192,803,12,0,1798,0:0:0:0:
386,313,1964,6,0,L|174:289,1,202.500007724762,4|0,0:0|0:0,0:0:0:0:
482,132,2958,1,2,0:0:0:0:
482,132,3124,2,0,P|419:58|332:111,1,202.500007724762,2|0,0:0|0:0,0:0:0:0:
461,340,3952,2,0,L|454:273,1,67.5000025749208,2|0,0:0|0:0,0:0:0:0:
407,134,4284,2,0,L|397:201,1,67.5000025749208,2|0,0:0|0:0,0:0:0:0:
481,97,4615,6,0,P|415:104|366:58,1,135.000005149842,2|0,0:0|0:0,0:0:0:0:
282,223,5113,6,0,L|268:59,1,161.999995056153,2|0,0:0|0:0,0:0:0:0:
250,41,5610,6,0,B|209:14|150:37|165:62|113:88|51:44,1,202.500007724762,2|0,0:0|0:0,0:0:0:0:
0,132,6273,1,2,0:0:0:0:
48,221,6439,1,2,0:0:0:0:
132,165,6604,6,0,L|125:92,1,67.5000025749208,2|0,0:0|0:0,0:0:0:0:
217,226,6936,2,0,L|221:156,1,67.5000025749208,2|0,0:0|0:0,0:0:0:0:
352,289,7267,6,0,P|320:299|286:293,1,67.5000025749208,2|0,0:0|0:0,0:0:0:0:
70,298,7599,1,2,0:0:0:0:
70,298,7765,2,0,B|119:351|204:327|204:327|169:327|138:288,1,202.500007724762,2|0,0:0|0:0,0:0:0:0:
309,75,8593,6,0,B|358:97|396:61|396:61|387:116|440:141,1,180,2|0,0:0|0:0,0:0:0:0:
235,166,9091,1,8,0:3:0:0:
235,166,9173,1,8,0:3:0:0:
235,166,9256,2,0,P|191:94|216:2,1,180,8|0,0:3|0:0,0:0:0:0:
141,60,9754,2,0,L|87:48,1,45,2|0,0:0|0:0,0:0:0:0:
360,4,9919,5,4,0:0:0:0:
256,192,10002,12,0,11080,0:0:0:0:
167,287,11245,6,0,P|111:236|16:268,1,180,4|4,0:0|0:0,0:0:0:0:
200,126,11743,2,0,L|387:113,1,180,0|0,1:0|0:0,0:0:0:0:
512,211,12240,2,0,L|419:203,1,90,0|0,1:0|0:0,0:0:0:0:
450,46,12571,5,4,0:3:0:0:
303,82,12737,1,4,0:3:0:0:
326,180,12903,1,4,0:3:0:0:
335,0,13068,1,4,0:3:0:0:
237,157,13234,5,0,1:0:0:0:
463,148,13400,1,0,1:0:0:0:
318,287,13566,1,0,1:0:0:0:
303,82,13731,6,0,P|379:140|467:103,1,198.000006042481,4|4,0:0|0:3,0:0:0:0:
390,47,14229,1,4,0:3:0:0:
310,198,14394,5,0,1:0:0:0:
270,213,14476,1,0,1:0:0:0:
226,213,14559,1,0,1:0:0:0:
188,191,14642,1,0,1:0:0:0:
151,168,14725,1,0,1:0:0:0:
107,165,14808,1,0,1:0:0:0:
68,189,14892,2,0,P|34:251|68:325,1,148.50000453186,0|0,1:0|0:0,0:0:0:0:
75,336,15223,6,0,L|195:324,1,99.0000030212403,6|0,0:2|0:0,0:0:0:0:
374,275,15555,1,0,1:0:0:0:
374,275,15720,2,0,P|324:286|279:258,1,99.0000030212403,2|0,0:0|0:0,0:0:0:0:
348,100,16052,2,0,L|341:200,1,99.0000030212403,2|0,0:0|0:0,0:0:0:0:
243,64,16383,6,0,L|443:44,1,198.000006042481,2|0,0:0|0:0,0:0:0:0:
481,157,16881,1,0,1:0:0:0:
376,314,17046,2,0,L|367:213,1,99.0000030212403,2|0,0:0|0:0,0:0:0:0:
321,70,17378,5,0,1:0:0:0:
282,90,17460,1,0,1:0:0:0:
237,94,17543,1,0,1:0:0:0:
196,75,17626,1,0,1:0:0:0:
159,48,17709,1,0,1:0:0:0:
114,45,17792,1,0,1:0:0:0:
74,65,17875,5,0,1:0:0:0:
255,10,18041,1,0,1:0:0:0:
255,10,18124,1,0,1:0:0:0:
255,10,18207,1,0,1:0:0:0:
129,134,18372,2,0,L|139:239,1,99.0000030212403,2|0,0:0|0:0,0:0:0:0:
280,125,18704,1,2,0:0:0:0:
163,49,18870,1,2,0:0:0:0:
271,246,19035,6,0,B|492:115|366:11|147:51|352:304|428:280,1,485.999985168458,4|8,0:0|3:3,3:0:0:0:
435,283,20113,1,8,0:3:0:0:
455,279,20196,1,8,0:3:0:0:
487,94,20527,6,0,L|494:170,1,72,4|0,0:0|0:0,0:0:0:0:
278,66,20859,1,2,1:2:0:0:
278,66,21024,2,0,P|345:83|402:42,1,144,2|0,0:0|0:0,0:0:0:0:
234,173,21522,1,0,1:0:0:0:
234,173,21853,6,0,L|226:258,1,72,2|0,0:0|0:0,0:0:0:0:
26,146,22184,1,2,1:2:0:0:
26,146,22350,2,0,P|89:164|159:100,1,144,2|0,0:0|0:0,0:0:0:0:
73,9,22847,2,0,L|80:83,1,72,0|0,1:0|0:0,0:0:0:0:
323,86,23179,6,0,P|268:43|196:55,1,144,2|0,0:0|1:0,0:0:0:0:
245,129,23676,1,0,0:0:0:0:
384,20,23842,2,0,L|465:13,1,72,2|0,0:0|0:0,0:0:0:0:
392,153,24173,2,0,P|364:176|328:180,1,72,2|0,1:2|0:0,0:0:0:0:
134,27,24505,6,0,L|148:175,1,144,2|0,0:0|1:0,0:0:0:0:
112,369,25002,2,0,P|67:315|87:242,1,144,2|0,0:0|0:0,0:0:0:0:
237,153,25499,1,2,1:2:0:0:
146,297,25665,1,2,0:2:0:0:
51,105,25831,5,4,0:0:0:0:
51,105,26162,2,0,L|44:24,1,72,2|0,1:2|0:0,0:0:0:0:
0,180,26494,2,0,P|72:194|131:146,1,144,2|0,0:0|1:0,0:0:0:0:
222,91,26991,1,2,0:0:0:0:
336,254,27157,6,0,L|249:242,1,72,2|0,0:0|0:0,0:0:0:0:
195,328,27488,1,2,1:2:0:0:
406,189,27654,2,0,P|434:253|398:328,1,144,2|0,0:0|0:0,0:0:0:0:
506,142,28151,1,2,0:2:0:0:
506,142,28317,1,2,0:2:0:0:
296,59,28483,6,0,P|384:90|452:23,1,180,2|0,0:0|1:0,0:0:0:0:
229,153,28980,2,0,L|136:138,1,90,2|0,0:0|0:0,0:0:0:0:
275,371,29312,1,0,1:0:0:0:
304,342,29395,1,0,1:0:0:0:
318,304,29478,1,0,1:0:0:0:
315,263,29561,1,0,1:0:0:0:
297,227,29643,1,0,1:0:0:0:
377,178,29975,6,0,L|424:171,1,45,2|0,0:0|0:0,0:0:0:0:
224,290,30140,2,0,L|176:281,1,45,2|0,0:0|0:0,0:0:0:0:
383,384,30306,2,0,L|429:376,1,45,2|0,0:0|0:0,0:0:0:0:
133,363,30638,6,0,P|87:298|123:207,1,180,4|0,0:3|0:0,0:0:0:0:
39,58,31135,6,0,L|46:163,1,90,6|0,0:0|0:0,0:0:0:0:
235,29,31466,1,2,1:2:0:0:
235,29,31632,2,0,L|212:230,1,180,2|0,0:0|0:0,0:0:0:0:
131,18,32129,1,2,1:2:0:0:
321,154,32461,6,0,L|411:144,1,90,2|0,0:0|0:0,0:0:0:0:
278,318,32792,1,2,1:2:0:0:
278,318,32958,2,0,L|460:334,1,180,2|0,0:0|0:0,0:0:0:0:
504,176,33455,2,0,P|509:132|494:88,1,90,2|0,1:2|0:0,0:0:0:0:
244,61,33787,6,0,P|327:89|395:32,1,180,2|0,0:0|1:0,0:0:0:0:
311,1,34284,1,0,0:0:0:0:
269,169,34450,2,0,L|275:276,1,90,2|0,0:0|0:0,0:0:0:0:
157,96,34781,2,0,L|162:4,1,90,2|0,1:2|0:0,0:0:0:0:
3,180,35113,6,0,B|55:156|104:174|90:197|141:218|176:204,1,180,2|0,0:0|1:0,0:0:0:0:
347,342,35610,2,0,P|263:368|207:301,1,180,2|0,0:0|1:0,0:0:0:0:
287,293,36024,1,0,1:0:0:0:
287,293,36107,2,0,L|381:289,1,90,0|0,1:0|0:0,0:0:0:0:
247,112,36439,5,4,0:0:0:0:
247,112,36770,2,0,P|225:155|229:215,1,90,2|0,1:2|0:0,0:0:0:0:
179,363,37102,2,0,P|109:306|18:321,1,180,2|0,0:0|1:0,0:0:0:0:
78,117,37599,1,2,0:0:0:0:
78,117,37765,6,0,L|84:214,1,90,2|0,0:0|0:0,0:0:0:0:
256,74,38096,1,2,1:2:0:0:
256,74,38262,2,0,L|238:259,1,180,2|0,0:0|0:0,0:0:0:0:
122,338,38759,1,2,1:2:0:0:
104,221,38925,1,2,0:0:0:0:
237,362,39091,5,4,0:0:0:0:
350,284,39256,2,0,L|394:277,2,45,8|8|8,0:3|0:3|0:3,0:3:0:0:
296,191,39588,1,4,0:0:0:0:
449,361,39754,1,8,0:3:0:0:
476,332,39836,1,8,0:3:0:0:
493,295,39919,1,0,1:0:0:0:
491,254,40002,1,0,1:0:0:0:
473,217,40085,1,0,1:0:0:0:
332,369,40251,5,4,0:0:0:0:
317,357,40582,5,0,1:0:0:0:
344,192,40748,1,0,1:0:0:0:
195,296,40914,5,0,1:0:0:0:
184,163,41080,1,0,1:0:0:0:
59,339,41245,6,0,L|-3:346,2,45,8|8|8,0:3|0:3|0:3,0:0:0:0:
48,221,41577,1,0,1:0:0:0:
176,373,41743,5,0,1:0:0:0:
211,367,41826,1,0,1:0:0:0:
246,362,41909,1,0,1:0:0:0:
281,357,41992,1,0,1:0:0:0:
316,351,42074,1,0,1:0:0:0:
438,230,42240,2,0,L|427:322,1,90,2|0,1:2|0:0,0:0:0:0:
199,186,42571,2,0,P|263:129|349:159,1,180,0|0,1:2|0:0,0:0:0:0:
281,217,43068,6,0,L|289:293,2,72,4|0|0,0:0|0:0|0:0,0:0:0:0:
325,378,43566,1,2,0:0:0:0:
325,378,43731,2,0,L|318:303,1,72,2|0,0:0|0:0,0:0:0:0:
202,158,44063,1,0,1:0:0:0:
202,158,44394,6,0,L|187:309,1,144,2|0,0:0|0:0,0:0:0:0:
192,70,44892,1,2,0:0:0:0:
192,70,45057,2,0,L|186:145,1,72,2|0,0:0|0:0,0:0:0:0:
284,29,45389,1,0,1:0:0:0:
122,0,45555,1,8,0:3:0:0:
293,172,45720,6,0,L|282:2,1,144,2|0,0:0|0:0,0:0:0:0:
330,273,46218,1,2,0:0:0:0:
330,273,46383,2,0,L|320:117,1,144,2|0,0:0|1:0,0:0:0:0:
250,70,46881,1,2,0:0:0:0:
411,7,47046,5,0,1:0:0:0:
429,33,47129,1,0,1:0:0:0:
436,64,47212,1,0,1:0:0:0:
428,95,47295,1,0,1:0:0:0:
408,121,47378,2,0,L|326:110,1,72,0|0,1:0|1:0,0:0:0:0:
227,186,47709,5,4,0:3:0:0:
46,31,48041,1,4,0:3:0:0:
46,281,48372,6,0,P|87:228|59:160,1,135,4|0,0:0|0:0,0:0:0:0:
48,148,48704,2,0,L|144:138,1,90,2|0,1:2|0:0,0:0:0:0:
162,256,49035,1,2,0:0:0:0:
68,58,49201,1,2,0:0:0:0:
7,214,49367,1,2,1:2:0:0:
220,174,49533,6,0,B|265:151|318:165|298:189|349:207|395:182,1,180,2|0,0:0|0:0,0:0:0:0:
355,106,50030,1,0,1:0:0:0:
259,254,50196,2,0,L|265:355,1,90,2|0,0:0|0:0,0:0:0:0:
124,195,50527,1,0,1:0:0:0:
122,163,50610,1,0,1:0:0:0:
134,134,50693,1,0,1:0:0:0:
229,76,50859,1,2,0:0:0:0:
92,27,51024,6,0,L|-22:33,1,90,4|0,0:0|0:0,0:0:0:0:
212,178,51356,5,0,1:0:0:0:
182,5,51522,1,4,0:3:0:0:
282,134,51687,5,0,1:0:0:0:
285,0,51853,1,4,0:3:0:0:
362,148,52019,5,0,1:0:0:0:
392,32,52185,1,4,0:3:0:0:
429,192,52350,5,0,1:0:0:0:
437,222,52433,1,0,1:0:0:0:
431,253,52516,1,0,1:0:0:0:
342,384,52682,2,0,P|334:342|356:290,1,90,0|0,1:0|0:0,0:0:0:0:
476,333,53013,1,4,0:3:0:0:
348,218,53179,2,0,L|287:222,2,45,0|0|0,1:0|1:0|1:0,1:0:0:0:
496,103,53510,1,0,1:0:0:0:
496,103,53593,1,0,1:0:0:0:
496,103,53676,5,4,1:3:0:0:
394,306,53842,1,4,0:3:0:0:
359,128,54008,1,4,0:3:0:0:
512,335,54173,1,4,0:3:0:0:
512,335,54505,5,4,0:3:0:0:
361,384,54671,1,4,0:3:0:0:
441,178,54836,1,4,0:3:0:0:
241,269,55168,5,8,0:3:0:0:
207,245,55251,1,8,0:3:0:0:
166,239,55334,1,8,0:3:0:0:
129,256,55416,1,8,0:3:0:0:
97,281,55499,1,8,0:3:0:0:
57,291,55582,1,8,0:3:0:0:
13,269,55665,6,0,P|-3:218|17:161,1,107.999996704102,2|0,0:0|0:0,0:0:0:0:
3,74,55914,1,0,1:0:0:0:
3,74,55997,2,0,P|29:142|112:135,1,161.999995056153,0|0,1:0|0:0,0:0:0:0:
132,58,56328,5,4,0:3:0:0:
189,253,56494,1,4,0:3:0:0:
303,26,56660,1,4,0:3:0:0:
349,325,56991,5,4,0:3:0:0:
500,111,57323,5,4,0:3:0:0:
389,1,57488,2,0,L|401:124,1,107.999996704102,4|0,0:3|0:0,0:0:0:0:
177,64,57820,1,4,0:3:0:0:
264,139,57986,2,0,L|254:250,1,107.999996704102,4|0,0:3|0:0,0:0:0:0:
313,346,58317,5,8,0:3:0:0:
298,355,58400,1,8,0:3:0:0:
276,361,58483,1,8,0:3:0:0:
246,362,58566,1,8,0:3:0:0:
210,346,58649,1,8,0:3:0:0:
173,318,58731,1,8,0:3:0:0:
127,298,58814,1,8,0:3:0:0:
79,309,58897,1,8,0:3:0:0:
39,343,58980,6,0,L|29:208,1,121.499996292114,4|0,0:0|0:0,0:0:0:0:
0,150,59312,6,0,P|86:175|138:117,1,161.999995056153,0|0,1:0|0:0,0:0:0:0:
116,41,59643,2,0,P|175:49|218:95,1,107.999996704102,2|0,0:0|0:0,0:0:0:0:
259,316,59975,1,2,1:2:0:0:
259,316,60140,2,0,L|267:183,1,107.999996704102,2|0,0:0|0:0,0:0:0:0:
474,87,60472,1,2,0:0:0:0:
474,87,60638,2,0,P|427:113|374:109,1,107.999996704102,2|0,1:2|0:0,0:0:0:0:
158,122,60969,5,2,0:0:0:0:
408,31,61135,1,2,0:0:0:0:
304,208,61301,1,2,1:2:0:0:
210,0,61466,1,2,0:0:0:0:
77,164,61632,6,0,L|85:275,1,108,2|0,1:2|0:0,0:0:0:0:
38,327,61963,6,0,P|112:297|168:350,1,161.999995056153,0|0,1:0|0:0,0:0:0:0:
290,378,62295,2,0,P|246:356|183:368,1,107.999996704102,2|0,0:2|0:0,0:0:0:0:
39,209,62626,1,2,1:2:0:0:
39,209,62792,2,0,B|98:199|97:132|97:132|129:187|191:172,1,215.999993408203,2|0,0:0|0:0,0:0:0:0:
10,19,63289,6,0,P|-3:71|12:124,1,107.999996704102,2|0,1:2|0:0,0:0:0:0:
172,96,63621,1,2,0:0:0:0:
118,277,63787,1,2,0:0:0:0:
11,141,63952,1,2,1:2:0:0:
246,196,64118,6,0,P|300:102|254:2,1,215.999993408203,2|0,0:0|0:0,0:0:0:0:
82,27,64615,2,0,L|92:139,1,107.999996704102,0|0,1:0|0:0,0:0:0:0:
277,297,64947,2,0,P|220:299|166:260,1,107.999996704102,2|0,0:0|0:0,0:0:0:0:
3,380,65278,2,0,P|49:353|104:356,1,107.999996704102,2|0,1:2|0:0,0:0:0:0:
246,196,65610,5,2,0:0:0:0:
23,266,65776,1,2,0:0:0:0:
183,382,65941,1,2,1:2:0:0:
155,144,66107,2,0,L|370:176,1,215.999993408203,2|0,0:0|1:0,0:0:0:0:
467,276,66604,1,0,1:0:0:0:
467,276,66770,1,0,1:0:0:0:
437,101,66936,5,0,1:0:0:0:
334,293,67102,1,4,0:3:0:0:
295,64,67267,5,0,1:0:0:0:
268,256,67433,1,4,0:3:0:0:
155,105,67599,5,0,1:0:0:0:
205,296,67765,1,4,0:3:0:0:
338,166,67930,1,0,1:0:0:0:
75,201,68096,6,0,P|31:108|78:11,1,215.999993408203,2|0,0:0|1:0,0:0:0:0:
90,3,68510,1,0,1:0:0:0:
105,0,68593,1,0,1:0:0:0:
155,105,68759,1,4,0:3:0:0:
262,24,68925,1,0,1:0:0:0:
338,180,69091,5,8,0:3:0:0:
302,156,69173,1,8,0:3:0:0:
259,149,69256,1,8,0:3:0:0:
221,171,69339,1,8,0:3:0:0:
185,195,69422,1,8,0:3:0:0:
141,197,69505,1,8,0:3:0:0:
96,176,69588,6,0,P|69:141|68:75,1,108,8|0,0:3|0:0,0:0:0:0:
36,9,69919,6,0,P|81:68|162:57,1,161.999995056153,4|0,1:2|0:0,0:0:0:0:
219,9,70251,2,0,L|107:-1,1,107.999996704102,0|0,0:2|0:0,0:0:0:0:
0,198,70582,1,2,1:2:0:0:
0,198,70748,2,0,P|43:169|99:176,1,107.999996704102
170,374,71080,5,2,0:0:0:0:
227,155,71245,1,2,1:2:0:0:
63,252,71411,1,2,0:0:0:0:
249,324,71577,2,0,L|368:313,1,107.999996704102,2|0,0:0|0:0,0:0:0:0:
512,252,71908,2,0,P|468:229|401:238,1,107.999996704102,0|0,1:0|0:0,0:0:0:0:
426,379,72240,5,2,0:0:0:0:
426,379,72405,1,2,0:0:0:0:
355,165,72571,2,0,P|278:191|217:136,1,161.999995056153,4|0,1:2|0:0,0:0:0:0:
190,15,72903,2,0,L|197:124,1,107.999996704102,2|0,0:0|0:0,0:0:0:0:
295,111,73234,1,2,1:2:0:0:
104,232,73400,6,0,B|62:160|114:86|114:86|98:118|114:163,1,215.999993408203,2|4,0:0|0:3,0:0:0:0:
5,249,73897,1,0,1:3:0:0:
199,199,74063,1,0,1:0:0:0:
207,230,74146,1,0,1:0:0:0:
203,262,74229,1,0,1:0:0:0:
96,345,74394,1,4,0:3:0:0:
302,303,74560,1,0,1:0:0:0:
106,169,74726,6,0,P|171:106|288:156,1,215.999993408203,4|0,0:0|0:0,0:0:0:0:
445,232,75223,2,0,P|401:205|341:212,1,107.999996704102,0|0,1:0|0:0,0:0:0:0:
207,306,75555,2,0,L|199:199,1,107.999996704102,2|0,0:0|0:0,0:0:0:0:
286,34,75886,2,0,L|279:142,1,107.999996704102,2|0,1:2|0:0,0:0:0:0:
60,43,76218,5,2,0:0:0:0:
60,43,76383,2,0,P|117:51|170:13,1,107.999996704102,2|0,0:0|1:0,0:0:0:0:
321,188,76715,2,0,B|275:159|208:173|230:201|170:226|109:189,1,215.999993408203,2|0,0:0|1:0,0:0:0:0:
102,183,77129,1,0,1:0:0:0:
89,172,77212,1,0,1:0:0:0:
172,290,77378,1,2,0:0:0:0:
165,101,77544,6,0,L|393:87,1,215.999993408203,2|0,0:0|1:0,0:0:0:0:
438,191,78041,1,4,0:3:0:0:
321,0,78207,5,4,0:3:0:0:
463,68,78372,1,4,0:3:0:0:
284,187,78538,1,4,0:3:0:0:
495,265,78704,1,4,0:3:0:0:
298,92,78870,6,0,B|244:1|93:91|374:195|419:41,1,323.999990112305,4|0,0:3|1:0,0:0:0:0:
424,36,79450,1,0,1:0:0:0:
419,13,79533,1,0,1:0:0:0:
440,205,79698,1,0,1:0:0:0:
197,313,80030,1,2,0:0:0:0:
171,302,80113,1,2,0:0:0:0:
149,284,80196,6,0,B|205:257|261:279|238:307|300:330|360:301,2,215.999993408203,4|0|0,0:0|1:0|0:0,0:0:0:0:
192,366,81024,1,2,0:0:0:0:
308,230,81190,2,0,L|321:121,1,107.999996704102,2|0,1:2|0:0,0:0:0:0:
72,58,81522,6,0,P|168:98|263:11,1,215.999993408203,2|0,0:0|1:0,0:0:0:0:
396,204,82019,2,0,B|454:141|415:56|415:56|426:91|402:132,1,215.999993408203,2|0,0:0|1:0,0:0:0:0:
391,121,82433,1,0,1:0:0:0:
369,111,82516,1,2,1:2:0:0:
337,19,82682,1,0,0:0:0:0:
269,247,82847,6,0,L|506:227,1,215.999993408203,6|0,0:0|1:0,0:0:0:0:
504,102,83345,1,2,0:0:0:0:
365,23,83510,2,0,P|343:73|356:134,1,107.999996704102,2|0,0:2|0:0,0:0:0:0:
348,324,83842,1,2,1:2:0:0:
444,297,84008,6,0,P|374:227|269:263,1,215.999993408203,2|0,0:0|0:0,0:0:0:0:
181,348,84505,2,0,P|154:307|150:244,1,107.999996704102,2|0,1:2|0:0,0:0:0:0:
0,182,84836,1,8,0:3:0:0:
17,194,84919,1,8,0:3:0:0:
43,196,85002,1,0,1:0:0:0:
73,184,85085,1,0,1:0:0:0:
105,164,85168,1,0,1:0:0:0:
146,152,85251,1,0,1:0:0:0:
189,160,85334,1,0,1:0:0:0:
223,186,85417,1,0,1:0:0:0:
240,226,85499,5,4,0:0:0:0:
485,15,85997,5,4,0:0:0:0:
96,51,86494,5,4,0:0:0:0:
256,192,86577,12,4,87654,0:0:0:0:
