osu file format v14

[General]
AudioFilename: audio.mp3
AudioLeadIn: 0
PreviewTime: 58400
Countdown: 0
SampleSet: Soft
StackLeniency: 0.7
Mode: 0
LetterboxInBreaks: 0
WidescreenStoryboard: 0

[Editor]
DistanceSpacing: 1.5
BeatDivisor: 4
GridSize: 4
TimelineZoom: 1.9

[Metadata]
Title:Mirai no Bokura wa Shitteru yo
TitleUnicode:未来の僕らは知ってるよ
Artist:Aqours
ArtistUnicode:Aqours
Creator:StarrStyx
Version:Cloud's Hard
Source:Lovelive! Sunshine!!
Tags:ラブライブ!サンシャイン!! 2 opening anime tv size school idol project Inami Anju 伊波杏樹 Aida Rikako 逢田梨香子 Suwa Nanaka 諏訪ななか Komiya Arisa 小宮有紗 Saito Shuka 斉藤朱夏 Kobayashi Aika 小林愛香 Takatsuki Kanako 高槻かなこ Suzuki Aina 鈴木愛奈 Furihata Ai 降幡 愛 Takami Chika 高海千歌 Sakurauchi Riko 桜内梨子 Matsuura Kanan 松浦果南 Kurosawa Dia 黒澤ダイヤ Watanabe You 渡辺 曜 Tsushima Yoshiko 津島善子 Kunikida Hanamaru 国木田花丸 Ohara Mari 小原鞠莉 Kurosawa Ruby 黒澤ルビィ Sekai Sekaii Sekai-nyan CloudSplash16 Little Kisses Underdogs My Angel
BeatmapID:1437338
BeatmapSetID:679650

[Difficulty]
HPDrainRate:5
CircleSize:4
OverallDifficulty:6
ApproachRate:8
SliderMultiplier:1.5
SliderTickRate:1

[Events]
//Background and Video events
0,0,"llss_bg2.jpg",0,0
Video,-700,"opening.avi"
//Break Periods
//Storyboard Layer 0 (Background)
//Storyboard Layer 1 (Fail)
//Storyboard Layer 2 (Pass)
//Storyboard Layer 3 (Foreground)
//Storyboard Sound Samples

[TimingPoints]
1964,331.491712707182,4,2,16,50,1,0
1964,-200,4,2,16,50,0,0
7267,-125,4,2,16,55,0,0
8593,-166.666666666667,4,2,16,60,0,0
9256,-125,4,2,16,60,0,0
9919,-200,4,2,16,75,0,0
12571,-166.666666666667,4,2,16,65,0,0
13234,-142.857142857143,4,2,16,65,0,0
13731,-125,4,2,16,70,0,0
14560,-111.111111111111,4,2,16,70,0,0
15223,-100,4,2,16,75,0,0
20527,-100,4,2,16,60,0,0
28483,-100,4,2,16,70,0,0
31135,-100,4,2,16,60,0,0
39091,-100,4,2,16,70,0,0
43068,-125,4,2,16,65,0,0
44726,-125,4,2,16,55,0,0
45057,-125,4,2,16,60,0,0
45389,-125,4,2,16,65,0,0
47709,-125,4,2,16,70,0,0
48041,-111.111111111111,4,2,16,70,0,0
48372,-100,4,2,16,70,0,0
51024,-100,4,2,16,75,0,0
58980,-100,4,2,16,85,0,1
80196,-100,4,2,16,75,0,0
86494,-125,4,2,16,75,0,0

[Colours]
Combo1 : 255,81,81
Combo2 : 255,104,32
Combo3 : 255,128,255
Combo4 : 72,255,255

[HitObjects]
413,95,1964,6,0,B|448:84|448:84|480:140|435:187,1,150,4|0,0:1|0:0,0:0:0:0:
348,260,2958,1,0,0:0:0:0:
348,260,3124,1,0,0:0:0:0:
348,260,3289,2,0,P|279:236|210:261,1,150,2|0,0:0|0:0,0:0:0:0:
116,324,4284,1,0,0:0:0:0:
20,264,4615,6,0,L|12:152,1,112.5,4|2,0:1|0:0,0:0:0:0:
160,88,5610,2,0,P|215:134|208:206,1,150,2|0,0:0|0:0,0:0:0:0:
104,268,6604,1,2,0:0:0:0:
104,268,6936,1,2,0:0:0:0:
200,344,7267,6,0,P|259:335|319:335,1,120,2|0,0:0|0:0,0:0:0:0:
416,348,7765,2,0,P|450:300|440:244,1,120,2|0,0:0|0:0,0:0:0:0:
368,184,8262,1,0,0:0:0:0:
368,184,8593,6,0,L|356:94,1,90,2|0,0:0|0:0,0:0:0:0:
240,76,9091,1,8,0:3:0:0:
240,76,9173,1,8,0:3:0:0:
240,76,9256,2,0,P|196:114|194:172,1,120,4|2,0:3|0:0,0:0:0:0:
294,249,9754,1,0,0:0:0:0:
294,249,9836,1,0,0:0:0:0:
294,249,9919,6,0,B|342:265|342:265|439:243,1,150,4|2,0:0|0:0,0:0:0:0:
439,243,11245,6,0,L|427:317,1,75,2|0,1:2|0:0,0:0:0:0:
294,249,11743,2,0,L|282:175,1,75,2|0,1:2|0:0,0:0:0:0:
149,243,12240,1,2,1:2:0:0:
149,243,12571,6,0,L|60:228,1,90,4|0,0:3|3:0,0:0:0:0:
0,148,13068,1,0,3:0:0:0:
96,120,13234,2,0,L|104:68,1,52.5,2|0,3:2|3:0,0:0:0:0:
212,32,13566,1,2,3:2:0:0:
212,32,13731,6,0,L|192:150,1,120,6|0,3:2|3:0,0:0:0:0:
256,240,14229,1,0,3:0:0:0:
352,184,14394,1,2,3:2:0:0:
352,184,14477,1,0,0:0:0:0:
352,184,14560,2,0,L|344:116,1,67.5,0|0,3:0|3:0,0:0:0:0:
476,192,14892,2,0,L|468:260,1,67.5,8|0,3:2|0:0,0:0:0:0:
352,344,15223,6,0,B|288:368|268:316|205:343,1,150,4|8,3:2|0:0,0:0:0:0:
136,291,15720,2,0,P|120:325|122:363,1,75,0|0,3:0|0:0,0:0:0:0:
220,244,16052,1,0,3:0:0:0:
220,244,16218,1,8,0:0:0:0:
136,196,16383,6,0,P|98:192|61:191,1,75,2|0,3:2|0:0,0:0:0:0:
68,92,16715,2,0,P|105:92|142:96,1,75,0|8,3:0|0:0,0:0:0:0:
226,144,17046,2,0,P|239:108|249:72,1,75,0|0,3:0|0:0,0:0:0:0:
340,32,17378,1,0,3:0:0:0:
408,104,17544,2,0,L|445:107,2,37.5,0|0|0,3:0|3:0|3:0,0:0:0:0:
340,176,17875,6,0,P|326:211|316:247,1,75,6|0,3:2|3:0,0:0:0:0:
368,332,18207,1,0,3:0:0:0:
463,304,18372,2,0,P|478:251|454:202,1,112.5,2|0,3:2|0:0,0:0:0:0:
415,184,18704,2,0,L|340:176,1,75,2|0,3:2|3:0,0:0:0:0:
192,160,19035,1,6,3:2:0:0:
256,192,19201,12,4,20196,0:3:0:0:
132,320,20527,6,0,P|109:251|156:198,1,150,4|8,3:2|0:0,0:0:0:0:
252,176,21024,1,0,3:0:0:0:
336,224,21190,2,0,P|339:261|340:298,1,75,0|0,0:0|3:0,0:0:0:0:
420,176,21522,2,0,P|419:138|415:101,1,75,8|0,0:0|0:0,0:0:0:0:
328,44,21853,6,0,P|253:39|178:39,1,150,0|8,3:0|0:0,0:0:0:0:
100,100,22350,1,0,3:0:0:0:
164,172,22516,2,0,P|201:168|233:149,1,75,0|0,0:0|3:0,0:0:0:0:
331,149,22847,2,0,P|336:186|336:224,1,75,8|0,0:0|0:0,0:0:0:0:
268,296,23179,6,0,P|200:266|129:286,2,150,0|8|0,3:0|0:0|3:0,0:0:0:0:
364,320,24008,1,0,3:0:0:0:
432,248,24173,2,0,P|436:210|436:173,1,75,8|0,0:0|0:0,0:0:0:0:
331,149,24505,6,0,P|326:111|326:74,1,75,0|0,3:0|0:0,0:0:0:0:
436,173,24836,1,8,0:0:0:0:
364,252,25002,2,0,P|289:242|214:239,1,150,0|0,3:0|3:0,0:0:0:0:
108,244,25499,1,8,0:0:0:0:
108,244,25831,6,0,L|92:324,1,75,4|0,3:2|0:0,0:0:0:0:
200,312,26162,2,0,L|214:238,1,75,8|0,0:0|3:0,0:0:0:0:
156,148,26494,2,0,P|120:133|84:123,1,75,0|0,0:0|3:0,0:0:0:0:
264,144,26825,2,0,P|300:134|334:119,1,75,8|0,0:0|0:0,0:0:0:0:
440,76,27157,6,0,P|431:150|424:225,1,150,2|8,3:2|0:0,0:0:0:0:
344,292,27654,2,0,P|347:329|355:365,1,75,2|0,3:2|0:0,0:0:0:0:
424,225,27986,1,0,3:0:0:0:
313,202,28151,2,0,L|240:188,1,75,8|0,0:0|0:0,0:0:0:0:
128,280,28483,6,0,P|190:315|255:284,1,150,2|8,3:2|0:0,0:0:0:0:
128,280,28980,2,0,P|65:244|0:275,1,150,2|0,3:2|3:0,0:0:0:0:
0,275,29394,1,0,0:0:0:0:
0,275,29477,1,8,0:0:0:0:
0,275,29975,5,8,3:2:0:0:
128,280,30140,1,8,3:2:0:0:
255,283,30306,2,0,L|241:210,1,75,8|0,3:2|3:0,0:0:0:0:
86,212,30638,2,0,P|48:273|75:340,1,150,8|0,3:2|3:0,0:0:0:0:
213,357,31135,6,0,L|241:209,1,150,4|8,3:2|0:0,0:0:0:0:
324,144,31632,2,0,L|310:71,1,75,0|0,3:0|0:0,0:0:0:0:
216,24,31963,1,0,3:0:0:0:
128,82,32129,2,0,L|55:68,1,75,8|0,0:0|0:0,0:0:0:0:
28,180,32461,6,0,P|94:207|156:169,1,150,0|8,3:0|0:0,0:0:0:0:
312,224,32958,2,0,P|278:208|240:210,1,75,0|0,3:0|0:0,0:0:0:0:
208,316,33289,1,0,3:0:0:0:
316,344,33455,2,0,P|353:345|386:329,1,75,8|0,0:0|0:0,0:0:0:0:
457,238,33787,6,0,P|450:163|440:88,2,150,0|8|0,3:0|0:0|3:0,0:0:0:0:
387,328,34615,1,0,3:0:0:0:
293,278,34781,2,0,P|288:241|301:206,1,75,8|0,0:0|0:0,0:0:0:0:
365,134,35113,6,0,P|297:160|236:122,1,150,0|8,3:0|0:0,0:0:0:0:
152,48,35610,2,0,L|79:62,1,75,0|0,3:0|0:0,0:0:0:0:
40,168,35941,1,0,3:0:0:0:
40,168,36024,1,0,0:0:0:0:
40,168,36107,2,0,L|113:182,1,75,8|0,0:0|0:0,0:0:0:0:
212,268,36439,6,0,P|220:305|224:342,1,75,4|0,3:2|0:0,0:0:0:0:
116,292,36770,2,0,P|79:284|42:280,1,75,8|0,0:0|3:0,0:0:0:0:
114,182,37102,2,0,P|150:174|187:170,1,75,0|0,0:0|3:0,0:0:0:0:
300,192,37433,2,0,P|308:155|312:118,1,75,8|0,0:0|0:0,0:0:0:0:
205,43,37765,6,0,P|163:101|187:169,1,150,2|8,3:2|0:0,0:0:0:0:
300,192,38262,2,0,P|337:184|374:180,1,75,2|0,3:2|0:0,0:0:0:0:
337,320,38593,1,0,3:0:0:0:
224,342,38759,2,0,P|186:337|150:330,1,75,8|0,0:0|0:0,0:0:0:0:
64,256,39091,6,0,L|50:183,1,75,2|0,3:2|0:0,0:0:0:0:
128,104,39422,1,8,0:0:0:0:
212,176,39588,2,0,P|217:213|204:248,1,75,2|0,3:2|0:0,0:0:0:0:
128,104,39919,2,0,P|123:67|136:32,1,75,0|8,3:0|0:0,0:0:0:0:
260,84,40251,6,0,P|331:100|397:67,1,150,4|0,3:2|3:0,0:0:0:0:
476,148,40748,2,0,L|462:221,1,75,8|0,0:0|0:0,0:0:0:0:
372,276,41080,1,2,3:2:0:0:
372,276,41245,2,0,L|386:349,1,75,0|0,3:0|3:0,0:0:0:0:
272,336,41577,1,0,3:0:0:0:
272,336,41660,1,0,3:0:0:0:
272,336,41743,6,0,L|258:263,1,75,4|0,3:2|0:0,0:0:0:0:
188,184,42074,1,0,3:0:0:0:
188,184,42240,2,0,P|134:172|85:199,1,112.5,4|0,3:2|0:0,0:0:0:0:
68,236,42571,2,0,L|82:309,1,75,4|0,3:2|0:0,0:0:0:0:
184,340,42903,1,0,3:0:0:0:
258,262,43068,6,0,L|281:144,1,120,4|2,3:2|0:0,0:0:0:0:
416,240,43731,2,0,L|356:248,1,60,2|0,0:0|0:0,0:0:0:0:
258,262,44063,1,8,0:3:0:0:
281,144,44229,1,0,0:0:0:0:
183,158,44394,6,0,L|123:166,1,60,4|0,0:3|0:0,0:0:0:0:
52,256,44726,1,0,3:0:0:0:
62,298,44891,1,0,3:0:0:0:
93,329,45057,1,0,3:0:0:0:
136,340,45223,1,0,3:0:0:0:
179,328,45388,1,8,0:0:0:0:
179,328,45720,6,0,P|234:308|290:327,1,120,4|0,0:3|0:0,0:0:0:0:
402,327,46218,2,0,P|346:346|290:327,1,120,8|0,0:3|0:0,0:0:0:0:
251,228,46715,2,0,L|243:168,1,60,8|0,3:2|0:0,0:0:0:0:
241,154,46963,1,0,0:0:0:0:
239,139,47046,1,0,3:0:0:0:
387,64,47378,5,0,3:0:0:0:
387,64,47544,1,0,3:0:0:0:
351,176,47709,2,0,P|391:194|435:189,1,90,8|0,3:2|0:0,0:0:0:0:
463,220,48041,2,0,P|413:228|377:263,1,101.25,8|0,3:2|0:0,0:0:0:0:
364,300,48372,6,0,L|352:374,1,75,4|0,3:2|0:0,0:0:0:0:
220,336,48704,2,0,L|208:262,1,75,8|0,0:0|3:0,0:0:0:0:
308,188,49035,1,0,0:0:0:0:
308,188,49201,2,0,L|320:114,1,75,0|8,3:0|0:0,0:0:0:0:
228,48,49533,6,0,P|169:89|168:168,1,150,0|0,3:0|3:0,0:0:0:0:
224,256,50030,1,8,0:0:0:0:
224,256,50196,2,0,L|236:330,1,75,2|0,3:2|0:0,0:0:0:0:
363,332,50527,1,0,3:0:0:0:
363,332,50693,2,0,P|378:298|377:261,1,75,8|0,0:0|0:0,0:0:0:0:
308,188,51024,6,0,P|373:218|441:179,1,150,4|8,3:2|0:0,0:0:0:0:
308,188,51522,2,0,P|242:157|174:196,1,150,2|0,3:2|3:0,0:0:0:0:
148,300,52019,1,8,0:0:0:0:
148,300,52184,1,0,0:0:0:0:
244,240,52350,6,0,L|272:92,1,150,4|8,3:2|0:0,0:0:0:0:
372,136,52847,2,0,L|344:284,1,150,2|0,3:2|3:0,0:0:0:0:
250,348,53345,1,8,0:0:0:0:
250,348,53510,1,0,3:0:0:0:
148,300,53676,6,0,P|110:296|73:295,1,75,4|0,3:2|3:0,0:0:0:0:
48,184,54008,1,0,3:0:0:0:
48,184,54173,2,0,P|86:180|123:179,1,75,4|0,3:2|0:0,0:0:0:0:
232,144,54505,1,8,0:3:0:0:
144,72,54671,1,0,0:0:0:0:
248,32,54836,6,0,B|296:48|296:48|393:29,1,150,4|0,3:2|3:0,0:0:0:0:
484,84,55334,1,0,3:0:0:0:
392,136,55499,1,0,3:0:0:0:
392,136,55582,1,0,3:0:0:0:
392,136,55665,2,0,P|383:191|380:247,1,112.5,2|0,3:2|3:0,0:0:0:0:
380,288,55997,1,2,3:2:0:0:
200,196,56328,5,10,0:0:0:0:
200,196,56494,1,10,0:0:0:0:
200,196,56660,1,10,0:0:0:0:
200,196,56991,6,0,P|164:176|88:196,1,112.5,10|0,0:0|0:0,0:0:0:0:
68,220,57323,1,10,0:0:0:0:
239,268,57488,2,0,P|280:207|258:138,1,150,10|10,0:0|0:0,0:0:0:0:
184,64,57986,1,10,0:0:0:0:
68,220,58483,5,0,0:0:0:0:
68,220,58649,2,0,L|80:294,1,75,2|0,0:0|0:0,0:0:0:0:
183,340,58980,6,0,P|221:336|258:335,1,75,0|0,3:0|0:0,0:0:0:0:
372,344,59312,2,0,P|378:307|382:269,1,75,6|0,0:0|0:0,0:0:0:0:
280,224,59643,2,0,P|273:187|269:149,1,75,0|0,3:0|0:0,0:0:0:0:
360,80,59975,1,10,0:0:0:0:
360,80,60140,6,0,P|421:118|420:190,1,150,0|0,3:0|3:0,0:0:0:0:
332,260,60638,2,0,B|292:256|292:256|255:265|255:265|183:259,1,150,10|0,0:0|3:0,0:0:0:0:
44,204,61301,1,10,0:0:0:0:
44,204,61632,6,0,P|42:166|58:133,1,75,0|0,3:0|0:0,0:0:0:0:
152,72,61963,2,0,L|226:60,1,75,6|0,0:0|0:0,0:0:0:0:
260,176,62295,2,0,L|186:164,1,75,0|0,3:0|0:0,0:0:0:0:
152,280,62626,1,10,0:0:0:0:
152,280,62792,6,0,L|300:256,1,150,0|0,3:0|3:0,0:0:0:0:
412,276,63289,2,0,P|427:309|426:346,1,75,10|0,0:0|0:0,0:0:0:0:
300,256,63621,2,0,P|298:218|314:185,1,75,0|0,3:0|0:0,0:0:0:0:
388,112,63952,1,10,0:0:0:0:
388,112,64118,6,0,B|316:132|316:132|244:112,1,150,0|0,3:0|3:0,0:0:0:0:
136,80,64615,1,10,0:0:0:0:
20,176,64947,1,0,3:0:0:0:
116,292,65278,1,10,0:0:0:0:
116,292,65610,6,0,L|190:280,1,75,0|0,3:0|0:0,0:0:0:0:
208,376,65941,1,10,0:0:0:0:
83,362,66107,2,0,P|39:304|63:235,1,150,0|0,3:0|3:0,0:0:0:0:
160,176,66604,1,10,0:0:0:0:
259,229,66770,1,0,3:0:0:0:
259,229,66853,1,0,3:0:0:0:
259,229,66936,6,0,P|296:230|330:215,1,75,10|0,0:0|3:0,0:0:0:0:
440,168,67267,2,0,P|420:199|416:236,1,75,10|0,0:0|3:0,0:0:0:0:
403,356,67599,2,0,P|385:323|355:301,1,75,10|0,0:0|3:0,0:0:0:0:
259,229,67930,1,10,0:0:0:0:
160,296,68096,6,0,L|86:284,1,75,4|0,3:2|0:0,0:0:0:0:
20,192,68428,1,2,3:2:0:0:
131,192,68593,2,0,L|206:192,2,75,8|0|0,0:0|0:0|3:0,0:0:0:0:
20,192,69091,1,2,0:0:0:0:
86,100,69256,2,0,L|160:88,1,75,10|0,0:0|0:0,0:0:0:0:
280,156,69588,6,0,P|287:192|279:228,1,75,0|0,3:0|0:0,0:0:0:0:
159,161,69919,2,0,P|152:125|160:89,1,75,6|0,0:0|0:0,0:0:0:0:
264,44,70251,2,0,L|338:32,1,75,0|0,3:0|0:0,0:0:0:0:
436,104,70582,1,10,0:0:0:0:
436,104,70748,6,0,P|427:178|420:253,1,150,0|0,3:0|3:0,0:0:0:0:
376,355,71245,2,0,P|304:368|252:318,1,150,10|0,0:0|3:0,0:0:0:0:
280,172,71908,1,10,0:0:0:0:
280,172,72240,6,0,L|268:98,1,75,0|0,3:0|0:0,0:0:0:0:
168,44,72571,2,0,P|131:39|95:51,1,75,6|0,0:0|0:0,0:0:0:0:
92,164,72903,2,0,P|128:168|164:156,1,75,0|0,3:0|0:0,0:0:0:0:
268,98,73234,1,10,0:0:0:0:
268,98,73400,6,0,L|244:246,1,150,0|0,3:0|3:0,0:0:0:0:
340,304,73897,2,0,L|352:230,1,75,10|0,0:0|0:0,0:0:0:0:
448,168,74229,2,0,L|436:94,1,75,0|0,3:0|0:0,0:0:0:0:
336,44,74560,1,10,0:0:0:0:
336,44,74726,6,0,P|265:67|195:46,1,150,0|0,3:0|3:0,0:0:0:0:
92,92,75223,1,10,0:0:0:0:
92,92,75389,1,0,0:0:0:0:
175,163,75555,2,0,P|179:201|180:238,1,75,0|0,3:0|0:0,0:0:0:0:
68,243,75886,2,0,P|64:281|63:318,1,75,10|0,0:0|0:0,0:0:0:0:
160,380,76218,5,4,3:2:0:0:
255,324,76383,2,0,P|293:320|330:319,1,75,0|10,0:0|0:0,0:0:0:0:
440,348,76715,2,0,P|455:274|466:200,1,150,4|0,3:2|3:0,0:0:0:0:
408,104,77212,1,10,0:0:0:0:
304,148,77378,1,0,0:0:0:0:
304,148,77461,1,0,0:0:0:0:
304,148,77544,6,0,P|304:185|308:222,1,75,2|0,3:2|3:0,0:0:0:0:
408,104,77875,2,0,P|411:66|412:29,1,75,2|0,3:2|3:0,0:0:0:0:
304,148,78207,1,2,3:2:0:0:
304,148,78372,1,0,3:0:0:0:
200,104,78538,1,2,3:2:0:0:
200,104,78704,1,0,3:0:0:0:
95,148,78870,6,0,P|82:248|182:264,1,225,2|0,3:2|0:0,0:0:0:0:
228,184,79533,1,2,3:2:0:0:
140,205,79698,1,2,3:2:0:0:
288,272,80030,1,0,3:0:0:0:
288,272,80113,1,0,0:0:0:0:
288,272,80196,6,0,P|326:268|363:267,1,75,4|0,3:2|0:0,0:0:0:0:
448,204,80527,2,0,P|451:166|452:129,1,75,10|0,0:0|3:0,0:0:0:0:
376,56,80859,1,0,0:0:0:0:
376,56,81024,1,0,3:0:0:0:
280,99,81190,2,0,P|243:108|207:99,1,75,10|0,0:0|0:0,0:0:0:0:
108,64,81522,6,0,B|104:104|104:104|113:141|113:141|107:213,1,150,2|10,3:2|0:0,0:0:0:0:
12,260,82019,2,0,P|3:296|12:332,1,75,0|0,3:0|0:0,0:0:0:0:
108,376,82350,1,0,3:0:0:0:
108,376,82433,1,0,0:0:0:0:
108,376,82516,2,0,P|145:375|182:371,1,75,10|0,0:0|0:0,0:0:0:0:
276,320,82847,6,0,P|275:282|271:245,1,75,2|0,3:2|0:0,0:0:0:0:
172,212,83179,2,0,P|172:174|176:137,1,75,10|0,0:0|0:0,0:0:0:0:
260,72,83510,2,0,P|297:68|334:67,1,75,0|0,3:0|3:0,0:0:0:0:
436,96,83842,1,10,0:0:0:0:
436,96,84008,6,0,P|459:164|416:222,1,150,0|0,3:0|3:0,0:0:0:0:
320,264,84505,2,0,L|309:338,1,75,10|0,0:0|0:0,0:0:0:0:
208,364,84836,2,0,L|197:289,1,75,2|0,3:2|0:0,0:0:0:0:
182,185,85168,1,10,0:0:0:0:
182,185,85499,6,0,P|129:152|128:214,1,150,4|0,3:2|0:0,0:0:0:0:
182,185,85997,2,0,P|236:155|183:123,1,150,4|0,3:2|0:0,0:0:0:0:
182,185,86494,6,0,P|179:308|288:249,1,300,4|0,3:2|0:0,0:0:0:0:
252,132,87488,1,4,0:0:0:0:
217,247,87654,1,4,0:0:0:0:
