osu file format v14

[General]
AudioFilename: audio.mp3
AudioLeadIn: 0
PreviewTime: 58709
Countdown: 1
SampleSet: Soft
StackLeniency: 0.7
Mode: 0
LetterboxInBreaks: 0
WidescreenStoryboard: 1

[Editor]
Bookmarks: 24565
DistanceSpacing: 1
BeatDivisor: 4
GridSize: 32
TimelineZoom: 1

[Metadata]
Title:Mirai no Bokura wa Shitteru yo
TitleUnicode:Mirai no Bokura wa Shitteru yo
Artist:Aqours
ArtistUnicode:Aqours
Creator:Planecakes
Version:Normal
Source:ラブライブ!サンシャイン!! 2
Tags:victorfernando yShadowXOP_
BeatmapID:1435401
BeatmapSetID:678518

[Difficulty]
HPDrainRate:4
CircleSize:3
OverallDifficulty:4
ApproachRate:4
SliderMultiplier:1
SliderTickRate:1

[Events]
//Background and Video events
0,0,"839073.jpg",0,0
//Break Periods
//Storyboard Layer 0 (Background)
//Storyboard Layer 1 (Fail)
//Storyboard Layer 2 (Pass)
//Storyboard Layer 3 (Foreground)
//Storyboard Layer 4 (Overlay)
//Storyboard Sound Samples

[TimingPoints]
698,331.491712707182,4,1,0,45,1,0
9233,-100,4,2,1,65,0,0
13791,-100,4,2,1,65,0,0
19095,-100,4,2,1,65,0,0
51084,-100,4,2,1,65,0,0
59040,-100,4,2,1,65,0,1
59206,-100,4,2,1,65,0,1
59372,-100,4,2,1,80,0,1
78930,-100,4,2,1,65,0,0
80090,-100,4,2,1,80,0,1
86554,-100,4,2,1,65,0,0

[Colours]
Combo1 : 74,134,255
Combo2 : 30,75,181
Combo3 : 32,191,184
Combo4 : 255,255,255

[HitObjects]
380,300,2023,6,0,B|359:219|359:219|386:86,1,200
196,29,3349,2,0,B|217:110|217:110|190:243,1,200
60,373,4675,2,0,P|63:282|36:224,2,150
255,145,6664,6,0,B|376:176|376:176|433:234,2,200
97,305,8653,2,0,P|176:226|159:130,1,200,0|2,0:0|0:0,0:0:0:0:
8,18,9979,5,6,0:0:0:0:
77,201,11305,2,0,L|235:249,2,150,6|6|2,0:0|0:0|0:0,0:0:0:0:
13,107,12631,6,0,P|64:116|123:110,1,100,2|2,0:0|0:0,0:0:0:0:
211,98,13294,2,0,P|255:156|337:166,1,150,2|2,0:0|0:0,0:0:0:0:
446,97,14289,1,2,0:0:0:0:
381,20,14620,2,0,P|333:11|271:16,1,100,2|8,0:0|0:0,0:0:0:0:
211,98,15283,6,0,L|226:210,1,100,2|8,0:0|0:0,0:0:0:0:
220,297,15946,2,0,P|198:255|141:221,1,100,2|8,0:0|0:0,0:0:0:0:
76,164,16609,2,0,B|45:225|45:225|61:361,1,200,2|2,0:0|0:0,0:0:0:0:
160,369,17604,1,8,0:0:0:0:
223,291,17935,2,0,P|284:275|372:309,1,150,6|8,0:0|0:0,0:0:0:0:
411,214,18764,2,0,P|472:198|525:211,1,100,2|8,0:0|0:0,0:0:0:0:
50,321,20587,6,0,P|108:334|238:270,1,200,2|2,0:0|0:0,0:0:0:0:
353,119,21913,2,0,P|407:133|443:165,1,100,2|8,0:0|0:0,0:0:0:0:
499,241,22576,2,0,P|460:272|411:283,1,100,2|8,0:0|0:0,0:0:0:0:
317,317,23239,6,0,B|298:247|298:247|328:102,1,200,2|2,0:0|0:0,0:0:0:0:
347,24,24233,1,8,0:0:0:0:
246,22,24565,2,0,P|197:32|150:49,1,100,2|8,0:0|0:0,0:0:0:0:
82,122,25228,2,0,P|131:132|178:149,1,100,2|8,0:0|0:0,0:0:0:0:
247,221,25891,6,0,L|280:333,1,100,6|8,0:0|0:0,0:0:0:0:
366,357,26554,2,0,P|414:346|448:311,1,100,2|8,0:0|0:0,0:0:0:0:
456,210,27217,2,0,L|428:93,2,100,2|8|2,0:0|0:0|0:0,0:0:0:0:
283,107,28543,2,0,B|290:154|290:154|272:222,1,100,2|8,0:0|0:0,0:0:0:0:
198,267,29206,2,0,B|92:224,1,100,2|8,0:0|0:0,0:0:0:0:
233,115,30035,6,0,B|297:104,2,50,8|8|0,0:0|0:0|0:0,0:0:0:0:
296,192,30697,2,0,B|383:177|383:177|460:204,1,150,2|2,0:0|0:0,0:0:0:0:
493,283,31526,1,8,0:0:0:0:
411,341,31858,2,0,L|299:327,1,100,2|8,0:0|0:0,0:0:0:0:
213,311,32521,6,0,B|167:303|167:303|113:271,1,100,2|8,0:0|0:0,0:0:0:0:
50,204,33184,2,0,P|45:147|63:88,1,100,2|8,0:0|0:0,0:0:0:0:
122,31,33847,1,6,0:0:0:0:
220,205,34510,2,0,P|233:253|231:302,1,100,2|8,0:0|0:0,0:0:0:0:
147,358,35173,2,0,L|48:372,2,100,2|8|2,0:0|0:0|0:0,0:0:0:0:
136,258,36167,1,8,0:0:0:0:
72,183,36499,2,0,P|80:123|103:80,1,100,6|8,0:0|0:0,0:0:0:0:
165,14,37162,2,0,L|255:79,1,100,2|8,0:0|0:0,0:0:0:0:
309,150,37825,6,0,P|268:156|214:189,2,100,2|8|2,0:0|0:0|0:0,0:0:0:0:
406,171,38819,1,8,0:0:0:0:
495,215,39151,2,0,B|496:267|496:267|474:320,1,100,6|2,0:0|0:0,0:0:0:0:
392,363,39814,2,0,L|293:344,1,100,2|8,0:0|0:0,0:0:0:0:
197,317,40477,6,0,P|183:226|272:203,1,200,2|8,0:0|0:0,0:0:0:0:
366,231,41471,1,2,0:0:0:0:
453,182,41802,2,0,L|475:339,2,150,6|6|6,0:0|0:0|0:0,0:0:0:0:
372,122,43128,2,0,L|361:236,1,100,2|0,0:0|0:0,0:0:0:0:
395,319,43791,2,0,P|331:320|290:296,1,100,2|8,0:0|0:0,0:0:0:0:
253,215,44454,5,2,0:0:0:0:
417,101,45117,2,0,L|446:207,1,100,2|8,0:0|0:0,0:0:0:0:
476,291,45780,1,2,0:0:0:0:
280,335,46443,2,0,L|262:223,1,100,2|8,0:0|0:0,0:0:0:0:
228,140,47106,2,0,L|237:90,2,50,12|12|12,0:0|0:0|0:0,0:0:0:0:
151,204,47769,2,0,P|80:223|39:213,1,100,6|8,0:0|0:0,0:0:0:0:
11,128,48432,6,0,B|53:97|53:97|113:87,1,100,2|8,0:0|0:0,0:0:0:0:
197,112,49095,2,0,L|214:183,2,50,2|2|8,0:0|0:0|0:0,0:0:0:0:
285,64,49758,2,0,L|401:59,1,100,2|8,0:0|0:0,0:0:0:0:
454,131,50421,2,0,L|421:233,1,100,2|8,0:0|0:0,0:0:0:0:
413,325,51084,6,0,L|306:294,1,100,6|8,0:0|0:0,0:0:0:0:
216,324,51747,2,0,P|236:281|236:210,1,100,2|8,0:0|0:0,0:0:0:0:
210,133,52410,2,0,B|201:80|201:80|223:26,1,100,2|8,0:0|0:0,0:0:0:0:
312,2,53073,2,0,L|415:34,1,100,2|8,0:0|0:0,0:0:0:0:
478,101,53736,6,0,L|334:143,2,150,6|6|12,0:0|0:0|0:0,0:0:0:0:
406,30,55062,2,0,L|308:53,1,100,2|8,0:0|0:0,0:0:0:0:
212,81,55725,1,2,0:0:0:0:
114,105,56057,1,8,0:0:0:0:
18,133,56388,2,8,L|5:193,2,50
95,196,57051,2,0,P|79:252|101:298,2,100,8|8|8,0:0|0:0|0:0,0:0:0:0:
188,158,58046,1,8,0:0:0:0:
318,73,59040,6,0,L|326:192,1,100,6|8,0:0|0:0,0:0:0:0:
338,271,59703,1,2,0:0:0:0:
432,303,60035,1,8,0:0:0:0:
503,233,60366,2,0,P|501:187|474:137,1,100,2|8,0:0|0:0,0:0:0:0:
417,61,61029,2,0,L|313:73,1,100,2|8,0:0|0:0,0:0:0:0:
225,112,61692,5,2,0:0:0:0:
214,211,62023,1,12,0:0:0:0:
302,257,62355,2,0,L|306:322,2,50,2|2|8,0:0|0:0|0:0,0:0:0:0:
396,224,63018,6,0,P|400:172|426:107,1,100,2|8,0:0|0:0,0:0:0:0:
482,52,63681,2,0,L|365:37,1,100,2|8,0:0|0:0,0:0:0:0:
283,25,64344,1,2,0:0:0:0:
191,63,64675,1,8,0:0:0:0:
166,160,65007,2,0,L|153:280,1,100,2|8,0:0|0:0,0:0:0:0:
160,359,65670,2,0,L|10:346,1,150,2|2,0:0|0:0,0:0:0:0:
81,214,66664,5,8,0:0:0:0:
166,160,66996,2,0,B|210:144|210:144|261:159,1,100,2|8,0:0|0:0,0:0:0:0:
348,208,67659,2,0,L|338:321,1,100,2|8,0:0|0:0,0:0:0:0:
256,363,68322,2,0,L|146:370,2,100,2|8|2,0:0|0:0|0:0,0:0:0:0:
240,264,69316,1,8,0:0:0:0:
226,164,69648,6,0,L|333:188,1,100,2|12,0:0|0:0,0:0:0:0:
422,203,70311,2,0,B|451:152|449:92,1,100,2|8,0:0|0:0,0:0:0:0:
382,32,70974,2,0,L|278:36,2,100,2|8|2,0:0|0:0|0:0,0:0:0:0:
340,123,71968,1,8,0:0:0:0:
288,209,72300,2,0,B|276:260|276:260|295:313,1,100,2|8,0:0|0:0,0:0:0:0:
363,374,72963,1,2,0:0:0:0:
457,340,73294,1,8,0:0:0:0:
476,241,73626,6,0,P|456:179|424:141,1,100,2|8,0:0|0:0,0:0:0:0:
346,105,74289,2,0,L|355:41,2,50,2|2|8,0:0|0:0|0:0,0:0:0:0:
246,115,74952,2,0,L|124:102,1,100,2|8,0:0|0:0,0:0:0:0:
46,99,75615,2,0,L|56:198,1,100,2|8,0:0|0:0,0:0:0:0:
61,298,76278,2,0,B|145:304|145:304|196:354,2,150,6|6|8,0:0|0:0|0:0,0:0:0:0:
56,198,77604,6,0,L|147:144,1,100,2|8,0:0|0:0,0:0:0:0:
229,98,78267,2,0,P|250:124|265:198,1,100,2|8,0:0|0:0,0:0:0:0:
248,286,78930,1,6,0:0:0:0:
446,201,79593,2,0,L|457:274,1,50,6|6,0:0|0:0,0:0:0:0:
375,129,80256,6,0,L|265:151,1,100,2|8,0:0|0:0,0:0:0:0:
177,159,80918,2,0,P|118:136|65:141,1,100,2|8,0:0|0:0,0:0:0:0:
25,219,81581,1,2,0:0:0:0:
69,308,81913,1,8,0:0:0:0:
163,340,82244,6,0,L|279:317,1,100,2|8,0:0|0:0,0:0:0:0:
360,346,82907,2,0,B|373:290|332:248,1,100,2|8,0:0|0:0,0:0:0:0:
239,230,83570,2,0,L|263:122,1,100,2|8,0:0|0:0,0:0:0:0:
286,35,84233,1,2,0:0:0:0:
383,57,84565,1,8,0:0:0:0:
479,81,84896,2,0,L|459:190,1,100,2|8,0:0|0:0,0:0:0:0:
440,277,85559,6,0,P|367:262|297:286,2,150,6|8|6,0:0|0:0|0:0,0:0:0:0:
163,160,87548,2,0,L|177:224,1,50,6|2,0:0|0:0,0:0:0:0:
