osu file format v14

[General]
AudioFilename: audio.mp3
AudioLeadIn: 0
PreviewTime: 58709
Countdown: 0
SampleSet: Normal
StackLeniency: 0.7
Mode: 0
LetterboxInBreaks: 0
WidescreenStoryboard: 0

[Editor]
Bookmarks: 24565
DistanceSpacing: 0.6
BeatDivisor: 4
GridSize: 32
TimelineZoom: 2.5

[Metadata]
Title:Mirai no Bokura wa Shitteru yo
TitleUnicode:Mirai no Bokura wa Shitteru yo
Artist:Aqours
ArtistUnicode:Aqours
Creator:Planecakes
Version:Mirai
Source:ラブライブ!サンシャイン!! 2
Tags:victorfernando yShadowXOP_
BeatmapID:1434686
BeatmapSetID:678518

[Difficulty]
HPDrainRate:6
CircleSize:4.1
OverallDifficulty:8.5
ApproachRate:9.3
SliderMultiplier:1.4
SliderTickRate:1

[Events]
//Background and Video events
0,0,"839073.jpg",0,0
//Break Periods
//Storyboard Layer 0 (Background)
//Storyboard Layer 1 (Fail)
//Storyboard Layer 2 (Pass)
//Storyboard Layer 3 (Foreground)
//Storyboard Layer 4 (Overlay)
//Storyboard Sound Samples

[TimingPoints]
698,331.491712707182,4,1,0,45,1,0
1858,-100,4,2,1,5,0,0
2023,-133.333333333333,4,2,1,45,0,0
6664,-100,4,2,1,45,0,0
9233,-100,4,2,1,65,0,0
9979,-80,4,2,1,65,0,0
13791,-57.1428571428571,4,2,1,65,0,0
14952,-57.1428571428571,4,2,1,65,0,0
15283,-76.9230769230769,4,2,1,65,0,0
17023,-66.6666666666667,4,2,1,65,0,0
19095,-76.9230769230769,4,2,1,65,0,0
19758,-66.6666666666667,4,2,1,65,0,0
20587,-83.3333333333333,4,2,1,65,0,0
30697,-66.6666666666667,4,2,1,65,0,0
31195,-83.3333333333333,4,2,1,65,0,0
41802,-66.6666666666667,4,2,1,65,0,0
42963,-90.9090909090909,4,2,1,65,0,0
46775,-76.9230769230769,4,2,1,65,0,0
48432,-83.3333333333333,4,2,1,65,0,0
51084,-76.9230769230769,4,2,1,65,0,0
59040,-57.1428571428571,4,2,1,65,0,1
59372,-50,4,2,1,80,0,1
59703,-66.6666666666667,4,2,1,65,0,1
69648,-57.1428571428571,4,2,1,65,0,1
69979,-50,4,2,1,65,0,1
70311,-66.6666666666667,4,2,1,65,0,1
78930,-100,4,2,1,65,0,0
80256,-71.4285714285714,4,2,1,80,0,1
86554,-71.4285714285714,4,2,1,65,0,0

[Colours]
Combo1 : 74,134,255
Combo2 : 56,194,16
Combo3 : 210,13,67
Combo4 : 217,74,217

[HitObjects]
256,192,698,12,0,1858,0:0:0:0:
332,41,2023,6,0,P|402:32|313:118,1,315.000012016297
232,59,3184,2,0,P|165:51|130:185,1,210.000008010865
144,270,4012,2,0,P|113:318|51:326,1,105.000004005432
5,221,4675,5,0,0:0:0:0:
206,38,5173,1,0,0:0:0:0:
281,327,5670,1,0,0:0:0:0:
45,310,6499,5,0,0:0:0:0:
45,310,6581,1,0,0:0:0:0:
45,310,6664,2,0,B|128:295|93:354|179:337,1,140
231,135,7327,2,0,P|256:218|208:260,1,140
95,227,7825,1,0,0:0:0:0:
472,93,8653,6,0,P|432:64|336:122,1,175
275,222,9151,2,0,P|278:200|270:181,1,35
182,120,9316,6,0,B|142:179|215:188|170:274,1,140
128,314,9814,1,0,0:0:0:0:
121,63,9979,6,0,P|201:40|261:124,1,175,6|0,0:0|0:0,0:0:0:0:
396,302,10642,2,0,P|353:334|338:236,1,175
338,80,11305,2,0,P|356:113|352:169,1,87.5,12|2,0:0|0:0,0:0:0:0:
194,292,11637,1,2,0:0:0:0:
68,147,11802,2,0,L|245:135,1,175,12|0,0:0|0:0,0:0:0:0:
181,36,12300,2,0,L|158:132,1,87.5,8|0,0:0|0:0,0:0:0:0:
285,263,12631,5,8,0:0:0:0:
319,75,12797,1,8,0:0:0:0:
192,259,12963,1,8,0:0:0:0:
377,165,13129,1,8,0:0:0:0:
163,110,13294,5,8,0:0:0:0:
298,283,13460,1,8,0:0:0:0:
147,90,13626,1,8,0:0:0:0:
446,209,13791,6,0,B|476:162|445:116|445:116|451:114|451:114|428:67|467:19,1,183.750001752377,6|0,0:0|0:0,0:0:0:0:
478,19,14123,1,8,0:0:0:0:
213,159,14289,1,2,0:0:0:0:
458,297,14454,1,2,0:0:0:0:
280,70,14620,5,8,0:0:0:0:
282,94,14703,1,8,0:0:0:0:
288,117,14786,2,0,L|300:195,1,61.2500005841255,2|0,0:0|0:0,0:0:0:0:
150,318,14952,6,0,P|142:279|252:283,1,183.750001752377,8|0,0:0|0:0,0:0:0:0:
322,376,15283,6,0,L|208:339,1,90.9999958343508,6|0,0:0|0:0,0:0:0:0:
169,84,15615,1,8,0:0:0:0:
372,160,15780,2,0,P|387:203|361:277,1,90.9999958343508,2|0,0:0|0:0,0:0:0:0:
153,338,16112,1,2,0:0:0:0:
254,151,16278,1,8,0:0:0:0:
372,347,16443,6,0,B|464:370|428:297|529:322,1,136.499993751526,2|0,0:0|0:0,0:0:0:0:
499,316,16775,1,2,0:0:0:0:
431,104,16941,1,8,0:0:0:0:
284,258,17106,2,0,P|220:248|173:219,1,105.000004005432,2|0,0:0|0:0,0:0:0:0:
42,58,17438,1,8,0:0:0:0:
60,101,17521,1,8,0:0:0:0:
62,148,17604,2,0,P|58:179|43:209,1,52.5000020027161,2|0,0:0|0:0,0:0:0:0:
131,351,17769,2,0,P|135:320|150:290,1,52.5000020027161,2|0,0:0|0:0,0:0:0:0:
221,86,17935,6,0,P|220:148|278:173,1,105.000004005432,6|8,0:0|0:0,0:0:0:0:
282,172,18184,1,8,0:0:0:0:
312,163,18267,1,8,0:0:0:0:
478,227,18432,6,0,P|409:210|393:303,1,157.500006008148,6|0,0:0|0:0,0:0:0:0:
285,349,18764,2,0,P|355:365|385:298,1,157.500006008148,6|0,0:0|0:0,0:0:0:0:
295,253,19095,5,6,0:0:0:0:
112,192,19758,1,0,0:0:0:0:
112,192,19841,1,0,0:0:0:0:
112,192,19924,2,0,L|194:179,1,52.5000020027161
297,220,20090,2,0,L|379:207,2,52.5000020027161,2|2|2,0:0|0:0|0:0,0:0:0:0:
163,23,20587,6,0,P|142:54|145:133,1,83.9999974365235,2|0,0:0|0:0,0:0:0:0:
211,258,20918,1,8,0:0:0:0:
297,103,21084,2,0,L|193:84,1,83.9999974365235,2|0,0:0|0:0,0:0:0:0:
42,134,21416,1,2,0:0:0:0:
183,260,21581,1,8,0:0:0:0:
105,73,21747,1,2,0:0:0:0:
26,257,21913,6,0,P|25:289|48:354,1,83.9999974365235,2|0,0:0|0:0,0:0:0:0:
232,361,22244,1,8,0:0:0:0:
150,137,22410,2,0,L|96:221,1,83.9999974365235,2|0,0:0|0:0,0:0:0:0:
157,378,22742,1,2,0:0:0:0:
286,206,22907,1,8,0:0:0:0:
107,288,23073,1,2,0:0:0:0:
361,278,23239,6,0,P|376:204|373:170,1,83.9999974365235,2|0,0:0|0:0,0:0:0:0:
232,90,23570,1,8,0:0:0:0:
202,268,23736,1,0,0:0:0:0:
353,40,23902,2,0,P|364:80|367:122,1,83.9999974365235,2|2,0:0|0:0,0:0:0:0:
292,334,24233,2,0,P|280:293|277:251,1,83.9999974365235,8|0,0:0|0:0,0:0:0:0:
468,180,24565,6,0,P|422:209|355:199,1,83.9999974365235,2|0,0:0|0:0,0:0:0:0:
236,122,24896,1,8,0:0:0:0:
468,63,25062,2,0,P|490:117|495:232,1,167.999994873047,2|0,0:0|0:0,0:0:0:0:
363,344,25559,2,0,P|390:304|445:300,1,83.9999974365235,8|2,0:0|0:0,0:0:0:0:
506,376,25891,5,6,0:0:0:0:
213,282,26222,1,8,0:0:0:0:
348,183,26388,1,0,0:0:0:0:
146,348,26554,2,0,P|134:291|131:245,1,83.9999974365235,2|2,0:0|0:0,0:0:0:0:
238,63,26885,1,8,0:0:0:0:
284,244,27051,1,2,0:0:0:0:
140,35,27217,6,0,P|128:92|125:138,1,83.9999974365235,2|0,0:0|0:0,0:0:0:0:
231,305,27548,1,8,0:0:0:0:
351,107,27714,2,0,B|283:97|303:155|208:136,1,125.999996154785,2|0,0:0|0:0,0:0:0:0:
233,139,28046,1,2,0:0:0:0:
64,209,28211,1,8,0:0:0:0:
297,223,28377,1,2,0:0:0:0:
101,68,28543,6,0,P|97:117|122:166,1,83.9999974365235,2|0,0:0|0:0,0:0:0:0:
315,233,28874,1,8,0:0:0:0:
221,52,29040,1,2,0:0:0:0:
179,217,29206,1,2,0:0:0:0:
310,22,29372,1,8,0:0:0:0:
363,13,29454,1,8,0:0:0:0:
402,37,29537,1,8,0:0:0:0:
421,69,29620,1,8,0:0:0:0:
425,98,29703,1,8,0:0:0:0:
153,312,30035,5,6,0:0:0:0:
340,98,30200,1,6,0:0:0:0:
457,358,30366,1,6,0:0:0:0:
137,191,30697,6,0,B|175:119|55:92|97:49|131:161|219:120,1,210.000008010865,6|0,0:0|0:0,0:0:0:0:
255,201,31195,6,0,P|263:252|259:296,1,83.9999974365235,2|0,0:0|0:0,0:0:0:0:
105,366,31526,1,8,0:0:0:0:
5,225,31692,2,0,L|11:141,1,83.9999974365235,2|0,0:0|0:0,0:0:0:0:
165,33,32023,1,2,0:0:0:0:
113,199,32189,1,8,0:0:0:0:
31,22,32355,1,2,0:0:0:0:
263,14,32521,6,0,P|308:50|321:88,1,83.9999974365235,2|0,0:0|0:0,0:0:0:0:
245,275,32852,1,8,0:0:0:0:
72,122,33018,2,0,L|164:105,1,83.9999974365235,2|0,0:0|0:0,0:0:0:0:
373,147,33349,1,0,0:0:0:0:
136,228,33515,1,8,0:0:0:0:
308,74,33681,1,2,0:0:0:0:
170,308,33847,6,0,L|78:325,1,83.9999974365235,2|0,0:0|0:0,0:0:0:0:
326,221,34178,2,0,L|418:238,1,83.9999974365235,8|0,0:0|0:0,0:0:0:0:
235,367,34510,1,2,0:0:0:0:
190,129,34675,1,2,0:0:0:0:
284,292,34841,1,8,0:0:0:0:
134,219,35007,1,2,0:0:0:0:
289,61,35173,6,0,P|314:101|301:157,1,83.9999974365235,6|0,0:0|0:0,0:0:0:0:
157,304,35504,1,8,0:0:0:0:
94,90,35670,2,0,L|199:114,1,83.9999974365235,6|0,0:0|0:0,0:0:0:0:
413,153,36001,1,2,0:0:0:0:
417,173,36084,1,2,0:0:0:0:
421,193,36167,2,0,P|344:200|327:145,1,125.999996154785,8|0,0:0|0:0,0:0:0:0:
340,126,36499,1,6,0:0:0:0:
156,328,36830,5,8,0:0:0:0:
79,168,36996,1,0,0:0:0:0:
243,263,37162,1,2,0:0:0:0:
30,255,37327,1,2,0:0:0:0:
228,92,37493,2,0,L|243:176,1,83.9999974365235,8|0,0:0|0:0,0:0:0:0:
74,331,37825,1,2,0:0:0:0:
158,151,37990,1,2,0:0:0:0:
234,365,38156,1,8,0:0:0:0:
79,168,38322,6,0,P|82:118|99:70,1,83.9999974365235
311,188,38653,1,0,0:0:0:0:
115,266,38819,1,8,0:0:0:0:
174,29,38985,1,8,0:0:0:0:
252,267,39151,5,6,0:0:0:0:
5,144,39316,1,0,0:0:0:0:
287,67,39482,1,8,0:0:0:0:
115,266,39648,2,0,P|64:253|30:218,1,83.9999974365235
174,29,39979,1,8,0:0:0:0:
193,61,40062,1,8,0:0:0:0:
194,98,40145,1,8,0:0:0:0:
222,318,40311,6,0,P|220:254|269:160,1,167.999994873047,6|0,0:0|0:0,0:0:0:0:
458,45,40808,1,8,0:0:0:0:
346,272,40974,1,0,0:0:0:0:
261,37,41139,1,8,0:0:0:0:
145,275,41305,5,0,0:0:0:0:
339,179,41471,1,0,0:0:0:0:
195,105,41637,1,0,0:0:0:0:
318,344,41802,2,0,P|386:341|417:308,1,105.000004005432,6|8,0:0|0:0,0:0:0:0:
430,292,42051,1,8,0:0:0:0:
427,260,42134,1,8,0:0:0:0:
374,53,42300,6,0,P|306:98|316:173,1,157.500006008148,6|0,0:0|0:0,0:0:0:0:
328,201,42631,2,0,P|248:184|202:244,1,157.500006008148,6|0,0:0|0:0,0:0:0:0:
194,278,42963,6,0,P|148:209|61:219,1,154.000004699707,6|2,0:0|0:0,0:0:0:0:
91,352,43460,2,0,L|115:272,1,77.0000023498536,2|0,0:0|0:0,0:0:0:0:
161,132,43791,1,2,0:0:0:0:
381,337,44123,1,2,0:0:0:0:
304,203,44289,2,0,L|288:285,1,77.0000023498536,2|0,0:0|0:0,0:0:0:0:
426,159,44620,1,2,0:0:0:0:
264,47,44786,6,0,P|212:82|218:176,1,154.000004699707,2|0,0:0|0:0,0:0:0:0:
399,233,45283,1,2,0:0:0:0:
286,127,45449,1,2,0:0:0:0:
229,270,45615,1,2,0:0:0:0:
442,310,45780,2,0,P|444:249|424:153,1,154.000004699707,2|0,0:0|0:0,0:0:0:0:
339,37,46278,1,2,0:0:0:0:
183,97,46443,2,0,P|181:135|196:184,1,77.0000023498536,2|0,0:0|0:0,0:0:0:0:
259,330,46775,6,0,P|261:292|217:256,1,90.9999958343508,2|0,0:0|0:0,0:0:0:0:
49,203,47106,1,6,0:0:0:0:
191,382,47272,1,8,0:0:0:0:
191,382,47355,1,8,0:0:0:0:
191,382,47438,1,8,0:0:0:0:
95,71,47769,5,8,0:0:0:0:
48,305,47935,1,0,0:0:0:0:
252,163,48101,2,0,P|263:101|193:61,1,136.499993751526,8|0,0:0|0:0,0:0:0:0:
157,114,48432,6,0,L|186:218,1,83.9999974365235,6|0,0:0|0:0,0:0:0:0:
337,355,48764,2,0,L|364:251,1,83.9999974365235,8|0,0:0|0:0,0:0:0:0:
329,73,49095,1,2,0:0:0:0:
257,261,49261,1,2,0:0:0:0:
396,155,49427,1,8,0:0:0:0:
224,45,49593,6,0,P|135:52|54:88,1,167.999994873047,2|0,0:0|0:0,0:0:0:0:
16,221,50090,1,8,0:0:0:0:
148,347,50256,2,0,P|146:256|138:244,1,83.9999974365235,2|0,0:0|0:0,0:0:0:0:
119,138,50587,2,0,P|128:156|156:170,1,41.9999987182618,2|2,0:0|0:0,0:0:0:0:
295,170,50753,2,0,B|356:155|385:126|363:104|334:113|321:147,1,125.999996154785,2|0,0:0|0:0,0:0:0:0:
372,243,51084,6,0,P|415:263|469:253,1,90.9999958343508,6|0,0:0|0:0,0:0:0:0:
340,45,51416,1,8,0:0:0:0:
288,283,51581,1,0,0:0:0:0:
346,27,51747,1,2,0:0:0:0:
510,203,51913,1,2,0:0:0:0:
258,163,52079,1,8,0:0:0:0:
468,45,52244,1,2,0:0:0:0:
182,209,52410,6,0,P|168:143|183:98,1,90.9999958343508,2|0,0:0|0:0,0:0:0:0:
387,163,52742,1,8,0:0:0:0:
203,312,52907,2,0,L|100:289,1,90.9999958343508,2|0,0:0|0:0,0:0:0:0:
310,123,53239,1,8,0:0:0:0:
310,123,53322,1,8,0:0:0:0:
310,123,53405,1,8,0:0:0:0:
372,329,53570,2,0,L|360:375,1,45.4999979171754,8|8,0:0|0:0,0:0:0:0:
135,190,53736,5,6,0:0:0:0:
396,81,53902,1,2,0:0:0:0:
285,314,54068,1,8,0:0:0:0:
190,57,54233,2,0,B|264:87|246:19|354:45,1,136.499993751526,2|0,0:0|0:0,0:0:0:0:
382,91,54565,1,2,0:0:0:0:
230,206,54731,1,8,0:0:0:0:
445,284,54896,2,0,P|474:224|432:150,1,136.499993751526,6|0,0:0|0:0,0:0:0:0:
449,162,55228,1,2,0:0:0:0:
179,138,55394,5,8,0:0:0:0:
155,176,55477,1,8,0:0:0:0:
151,220,55559,2,0,P|155:234|177:263,1,45.4999979171754,2|2,0:0|0:0,0:0:0:0:
318,353,55725,1,8,0:0:0:0:
342,315,55808,1,0,0:0:0:0:
346,271,55890,2,0,P|342:257|320:228,1,45.4999979171754,2|2,0:0|0:0,0:0:0:0:
169,353,56057,1,8,0:0:0:0:
243,45,56388,5,6,0:0:0:0:
469,294,56554,1,6,0:0:0:0:
138,225,56720,1,6,0:0:0:0:
395,29,57051,5,6,0:0:0:0:
61,361,57383,5,6,0:0:0:0:
183,49,57548,1,6,0:0:0:0:
435,336,57880,5,6,0:0:0:0:
320,59,58046,2,0,P|290:96|284:142,1,90.9999958343508,6|0,0:0|0:0,0:0:0:0:
347,326,58377,1,2,0:0:0:0:
371,293,58460,1,2,0:0:0:0:
378,260,58543,2,0,P|371:225|351:198,1,45.4999979171754,2|2,0:0|0:0,0:0:0:0:
202,349,58709,2,0,P|235:360|269:356,1,45.4999979171754,2|2,0:0|0:0,0:0:0:0:
191,142,58874,2,0,P|164:165|150:196,1,45.4999979171754,2|2,0:0|0:0,0:0:0:0:
237,282,59040,6,0,P|283:226|212:234,1,183.750001752377
120,302,59372,6,0,P|34:264|87:167,1,210,12|0,0:0|0:0,0:0:0:0:
67,173,59703,1,2,0:0:0:0:
310,127,59869,1,2,0:0:0:0:
202,349,60035,1,8,0:0:0:0:
81,79,60200,6,0,B|172:50|155:115|247:78,1,157.500006008148,2|0,0:0|0:0,0:0:0:0:
233,82,60532,1,2,0:0:0:0:
390,258,60697,2,0,P|407:312|385:376,1,105.000004005432,8|0,0:0|0:0,0:0:0:0:
202,187,61029,1,2,0:0:0:0:
421,107,61195,1,2,0:0:0:0:
296,307,61360,2,0,B|195:319|227:261|142:265,1,157.500006008148,8|0,0:0|0:0,0:0:0:0:
26,322,61692,6,0,P|62:311|42:256,1,105.000004005432,0|2,0:0|0:0,0:0:0:0:
35,119,61941,1,2,0:0:0:0:
35,119,62023,2,0,P|43:159|125:169,1,105.000004005432,12|0,0:0|0:0,0:0:0:0:
333,129,62355,1,2,0:0:0:0:
123,30,62521,1,2,0:0:0:0:
221,251,62686,1,8,0:0:0:0:
375,26,62852,6,0,B|339:52|304:40|304:40|294:62|294:62|238:43|178:81,1,210.000008010865,2|0,0:0|0:0,0:0:0:0:
221,251,63349,2,0,P|256:189|233:162,1,105.000004005432,8|0,0:0|0:0,0:0:0:0:
31,155,63681,1,2,0:0:0:0:
189,324,63847,1,2,0:0:0:0:
118,113,64012,1,8,0:0:0:0:
56,351,64178,6,0,P|134:358|279:345,1,210.000008010865,2|0,0:0|0:0,0:0:0:0:
153,180,64675,2,0,P|128:230|129:283,1,105.000004005432,8|0,0:0|0:0,0:0:0:0:
305,183,65007,1,2,0:0:0:0:
95,96,65173,1,2,0:0:0:0:
235,273,65338,2,0,L|359:261,1,105.000004005432,8|2,0:0|0:0,0:0:0:0:
421,51,65670,6,0,P|357:80|419:162,1,157.500006008148,2|0,0:0|0:0,0:0:0:0:
404,169,66001,1,8,0:0:0:0:
480,374,66167,2,0,P|425:342|313:352,1,157.500006008148,2|0,0:0|0:0,0:0:0:0:
307,361,66499,1,8,0:0:0:0:
232,178,66664,1,8,0:0:0:0:
377,257,66830,2,0,L|320:271,1,52.5000020027161,2|2,0:0|0:0,0:0:0:0:
109,316,66996,5,12,0:0:0:0:
372,116,67162,1,2,0:0:0:0:
214,372,67327,5,8,0:0:0:0:
244,55,67493,1,2,0:0:0:0:
342,373,67659,5,8,0:0:0:0:
109,103,67825,1,2,0:0:0:0:
410,271,67990,5,8,0:0:0:0:
55,219,68156,2,0,P|24:164|54:108,1,105.000004005432,2|0,0:0|0:0,0:0:0:0:
343,37,68488,1,8,0:0:0:0:
343,37,68570,1,8,0:0:0:0:
343,37,68653,1,8,0:0:0:0:
211,294,68819,1,2,0:0:0:0:
134,28,68985,1,2,0:0:0:0:
391,107,69151,6,0,L|377:164,1,52.5000020027161,2|2,0:0|0:0,0:0:0:0:
310,350,69316,2,0,L|296:293,1,52.5000020027161,8|2,0:0|0:0,0:0:0:0:
229,157,69482,2,0,L|215:214,1,52.5000020027161,2|2,0:0|0:0,0:0:0:0:
140,371,69648,6,0,L|101:172,1,183.750001752377,2|0,0:0|0:0,0:0:0:0:
22,41,69979,6,0,P|68:110|136:108,1,140,12|0,0:0|0:0,0:0:0:0:
397,73,70311,1,2,0:0:0:0:
128,20,70477,1,2,0:0:0:0:
344,182,70642,1,8,0:0:0:0:
216,0,70808,6,0,P|221:54|198:177,1,157.500006008148,2|0,0:0|0:0,0:0:0:0:
205,155,71139,1,2,0:0:0:0:
72,309,71305,2,0,P|59:253|70:190,1,105.000004005432,8|0,0:0|0:0,0:0:0:0:
291,125,71637,1,2,0:0:0:0:
197,315,71802,1,2,0:0:0:0:
68,77,71968,6,0,B|150:55|122:125|249:81,1,157.500006008148,8|0,0:0|0:0,0:0:0:0:
440,10,72300,2,0,P|410:72|413:129,1,105.000004005432,2|0,0:0|0:0,0:0:0:0:
366,316,72548,1,2,0:0:0:0:
366,316,72631,2,0,P|355:262|339:197,1,105.000004005432,12|0,0:0|0:0,0:0:0:0:
97,148,72963,2,0,P|84:206|170:272,1,157.500006008148,2|0,0:0|0:0,0:0:0:0:
147,270,73294,1,8,0:0:0:0:
297,104,73460,6,0,B|159:126|234:42|102:48,1,210.000008010865,2|2,0:0|0:0,0:0:0:0:
2,227,73957,1,8,0:0:0:0:
218,367,74123,2,0,P|232:332|231:306,2,52.5000020027161,2|2|8,0:0|0:0|0:0,0:0:0:0:
374,116,74454,2,0,P|388:150|387:177,2,52.5000020027161,2|2|8,0:0|0:0|0:0,0:0:0:0:
473,317,74786,6,0,P|382:294|291:240,1,157.500006008148,6|0,0:0|0:0,0:0:0:0:
325,265,75117,1,2,0:0:0:0:
281,49,75283,1,8,0:0:0:0:
461,152,75449,1,2,0:0:0:0:
222,278,75615,2,0,P|213:224|226:163,1,105.000004005432,2|0,0:0|0:0,0:0:0:0:
395,19,75946,2,0,P|404:73|321:131,1,157.500006008148,8|0,0:0|0:0,0:0:0:0:
330,131,76278,5,6,0:0:0:0:
93,153,76443,2,0,P|41:131|19:90,1,105.000004005432,2|8,0:0|0:0,0:0:0:0:
201,7,76775,2,0,P|228:89|246:216,1,210.000008010865,2|8,0:0|0:0,0:0:0:0:
243,247,77189,1,2,0:0:0:0:
222,278,77272,1,2,0:0:0:0:
338,65,77604,5,2,0:0:0:0:
368,313,77769,1,2,0:0:0:0:
147,84,77935,5,2,0:0:0:0:
117,332,78100,1,2,0:0:0:0:
354,39,78267,5,2,0:0:0:0:
390,337,78432,1,8,0:0:0:0:
337,334,78515,1,8,0:0:0:0:
296,299,78598,1,8,0:0:0:0:
289,246,78681,1,8,0:0:0:0:
313,199,78764,1,8,0:0:0:0:
362,180,78847,1,8,0:0:0:0:
414,185,78930,6,0,P|356:240|284:236,1,140,6|0,0:0|0:0,0:0:0:0:
197,177,79427,1,8,0:0:0:0:
197,177,79510,1,8,0:0:0:0:
197,177,79593,1,8,0:0:0:0:
341,83,79758,1,8,0:0:0:0:
175,300,80090,6,0,P|153:294|127:278,1,35,2|0,0:0|0:0,0:0:0:0:
44,235,80256,6,0,P|34:172|49:125,1,97.9999970092774,6|0,0:0|0:0,0:0:0:0:
273,247,80587,2,0,P|283:310|268:357,1,97.9999970092774,8|0,0:0|0:0,0:0:0:0:
112,181,80918,1,2,0:0:0:0:
277,81,81084,1,2,0:0:0:0:
175,257,81250,1,8,0:0:0:0:
182,56,81416,1,0,0:0:0:0:
356,153,81581,6,0,P|292:168|248:165,1,97.9999970092774,2|0,0:0|0:0,0:0:0:0:
384,22,81913,1,8,0:0:0:0:
465,157,82079,2,0,P|480:221|477:265,1,97.9999970092774,2|0,0:0|0:0,0:0:0:0:
269,283,82410,1,2,0:0:0:0:
281,261,82493,1,2,0:0:0:0:
300,246,82576,2,0,P|345:242|356:298,1,97.9999970092774,2|0,0:0|0:0,0:0:0:0:
278,379,82907,6,0,P|209:367|159:336,1,97.9999970092774,2|0,0:0|0:0,0:0:0:0:
43,239,83239,2,0,P|112:227|162:196,1,97.9999970092774,8|0,0:0|0:0,0:0:0:0:
255,56,83570,1,2,0:0:0:0:
39,129,83736,1,2,0:0:0:0:
266,231,83902,1,8,0:0:0:0:
138,28,84068,6,0,P|117:82|138:217,1,195.999994018555,2|0,0:0|0:0,0:0:0:0:
386,198,84565,2,0,P|392:162|346:107,1,97.9999970092774,8|0,0:0|0:0,0:0:0:0:
189,132,84896,1,2,0:0:0:0:
208,341,85062,1,8,0:0:0:0:
253,370,85145,1,8,0:0:0:0:
301,374,85228,1,2,0:0:0:0:
340,354,85311,1,2,0:0:0:0:
374,335,85394,1,2,0:0:0:0:
408,330,85477,1,2,0:0:0:0:
435,341,85559,6,0,P|485:333|436:259,1,146.999995513916,6|0,0:0|0:0,0:0:0:0:
467,257,85891,1,8,0:0:0:0:
289,157,86057,2,0,P|280:215|390:201,1,195.999994018555,6|8,0:0|0:0,0:0:0:0:
42,202,86554,2,0,P|211:128|30:91,1,489.999985046387,6|0,0:0|0:0,0:0:0:0:
30,91,87465,1,0,0:0:0:0:
30,91,87548,1,12,0:0:0:0:
163,332,87714,1,12,0:0:0:0:
