osu file format v14

[General]
AudioFilename: audio.mp3
AudioLeadIn: 0
PreviewTime: 58709
Countdown: 1
SampleSet: Normal
StackLeniency: 0.5
Mode: 0
LetterboxInBreaks: 0
WidescreenStoryboard: 1

[Editor]
Bookmarks: 24565,34178,80587,83239
DistanceSpacing: 0.9
BeatDivisor: 4
GridSize: 32
TimelineZoom: 1

[Metadata]
Title:Mirai no Bokura wa Shitteru yo
TitleUnicode:Mirai no Bokura wa Shitteru yo
Artist:Aqours
ArtistUnicode:Aqours
Creator:Planecakes
Version:Extra
Source:ラブライブ!サンシャイン!! 2
Tags:victorfernando yShadowXOP_
BeatmapID:1449841
BeatmapSetID:678518

[Difficulty]
HPDrainRate:6
CircleSize:3.9
OverallDifficulty:8.4
ApproachRate:9.2
SliderMultiplier:1.4
SliderTickRate:1

[Events]
//Background and Video events
0,0,"839073.jpg",0,0
//Break Periods
//Storyboard Layer 0 (Background)
//Storyboard Layer 1 (Fail)
//Storyboard Layer 2 (Pass)
//Storyboard Layer 3 (Foreground)
//Storyboard Layer 4 (Overlay)
//Storyboard Sound Samples

[TimingPoints]
698,331.491712707182,4,1,0,45,1,0
2023,-133.333333333333,4,2,1,65,0,0
8653,-100,4,2,1,65,0,0
13791,-83.3333333333333,4,2,1,65,0,0
14952,-71.4285714285714,4,2,1,65,0,0
15283,-83.3333333333333,4,2,1,65,0,0
17935,-71.4285714285714,4,2,1,65,0,0
19095,-200,4,2,1,65,0,0
19758,-90.9090909090909,4,2,1,65,0,0
32521,-71.4285714285714,4,2,1,65,0,0
33018,-90.9090909090909,4,2,1,65,0,0
39648,-83.3333333333333,4,2,1,65,0,0
40311,-71.4285714285714,4,2,1,65,0,0
43128,-90.9090909090909,4,2,1,65,0,0
46775,-71.4285714285714,4,2,1,65,0,0
48432,-83.3333333333333,4,2,1,65,0,0
51084,-66.6666666666667,4,2,1,65,0,0
59040,-52.6315789473684,4,2,1,65,0,1
59206,-76.9230769230769,4,2,1,65,0,1
59372,-71.4285714285714,4,2,1,80,0,1
68156,-62.5,4,2,1,80,0,1
68488,-71.4285714285714,4,2,1,80,0,1
78930,-76.9230769230769,4,2,1,65,0,0
80090,-76.9230769230769,4,2,1,80,0,1
86554,-133.333333333333,4,2,1,65,0,0

[Colours]
Combo1 : 74,134,255
Combo2 : 30,75,181
Combo3 : 32,191,184
Combo4 : 255,255,255

[HitObjects]
256,192,698,12,0,1858,0:0:0:0:
403,233,2023,6,0,B|263:213|312:308|195:276,1,210.000008010865
63,254,3018,1,0,0:0:0:0:
63,254,3184,2,0,B|96:260|102:302|102:302|98:216|171:181,1,210.000008010865
228,119,4012,2,0,P|222:85|172:116,1,105.000004005432
240,219,4675,1,0,0:0:0:0:
308,31,5173,1,0,0:0:0:0:
309,274,5670,1,0,0:0:0:0:
53,118,6664,6,0,P|36:159|82:164,1,105.000004005432
172,115,7327,2,0,P|206:112|268:150,1,105.000004005432
154,257,7825,2,0,P|151:212|223:244,1,157.500006008148
76,369,8653,6,0,P|64:292|82:144,1,210
77,161,9233,1,0,0:0:0:0:
77,161,9316,1,0,0:0:0:0:
345,109,9648,1,0,0:0:0:0:
256,292,9814,1,0,0:0:0:0:
299,37,9979,6,0,P|351:30|439:84,1,140,6|0,0:0|0:0,0:0:0:0:
344,258,10642,2,0,P|347:208|431:185,1,140
357,364,11305,2,0,P|307:361|283:345,1,70
221,184,11637,1,0,0:0:0:0:
370,90,11802,2,0,P|449:115|496:149,1,140
422,290,12300,2,0,P|417:249|405:208,1,70
231,52,12631,5,0,0:0:0:0:
323,266,12797,1,0,0:0:0:0:
313,28,12963,1,0,0:0:0:0:
219,229,13128,1,0,0:0:0:0:
326,11,13294,1,0,0:0:0:0:
129,155,13460,1,0,0:0:0:0:
339,260,13626,1,0,0:0:0:0:
152,66,13791,6,0,P|99:66|53:106,1,83.9999974365235
174,304,14123,1,0,0:0:0:0:
234,58,14289,1,0,0:0:0:0:
92,242,14454,1,0,0:0:0:0:
341,277,14620,1,0,0:0:0:0:
350,244,14703,1,0,0:0:0:0:
341,211,14786,2,0,P|328:187|315:171,1,41.9999987182618
318,371,14952,6,0,B|414:375|365:319|471:320,1,146.999995513916
485,321,15283,6,0,P|452:289|454:206,1,125.999996154785
474,182,15615,1,0,0:0:0:0:
318,34,15780,2,0,L|342:117,2,83.9999974365235
222,188,16278,1,0,0:0:0:0:
62,28,16443,2,0,B|143:3|117:62|219:33,1,125.999996154785
211,31,16775,1,0,0:0:0:0:
85,154,16941,1,0,0:0:0:0:
282,249,17106,2,0,P|301:209|292:145,1,83.9999974365235
486,15,17438,5,0,0:0:0:0:
440,15,17521,1,0,0:0:0:0:
398,32,17604,1,0,0:0:0:0:
372,68,17686,1,0,0:0:0:0:
365,113,17769,1,0,0:0:0:0:
377,157,17852,1,0,0:0:0:0:
414,183,17935,6,0,P|462:175|482:126,1,97.9999970092774
482,134,18184,1,0,0:0:0:0:
482,134,18267,1,0,0:0:0:0:
289,45,18432,2,0,P|220:62|226:163,1,146.999995513916
221,229,18764,2,0,P|203:296|135:313,1,146.999995513916
33,262,19095,6,0,P|23:240|93:206,1,122.5,6|0,0:0|0:0,0:0:0:0:
162,178,19758,1,0,0:0:0:0:
176,159,19841,1,0,0:0:0:0:
176,135,19924,2,0,P|176:103|163:81,1,38.5000011749268
116,11,20090,1,0,0:0:0:0:
154,28,20173,1,0,0:0:0:0:
206,20,20256,1,0,0:0:0:0:
375,195,20587,6,0,P|342:204|283:173,1,77.0000023498536
356,92,20918,1,0,0:0:0:0:
404,279,21084,2,0,P|407:310|384:380,1,77.0000023498536
323,282,21416,1,0,0:0:0:0:
483,227,21581,1,0,0:0:0:0:
473,370,21747,1,0,0:0:0:0:
248,338,21913,6,0,L|234:241,1,77.0000023498536
214,100,22244,1,0,0:0:0:0:
403,133,22410,2,0,P|365:160|310:157,1,77.0000023498536
480,49,22742,1,0,0:0:0:0:
451,216,22907,1,0,0:0:0:0:
343,33,23073,1,0,0:0:0:0:
232,201,23239,6,0,P|176:210|131:190,1,77.0000023498536
199,24,23570,2,0,L|215:109,1,77.0000023498536
185,302,23902,1,0,0:0:0:0:
110,126,24068,1,0,0:0:0:0:
313,170,24233,2,0,P|333:202|349:237,1,77.0000023498536
467,364,24565,2,0,P|470:315|488:283,1,77.0000023498536
431,134,24896,1,0,0:0:0:0:
285,277,25062,6,0,P|239:277|183:253,1,77.0000023498536
353,134,25394,1,0,0:0:0:0:
359,320,25559,1,0,0:0:0:0:
260,201,25725,1,0,0:0:0:0:
190,352,25891,1,0,0:0:0:0:
189,351,26222,6,0,L|168:278,1,77.0000023498536
116,118,26554,1,0,0:0:0:0:
58,299,26720,1,0,0:0:0:0:
219,191,26885,1,0,0:0:0:0:
39,115,27051,1,0,0:0:0:0:
274,255,27217,6,0,P|296:215|296:176,1,77.0000023498536
196,32,27548,1,0,0:0:0:0:
353,127,27714,2,0,P|287:104|192:116,1,154.000004699707
76,226,28211,1,0,0:0:0:0:
238,317,28377,1,0,0:0:0:0:
83,72,28543,6,0,P|64:111|57:157,1,77.0000023498536
276,210,28874,1,0,0:0:0:0:
184,12,29040,1,0,0:0:0:0:
90,244,29206,1,0,0:0:0:0:
321,39,29372,1,0,0:0:0:0:
368,25,29454,1,0,0:0:0:0:
411,40,29537,1,0,0:0:0:0:
433,76,29620,1,0,0:0:0:0:
431,114,29703,1,0,0:0:0:0:
108,302,30035,5,6,0:0:0:0:
418,256,30200,1,6,0:0:0:0:
88,310,30366,1,6,0:0:0:0:
311,153,30532,1,0,0:0:0:0:
233,358,30697,6,0,B|261:252|170:279|221:150,1,192.500005874634
234,20,31195,2,0,P|246:65|250:99,1,77.0000023498536
126,184,31526,1,0,0:0:0:0:
2,15,31692,2,0,P|86:17|134:29,1,115.50000352478
116,23,32023,1,0,0:0:0:0:
206,168,32189,1,0,0:0:0:0:
52,229,32355,1,0,0:0:0:0:
265,101,32521,6,0,P|298:151|245:240,1,146.999995513916
269,227,32852,1,0,0:0:0:0:
418,371,33018,2,0,P|420:294|450:220,1,154.000004699707
448,223,33515,1,0,0:0:0:0:
283,335,33681,1,0,0:0:0:0:
412,123,33847,6,0,P|470:121|504:131,1,77.0000023498536
211,191,34178,2,0,P|153:193|119:183,1,77.0000023498536
296,87,34510,1,0,0:0:0:0:
346,238,34675,1,0,0:0:0:0:
165,42,34841,1,0,0:0:0:0:
94,253,35006,1,0,0:0:0:0:
98,272,35090,1,0,0:0:0:0:
102,290,35173,6,0,P|160:292|194:282,1,77.0000023498536
344,154,35504,1,0,0:0:0:0:
165,42,35670,2,0,P|104:73|120:160,1,154.000004699707
121,164,36084,1,0,0:0:0:0:
132,177,36167,2,0,L|214:167,1,77.0000023498536
9,210,36499,1,0,0:0:0:0:
9,210,36830,5,0,0:0:0:0:
111,312,36996,1,0,0:0:0:0:
59,131,37162,1,0,0:0:0:0:
12,323,37327,1,0,0:0:0:0:
208,272,37493,2,0,P|253:258|285:221,1,77.0000023498536
169,69,37825,6,0,L|165:154,1,77.0000023498536
268,348,38156,1,0,0:0:0:0:
370,139,38322,2,0,P|319:129|248:146,1,115.50000352478
257,141,38653,1,0,0:0:0:0:
381,314,38819,1,0,0:0:0:0:
422,80,38985,1,0,0:0:0:0:
307,242,39151,5,0,0:0:0:0:
240,18,39316,1,0,0:0:0:0:
387,164,39482,1,0,0:0:0:0:
184,262,39648,2,0,P|112:240|93:211,1,83.9999974365235
298,101,39979,1,0,0:0:0:0:
298,101,40062,1,0,0:0:0:0:
298,101,40145,1,0,0:0:0:0:
408,294,40311,6,0,B|321:287|381:357|247:338,1,146.999995513916
276,340,40642,1,0,0:0:0:0:
149,69,40808,1,0,0:0:0:0:
359,225,40974,5,0,0:0:0:0:
64,167,41139,1,0,0:0:0:0:
330,102,41305,5,0,0:0:0:0:
158,272,41471,1,0,0:0:0:0:
236,124,41637,1,0,0:0:0:0:
273,348,41802,1,0,0:0:0:0:
106,185,41968,1,0,0:0:0:0:
106,185,42051,1,0,0:0:0:0:
106,185,42134,1,0,0:0:0:0:
325,23,42300,6,0,P|372:58|363:159,1,146.999995513916
347,234,42631,2,0,P|344:305|388:336,1,97.9999970092774
500,359,42963,1,0,0:0:0:0:
291,174,43128,6,0,P|242:176|152:233,1,154.000004699707
154,229,43626,1,0,0:0:0:0:
256,370,43791,2,0,P|261:329|246:284,1,77.0000023498536
49,228,44123,1,0,0:0:0:0:
98,317,44289,2,0,P|143:333|194:321,1,77.0000023498536
347,287,44620,1,0,0:0:0:0:
277,180,44786,2,0,P|225:168|158:246,1,154.000004699707
466,249,45449,5,0,0:0:0:0:
411,130,45615,1,0,0:0:0:0:
343,308,45780,2,0,P|250:296|249:295,1,77.0000023498536
215,84,46112,1,0,0:0:0:0:
293,150,46278,2,0,L|308:245,1,77.0000023498536
397,24,46609,1,0,0:0:0:0:
494,142,46775,6,0,L|512:250,1,97.9999970092774
299,343,47106,1,0,0:0:0:0:
225,65,47272,1,0,0:0:0:0:
225,65,47355,1,0,0:0:0:0:
225,65,47438,2,0,L|346:77,1,97.9999970092774
408,300,47769,1,0,0:0:0:0:
212,190,47935,1,0,0:0:0:0:
491,110,48101,1,0,0:0:0:0:
491,110,48432,6,0,P|500:166|499:203,1,83.9999974365235
262,346,48764,2,0,L|285:260,1,83.9999974365235
380,92,49095,1,0,0:0:0:0:
406,293,49261,1,0,0:0:0:0:
270,154,49427,1,0,0:0:0:0:
181,313,49593,2,0,B|102:321|143:284|58:281,1,125.999996154785
62,281,49924,1,0,0:0:0:0:
50,97,50090,1,0,0:0:0:0:
285,142,50256,6,0,L|305:251,2,83.9999974365235
470,240,50670,1,0,0:0:0:0:
470,240,50753,2,0,L|363:220,1,83.9999974365235
139,121,51084,5,0,0:0:0:0:
384,325,51250,1,0,0:0:0:0:
238,26,51416,1,0,0:0:0:0:
201,279,51581,2,0,L|233:379,1,97.9999970092774
344,156,51913,1,0,0:0:0:0:
117,104,52079,1,0,0:0:0:0:
138,326,52244,1,0,0:0:0:0:
290,36,52410,5,0,0:0:0:0:
55,215,52576,1,0,0:0:0:0:
321,318,52742,1,0,0:0:0:0:
160,19,52907,2,0,P|124:67|122:141,1,97.9999970092774
234,362,53239,1,0,0:0:0:0:
234,362,53322,1,0,0:0:0:0:
234,362,53405,1,0,0:0:0:0:
352,140,53570,2,0,L|275:125,1,48.9999985046387
18,50,53736,5,6,0:0:0:0:
301,308,53902,1,0,0:0:0:0:
159,15,54068,1,0,0:0:0:0:
73,379,54233,1,0,0:0:0:0:
328,57,54565,5,0,0:0:0:0:
1,188,54731,1,0,0:0:0:0:
435,277,54896,1,0,0:0:0:0:
131,32,55228,5,0,0:0:0:0:
243,349,55394,1,0,0:0:0:0:
295,323,55477,1,0,0:0:0:0:
298,269,55559,1,0,0:0:0:0:
275,219,55642,1,0,0:0:0:0:
225,196,55725,2,0,P|182:204|129:227,1,97.9999970092774
21,93,55974,1,0,0:0:0:0:
21,93,56057,2,0,P|65:112|113:122,1,97.9999970092774
388,56,56388,5,0,0:0:0:0:
168,319,56554,1,0,0:0:0:0:
401,44,56720,1,0,0:0:0:0:
26,183,57051,5,0,0:0:0:0:
449,274,57383,5,0,0:0:0:0:
120,26,57548,1,0,0:0:0:0:
261,355,57880,5,0,0:0:0:0:
418,37,58046,2,0,L|300:15,1,97.9999970092774
133,130,58377,1,0,0:0:0:0:
138,143,58460,1,0,0:0:0:0:
143,156,58543,2,0,L|215:146,1,48.9999985046387
385,224,58709,2,0,L|313:234,1,48.9999985046387
190,356,58874,2,0,L|262:366,1,48.9999985046387
445,277,59040,6,0,P|477:199|371:144,1,199.499994672775
308,235,59372,6,0,L|309:349,1,97.9999970092774
124,230,59703,1,0,0:0:0:0:
314,117,59869,1,0,0:0:0:0:
185,366,60035,1,0,0:0:0:0:
119,121,60200,2,0,P|111:68|131:18,1,90.9999958343508
322,252,60532,1,0,0:0:0:0:
91,349,60697,6,0,P|40:330|4:298,1,97.9999970092774
190,147,61029,1,0,0:0:0:0:
260,328,61195,1,0,0:0:0:0:
379,80,61360,2,0,P|430:99|466:131,1,97.9999970092774
290,240,61692,2,0,P|279:178|304:140,1,97.9999970092774
410,255,61941,1,0,0:0:0:0:
410,255,62023,6,0,L|395:368,1,97.9999970092774
192,228,62355,1,0,0:0:0:0:
474,197,62521,1,0,0:0:0:0:
173,232,62686,1,0,0:0:0:0:
307,24,62852,2,0,P|332:79|351:176,1,146.999995513916
350,163,63184,1,0,0:0:0:0:
239,362,63349,6,0,P|244:299|265:248,1,97.9999970092774
431,122,63681,1,0,0:0:0:0:
323,324,63847,1,0,0:0:0:0:
248,81,64012,1,0,0:0:0:0:
410,227,64178,2,0,P|345:240|221:233,1,146.999995513916
264,240,64510,1,0,0:0:0:0:
81,191,64675,1,0,0:0:0:0:
218,88,64841,1,0,0:0:0:0:
145,297,65007,6,0,P|110:358|77:376,1,97.9999970092774
28,139,65338,2,0,P|83:110|152:172,1,146.999995513916
203,240,65670,2,0,P|287:249|348:180,1,146.999995513916
343,186,66001,1,0,0:0:0:0:
251,17,66167,2,0,P|243:93|256:178,1,146.999995513916
251,162,66499,1,0,0:0:0:0:
442,228,66664,1,0,0:0:0:0:
343,54,66830,2,0,L|329:105,1,48.9999985046387
240,335,66996,5,0,0:0:0:0:
155,54,67162,1,0,0:0:0:0:
372,260,67327,5,0,0:0:0:0:
69,172,67493,1,0,0:0:0:0:
372,80,67659,5,0,0:0:0:0:
91,299,67825,1,0,0:0:0:0:
256,10,67990,5,0,0:0:0:0:
212,349,68156,2,0,B|127:339|138:409|36:367,1,168
51,372,68488,1,0,0:0:0:0:
40,362,68570,1,0,0:0:0:0:
28,352,68653,1,0,0:0:0:0:
160,189,68819,1,0,0:0:0:0:
293,379,68985,6,0,P|304:351|297:314,1,48.9999985046387
366,112,69151,2,0,P|355:140|362:177,1,48.9999985046387
432,300,69316,1,0,0:0:0:0:
403,266,69399,1,0,0:0:0:0:
362,248,69482,1,0,0:0:0:0:
318,239,69565,1,0,0:0:0:0:
274,244,69648,1,0,0:0:0:0:
274,244,69979,6,0,L|262:147,1,97.9999970092774,0|0,0:0|0:0,0:0:0:0:
67,270,70311,1,0,0:0:0:0:
