osu file format v14

[General]
AudioFilename: audio.mp3
AudioLeadIn: 0
PreviewTime: 58475
Countdown: 0
SampleSet: Soft
StackLeniency: 0.3
Mode: 0
LetterboxInBreaks: 0
WidescreenStoryboard: 1

[Editor]
DistanceSpacing: 1.3
BeatDivisor: 4
GridSize: 8
TimelineZoom: 2.3

[Metadata]
Title:Mirai no Bokura wa Shitteru yo
TitleUnicode:未来の僕らは知ってるよ
Artist:Aqours
ArtistUnicode:Aqours
Creator:Kami-senpai
Version:Maffe's Normal
Source:ラブライブ!サンシャイン!! 2
Tags:love live sunshine season 2 op tv size maffe naotoshi gaia
BeatmapID:1441196
BeatmapSetID:679071

[Difficulty]
HPDrainRate:2
CircleSize:3
OverallDifficulty:2
ApproachRate:3
SliderMultiplier:0.70000000596046
SliderTickRate:1

[Events]
//Background and Video events
0,0,"bg.jpg",0,0
Video,-709,"opening.avi"
//Break Periods
//Storyboard Layer 0 (Background)
//Storyboard Layer 1 (Fail)
//Storyboard Layer 2 (Pass)
//Storyboard Layer 3 (Foreground)
//Storyboard Sound Samples

[TimingPoints]
1956,331.491712707182,4,2,2,40,1,0
1956,-100,4,2,2,40,0,0
4607,-100,4,2,2,40,0,0
5602,-100,4,2,2,40,0,0
8585,-100,4,2,2,40,0,0
9083,-100,4,2,1,40,0,0
9911,-100,4,2,1,60,0,0
12563,-100,4,2,1,60,0,0
13723,-100,4,2,1,60,0,0
14718,-100,4,2,2,40,0,0
15215,-100,4,2,1,60,0,0
17867,-100,4,2,1,60,0,0
18364,-100,4,2,1,60,0,0
20519,-100,4,2,1,50,0,0
29967,-100,4,2,1,60,0,0
30630,-100,4,2,1,60,0,0
31127,-100,4,2,1,60,0,0
40243,-100,4,2,1,60,0,0
43060,-100,4,2,1,60,0,0
47701,-100,4,2,1,60,0,0
48033,-100,4,2,1,60,0,0
48364,-100,4,2,1,60,0,0
51016,-100,4,2,1,60,0,0
54165,-100,4,2,1,60,0,0
54828,-100,4,2,1,60,0,0
55657,-100,4,2,1,60,0,0
55989,-100,4,2,1,60,0,0
56983,-100,4,2,1,60,0,0
58143,-100,4,2,2,60,0,0
58475,-100,4,2,1,60,0,0
58641,-100,4,2,2,60,0,0
58972,-100,4,2,1,70,0,1
65602,-100,4,2,1,70,0,1
66928,-100,4,2,1,70,0,0
69580,-100,4,2,1,70,0,1
69911,-100,4,2,2,70,0,1
70243,-100,4,2,1,70,0,1
70740,-100,4,2,1,70,0,1
76707,-100,4,2,1,70,0,1
77204,-100,4,2,1,70,0,1
77536,-100,4,2,1,70,0,1
78862,-100,4,2,1,70,0,0
80188,-100,4,2,1,70,0,1
86486,-100,4,2,1,70,0,1
87646,-100,4,2,1,70,0,0

[Colours]
Combo1 : 255,255,55
Combo2 : 255,128,64
Combo3 : 204,0,0
Combo4 : 159,64,255
Combo5 : 32,143,255
Combo6 : 0,221,0

[HitObjects]
464,168,1956,6,0,P|448:160|328:168,1,140.000001192092,10|2,0:0|0:0,0:0:0:0:
184,280,3281,2,0,P|216:264|328:272,1,140.000001192092,2|2,0:0|0:0,0:0:0:0:
464,376,4607,6,0,L|456:272,1,105.000000894069,2|2,0:0|0:0,0:0:0:0:
352,184,5602,2,0,L|360:328,1,140.000001192092,10|0,0:0|0:0,0:0:0:0:
280,368,6596,2,0,P|248:376|200:376,1,70.000000596046,0|0,0:0|0:0,0:0:0:0:
144,312,7259,6,0,P|136:256|144:104,1,210.000001788138,10|2,0:0|0:0,0:0:0:0:
216,48,8585,2,0,L|296:40,1,70.000000596046,10|0,0:0|0:0,0:0:0:0:
368,88,9248,2,0,L|448:96,1,70.000000596046,2|8,0:0|0:0,0:0:0:0:
512,40,9911,5,6,0:0:0:0:
480,216,10574,2,0,L|408:224,1,70.000000596046,0|0,0:0|0:0,0:0:0:0:
344,288,11237,2,0,P|280:280|232:296,2,105.000000894069,8|8|8,0:0|0:0|0:0,0:0:0:0:
432,320,12563,6,0,L|440:248,1,70.000000596046,12|2,0:0|0:0,0:0:0:0:
408,160,13226,2,0,L|400:80,1,70.000000596046,8|8,0:0|0:0,0:0:0:0:
368,56,13723,2,0,P|304:64|264:48,1,105.000000894069,6|8,0:0|0:0,0:0:0:0:
184,88,14552,2,0,L|200:168,1,70.000000596046,8|8,0:0|0:0,0:0:0:0:
192,248,15215,6,0,P|232:240|272:248,1,70.000000596046,6|8,0:0|0:0,0:0:0:0:
296,272,15712,2,0,P|336:280|376:272,1,70.000000596046,2|2,0:0|0:0,0:0:0:0:
392,192,16375,2,0,L|376:112,1,70.000000596046,2|2,0:0|0:0,0:0:0:0:
360,40,17038,2,0,P|320:32|280:40,1,70.000000596046,2|2,0:0|0:0,0:0:0:0:
168,32,17867,6,0,L|152:112,1,70.000000596046,6|8,0:0|0:0,0:0:0:0:
144,144,18364,1,8,0:0:0:0:
224,192,18696,1,8,0:0:0:0:
304,160,19027,2,0,P|360:176|416:160,1,105.000000894069,4|0,0:0|0:0,0:0:0:0:
160,280,20519,6,0,P|208:272|240:280,1,70.000000596046,6|8,0:0|0:0,0:0:0:0:
264,304,21016,2,0,L|368:328,1,105.000000894069,2|8,0:0|0:0,0:0:0:0:
448,280,21845,2,0,L|440:200,1,70.000000596046,2|8,0:0|0:0,0:0:0:0:
424,168,22342,2,0,P|392:160|312:160,1,105.000000894069,2|8,0:0|0:0,0:0:0:0:
248,104,23171,6,0,L|240:24,1,70.000000596046,2|8,0:0|0:0,0:0:0:0:
152,0,23834,2,0,L|80:32,1,70.000000596046,2|8,0:0|0:0,0:0:0:0:
39,105,24497,2,0,L|63:185,1,70.000000596046,2|8,0:0|0:0,0:0:0:0:
88,208,24994,2,0,P|112:200|192:200,1,105.000000894069,0|8,0:0|0:0,0:0:0:0:
256,264,25823,5,2,0:0:0:0:
344,280,26154,2,0,P|384:288|424:288,2,70.000000596046,8|2|8,0:0|0:0|0:0,0:0:0:0:
328,192,27149,2,0,L|320:120,1,70.000000596046,2|8,0:0|0:0,0:0:0:0:
292,86,27646,2,0,P|252:70|188:78,1,105.000000894069,2|8,0:0|0:0,0:0:0:0:
104,104,28475,6,0,L|112:184,1,70.000000596046,2|8,0:0|0:0,0:0:0:0:
128,216,28972,2,0,L|200:200,1,70.000000596046,2|2,0:0|0:0,0:0:0:0:
196,200,29469,1,8,0:0:0:0:
331,219,29967,2,0,L|347:299,2,70.000000596046,8|8|8,0:0|0:0|0:0,0:0:0:0:
288,80,31127,6,0,P|272:64|224:40,1,70.000000596046,6|8,0:0|0:0,0:0:0:0:
184,40,31624,2,0,L|80:64,1,105.000000894069,2|8,0:0|0:0,0:0:0:0:
40,144,32453,2,0,P|72:144|112:152,1,70.000000596046,2|8,0:0|0:0,0:0:0:0:
144,176,32950,2,0,L|256:168,1,105.000000894069,2|8,0:0|0:0,0:0:0:0:
328,120,33779,6,0,L|344:192,1,70.000000596046,2|8,0:0|0:0,0:0:0:0:
344,280,34442,1,2,0:0:0:0:
264,304,34773,1,8,0:0:0:0:
176,272,35105,2,0,L|144:192,1,70.000000596046,2|8,0:0|0:0,0:0:0:0:
120,176,35602,2,0,P|80:176|40:192,1,70.000000596046,2|2,0:0|0:0,0:0:0:0:
0,296,36431,5,6,0:0:0:0:
88,328,36762,2,0,P|128:328|168:320,2,70.000000596046,8|2|8,0:0|0:0|0:0,0:0:0:0:
72,240,37757,2,0,L|88:160,1,70.000000596046,2|8,0:0|0:0,0:0:0:0:
112,136,38254,2,0,P|144:120|224:112,1,105.000000894069,2|8,0:0|0:0,0:0:0:0:
296,80,39083,6,0,L|376:88,1,70.000000596046,2|8,0:0|0:0,0:0:0:0:
408,104,39580,2,0,L|424:176,1,70.000000596046,8|8,0:0|0:0,0:0:0:0:
384,248,40243,2,0,P|320:272|144:288,1,245.000002086161,6|8,0:0|0:0,0:0:0:0:
104,208,41735,6,0,L|96:136,1,70.000000596046,8|8,0:0|0:0,0:0:0:0:
112,96,42232,1,8,0:0:0:0:
192,48,42563,1,8,0:0:0:0:
280,80,42895,1,8,0:0:0:0:
336,208,43392,6,0,L|256:224,1,70.000000596046,0|8,0:0|0:0,0:0:0:0:
120,328,44386,2,0,L|240:320,1,105.000000894069,2|0,0:0|0:0,0:0:0:0:
272,320,45049,1,8,0:0:0:0:
432,232,45712,6,0,L|416:128,1,105.000000894069,2|2,0:0|0:0,0:0:0:0:
392,88,46375,1,8,0:0:0:0:
248,200,47038,2,0,P|224:208|176:208,2,70.000000596046,8|8|8,0:0|0:0|0:0,0:0:0:0:
424,256,48364,6,0,L|368:200,1,70.000000596046,6|8,0:0|0:0,0:0:0:0:
328,128,49027,2,0,P|320:96|320:56,1,70.000000596046,2|8,0:0|0:0,0:0:0:0:
344,16,49525,2,0,L|424:24,1,70.000000596046,2|2,0:0|0:0,0:0:0:0:
456,104,50188,2,0,L|472:184,2,70.000000596046,2|2|0,0:0|0:0|0:0,0:0:0:0:
424,72,51016,6,0,L|272:96,1,140.000001192092,6|2,0:0|0:0,0:0:0:0:
176,240,52342,2,0,L|328:216,1,140.000001192092,6|2,0:0|0:0,0:0:0:0:
480,304,53668,6,0,P|456:296|336:312,1,140.000001192092,10|2,0:0|0:0,0:0:0:0:
280,368,54663,1,8,0:0:0:0:
216,304,54994,2,0,P|208:264|216:160,1,140.000001192092,6|2,0:0|0:0,0:0:0:0:
272,96,55989,1,8,0:0:0:0:
352,136,56320,6,0,P|368:176|376:208,2,70.000000596046,12|8|8,0:0|0:0|0:0,0:0:0:0:
360,48,57315,1,8,0:0:0:0:
272,16,57646,2,0,L|192:8,1,70.000000596046,2|8,0:0|0:0,0:0:0:0:
128,64,58309,2,0,P|120:88|128:144,1,70.000000596046,8|4,0:0|0:0,0:0:0:0:
144,224,58972,6,0,P|184:232|224:224,1,70.000000596046,6|8,0:0|0:0,0:0:0:0:
272,160,59635,1,2,0:0:0:0:
312,80,59967,1,8,0:0:0:0:
408,64,60298,2,0,L|416:144,1,70.000000596046,2|8,0:0|0:0,0:0:0:0:
368,216,60961,1,2,0:0:0:0:
288,264,61293,1,8,0:0:0:0:
216,312,61624,6,0,P|168:304|136:312,1,70.000000596046,2|8,0:0|0:0,0:0:0:0:
56,280,62287,1,2,0:0:0:0:
32,192,62618,1,8,0:0:0:0:
64,104,62950,2,0,P|128:72|200:88,1,140.000001192092,2|2,0:0|0:0,0:0:0:0:
256,152,63944,1,8,0:0:0:0:
256,240,64276,6,0,P|232:264|120:288,1,140.000001192092,6|2,0:0|0:0,0:0:0:0:
50,250,65270,1,8,0:0:0:0:
32,160,65602,2,0,L|24:48,2,105.000000894069,6|6|8,0:0|0:0|0:0,0:0:0:0:
118,130,66928,6,0,P|174:114|190:114,1,70.000000596046,2|8,0:0|0:0,0:0:0:0:
272,144,67591,2,0,L|336:192,1,70.000000596046,8|8,0:0|0:0,0:0:0:0:
408,232,68254,2,0,P|432:192|408:96,1,140.000001192092,2|8,0:0|0:0,0:0:0:0:
344,48,69248,1,8,0:0:0:0:
272,104,69580,6,0,P|232:96|192:104,1,70.000000596046,6|4,0:0|0:0,0:0:0:0:
144,168,70243,2,0,L|96:224,1,70.000000596046,2|8,0:0|0:0,0:0:0:0:
8,248,70906,2,0,L|0:168,1,70.000000596046,2|8,0:0|0:0,0:0:0:0:
48,112,71569,1,2,0:0:0:0:
128,64,71901,1,8,0:0:0:0:
200,16,72232,6,0,P|248:24|280:16,1,70.000000596046,2|8,0:0|0:0,0:0:0:0:
352,56,72895,2,0,L|360:128,1,70.000000596046,2|8,0:0|0:0,0:0:0:0:
352,224,73558,2,0,P|288:256|216:240,1,140.000001192092,2|8,0:0|0:0,0:0:0:0:
160,176,74552,1,8,0:0:0:0:
208,96,74884,6,0,P|240:88|288:96,1,70.000000596046,2|8,0:0|0:0,0:0:0:0:
368,88,75547,2,0,L|400:152,1,70.000000596046,2|8,0:0|0:0,0:0:0:0:
384,240,76210,2,0,P|344:256|272:272,2,105.000000894069,2|8|8,0:0|0:0|0:0,0:0:0:0:
440,168,77536,6,0,L|448:96,1,70.000000596046,6|8,0:0|0:0,0:0:0:0:
400,16,78199,2,0,L|328:16,1,70.000000596046,2|8,0:0|0:0,0:0:0:0:
240,16,78862,2,0,P|192:24|104:72,1,140.000001192092,4|8,0:0|0:0,0:0:0:0:
56,240,80188,6,0,P|96:224|200:232,1,140.000001192092,6|2,0:0|0:0,0:0:0:0:
264,280,81182,1,8,0:0:0:0:
320,208,81514,2,0,L|336:56,1,140.000001192092,2|2,0:0|0:0,0:0:0:0:
416,32,82508,1,8,0:0:0:0:
440,120,82839,6,0,P|448:168|432:272,1,140.000001192092,6|2,0:0|0:0,0:0:0:0:
344,272,83834,1,8,0:0:0:0:
256,264,84165,2,0,L|112:224,1,140.000001192092,2|2,0:0|0:0,0:0:0:0:
48,176,85160,1,8,0:0:0:0:
120,120,85491,5,8,0:0:0:0:
248,168,85989,1,8,0:0:0:0:
384,136,86486,2,0,L|432:280,1,140.000001192092,12|0,0:0|0:0,0:0:0:0:
360,328,87480,6,0,L|320:336,1,35.000000298023,12|12,0:0|0:0,0:0:0:0:
