osu file format v14

[General]
AudioFilename: audio.mp3
AudioLeadIn: 0
PreviewTime: 60104
Countdown: 0
SampleSet: Soft
StackLeniency: 0.7
Mode: 2
LetterboxInBreaks: 0
WidescreenStoryboard: 1

[Editor]
DistanceSpacing: 1
BeatDivisor: 4
GridSize: 8
TimelineZoom: 2.899999

[Metadata]
Title:MY Mai*TONIGHT (TV Size)
TitleUnicode:MY舞☆TONIGHT (TV Size)
Artist:Aqours
ArtistUnicode:Aqours
Creator:Verti
Version:Rain
Source:ラブライブ!サンシャイン!!
Tags:Odore Love Live Sunshine!! School Idol Project Festival Insert song Kanan Matsuura 松浦果南 Nanaka Suwa 諏訪ななか Mari Ohara 小原鞠莉 Aina Suzuki 鈴木愛奈 Dia Kurosawa 黒澤ダイヤ Chika Takami 高海千歌 Inami Anju 伊波杏樹 Riko Sakurauchi 桜内梨子 Rikako Aida 逢田梨香子 You Watanabe 渡辺曜 Shuka Saito 斉藤朱夏 Yoshiko Tsushima 津島善子 Aika Kobayashi 小林愛香 Hanamaru Kunikida 国木田花丸 Kanako Takatsuki 高槻かなこ Ruby Kurosawa 黒澤ルビィ Ai Furihata 降幡愛 japanese pop anime jpop j-pop aki hata 畑亜貴 effy Kotori-Chan
BeatmapID:2865775
BeatmapSetID:1387563

[Difficulty]
HPDrainRate:5
CircleSize:4
OverallDifficulty:9
ApproachRate:9
SliderMultiplier:1.8
SliderTickRate:2

[Events]
//Background and Video events
0,0,"bg.jpg",0,0
//Break Periods
//Storyboard Layer 0 (Background)
//Storyboard Layer 1 (Fail)
//Storyboard Layer 2 (Pass)
//Storyboard Layer 3 (Foreground)
//Storyboard Layer 4 (Overlay)
//Storyboard Sound Samples

[TimingPoints]
404,810.810810810811,4,2,1,40,1,0
6079,-100,4,2,1,40,0,0
6890,-100,4,2,1,70,0,0
7701,-100,4,2,1,40,0,0
8512,-100,4,2,1,70,0,0
9322,-100,4,2,1,40,0,0
11755,-100,4,2,1,55,0,0
12160,-100,4,2,1,40,0,0
12566,-100,4,2,1,45,0,0
12971,-100,4,2,1,50,0,0
13376,-100,4,2,1,70,0,0
13782,-100,4,2,1,40,0,0
14998,-100,4,2,1,40,0,0
15403,857.142857142857,4,2,1,40,1,0
16661,571.428571428571,4,2,1,40,1,0
16661,-100,4,2,1,40,0,0
17125,685.714285714286,4,2,1,5,1,0
17232,-100,4,2,1,5,0,0
19803,342.857142857143,4,2,15,60,1,0
19971,335.195530726257,4,2,15,70,1,0
20635,335.195530726257,4,2,2,80,1,0
28679,-100,4,2,2,80,0,0
29350,-100,4,2,1,65,0,0
30020,-100,4,2,2,80,0,0
31026,-100,4,2,5,80,0,0
31361,-100,4,2,5,50,0,0
36640,-100,4,2,5,5,0,0
36724,-100,4,2,5,50,0,0
37897,-100,4,2,1,50,0,0
38232,-100,4,2,1,55,0,0
38400,-100,4,2,1,60,0,0
38567,-100,4,2,1,65,0,0
38735,-100,4,2,1,70,0,0
38903,-100,4,2,1,75,0,0
39070,-100,4,2,1,80,0,0
39238,-100,4,2,1,85,0,0
39405,-100,4,2,5,80,0,0
41081,-100,4,2,2,80,0,0
41249,-100,4,2,15,60,0,0
42087,-100,4,2,5,70,0,0
45439,-100,4,2,15,70,0,0
46109,-100,4,2,2,70,0,0
47115,-100,4,2,1,50,0,0
47450,-100,4,2,5,70,0,0
47702,-100,4,2,5,5,0,0
47785,-100,4,2,5,70,0,0
49461,-100,4,2,1,50,0,0
50132,-100,4,2,5,50,0,0
50383,-100,4,2,5,5,0,0
50467,-100,4,2,5,50,0,0
51472,-100,4,2,2,50,0,0
52813,-100,4,2,20,70,0,0
53148,-100,4,2,20,80,0,0
53484,-100,4,2,20,90,0,0
53819,-100,4,2,20,100,0,0
54154,-100,4,2,20,70,0,0
54489,-100,4,2,20,80,0,0
54824,-100,4,2,20,90,0,0
55160,-100,4,2,20,100,0,0
55495,-100,4,2,2,65,0,0
55830,-100,4,2,2,70,0,0
56165,-100,4,2,2,75,0,0
56500,-100,4,2,2,80,0,0
56836,-100,4,2,2,85,0,0
57171,-100,4,2,2,90,0,0
57506,-100,4,2,2,95,0,0
57841,-100,4,2,2,100,0,0
59517,-100,4,2,2,70,0,0
60439,-100,4,2,2,70,0,0
60523,-100,4,2,2,70,0,0
60774,-100,4,2,1,5,0,0
60858,-100,4,2,5,80,0,1
61193,-100,4,2,2,80,0,1
61780,-100,4,2,2,5,0,1
61864,-100,4,2,2,80,0,1
62115,-100,4,2,2,5,0,1
62199,-100,4,2,2,80,0,1
63456,-100,4,2,2,5,0,1
63540,-100,4,2,2,80,0,1
65718,-100,4,2,1,65,0,1
66221,-100,4,2,5,80,0,1
66556,-100,4,2,2,80,0,1
67478,-100,4,2,2,5,0,1
67562,-100,4,2,2,80,0,1
68819,-100,4,2,2,5,0,1
68903,-100,4,2,2,80,0,1
70243,-100,4,2,1,80,0,1
70914,-100,4,2,1,65,0,1
71584,-100,4,2,5,80,0,1
71919,-100,4,2,2,80,0,1
72506,-100,4,2,2,5,0,1
72590,-100,4,2,2,80,0,1
72841,-100,4,2,2,5,0,1
72925,-100,4,2,2,80,0,1
74182,-100,4,2,2,5,0,1
74266,-100,4,2,2,80,0,1
78204,-100,4,2,2,5,0,1
78288,-100,4,2,2,80,0,1
81975,-100,4,2,5,80,0,0
82227,-100,4,2,5,5,0,0
82310,-100,4,2,5,80,0,1
82646,-100,4,2,2,80,0,1
86333,-100,4,2,1,65,0,1
87338,-100,4,2,5,80,0,1
88009,-100,4,2,2,80,0,1
91528,-100,4,2,2,80,0,0
91696,-100,4,2,2,80,0,0
93037,-100,4,2,1,5,0,0
93121,-100,4,2,2,80,0,0
95718,-100,4,2,1,5,0,0

[Colours]
Combo1 : 73,254,218
Combo2 : 189,51,162
Combo3 : 79,45,134
Combo4 : 255,255,128

[HitObjects]
368,304,6079,6,0,L|368:192,1,90,8|8,0:3|0:3,0:0:0:0:
184,128,6890,6,0,L|296:128,1,90,4|0,0:0|0:0,0:0:0:0:
88,288,7701,2,0,L|88:192,1,90,8|0,0:3|0:0,0:0:0:0:
272,192,8512,2,0,L|272:96,1,90,4|0,0:0|0:0,0:0:0:0:
96,288,9322,5,8,0:3:0:0:
232,232,9728,1,0,0:0:0:0:
97,159,10133,1,8,0:3:0:0:
96,64,10539,1,0,0:0:0:0:
280,192,10944,6,0,L|376:192,1,90,8|0,0:3|0:0,0:0:0:0:
192,304,11755,1,12,0:3:0:0:
56,216,12160,1,0,0:0:0:0:
215,180,12566,1,8,0:3:0:0:
79,116,12971,1,0,0:0:0:0:
384,48,13376,1,4,0:2:0:0:
272,192,14187,6,0,L|176:192,1,90,8|0,0:3|0:0,0:0:0:0:
368,176,14998,2,0,L|368:280,1,90,8|0,0:3|0:0,0:0:0:0:
184,184,15831,2,0,L|80:184,1,90,8|0,0:3|0:0,0:0:0:0:
352,184,16661,1,8,0:0:0:0:
256,192,17125,12,0,19525,0:0:0:0:
344,312,19803,5,0,0:0:0:0:
400,264,19888,1,0,0:0:0:0:
400,200,19971,1,0,0:0:0:0:
344,168,20054,1,0,0:0:0:0:
160,184,20138,1,0,0:0:0:0:
104,144,20222,1,0,0:0:0:0:
104,80,20306,1,0,0:0:0:0:
160,48,20389,1,0,0:0:0:0:
344,168,20473,2,0,L|408:168,1,45
160,184,20635,6,0,P|104:128|160:64,1,180,4|8,0:0|0:0,0:0:0:0:
280,176,21137,1,0,0:0:0:0:
400,184,21305,2,0,L|400:88,1,90
232,72,21640,2,0,L|112:72,1,90,8|0,0:0|0:0,0:0:0:0:
368,184,21975,6,0,P|432:232|368:280,1,180,4|8,0:0|0:0,0:0:0:0:
264,184,22478,1,0,0:0:0:0:
152,128,22646,2,0,L|56:128,1,90,2|0,0:0|0:0,0:0:0:0:
232,80,22981,2,0,L|336:80,1,90,8|0,0:0|0:0,0:0:0:0:
63,107,23316,6,0,L|63:227,1,90,2|0,0:0|0:0,0:0:0:0:
213,133,23651,2,0,L|105:134,1,90,8|0,0:0|0:0,0:0:0:0:
281,34,23986,2,0,L|279:135,1,90,2|0,0:0|0:0,0:0:0:0:
126,217,24322,2,0,L|31:215,1,90,8|0,0:0|0:0,0:0:0:0:
304,264,24657,6,0,P|368:200|304:136,1,180,4|8,0:0|0:0,0:0:0:0:
216,128,25160,1,0,0:0:0:0:
104,128,25327,2,0,L|104:32,1,90
168,128,25579,1,0,0:0:0:0:
360,128,25662,1,8,0:0:0:0:
416,160,25746,1,0,0:0:0:0:
416,224,25830,1,0,0:0:0:0:
360,248,25914,1,0,0:0:0:0:
168,128,25998,6,0,P|96:200|160:264,1,180,4|8,0:0|0:0,0:0:0:0:
240,120,26500,1,0,0:0:0:0:
352,128,26668,2,0,L|456:128,1,90,2|0,0:0|0:0,0:0:0:0:
272,248,27003,2,0,L|168:248,1,90,8|0,0:0|0:0,0:0:0:0:
422,155,27338,6,0,L|422:59,1,90,2|0,0:0|0:0,0:0:0:0:
258,120,27674,2,0,L|172:45,1,90,8|0,0:0|0:0,0:0:0:0:
360,128,28009,2,0,L|472:128,1,90,2|0,0:0|0:0,0:0:0:0:
392,192,28260,1,0,0:0:0:0:
184,136,28344,1,8,0:0:0:0:
128,160,28428,1,0,0:0:0:0:
128,224,28512,1,0,0:0:0:0:
184,248,28595,1,0,0:0:0:0:
392,192,28679,6,0,P|456:136|392:96,1,180,8|8,0:3|0:3,0:0:0:0:
296,96,29182,1,0,0:0:0:0:
64,256,29350,1,8,0:3:0:0:
8,216,29433,1,0,0:0:0:0:
8,152,29517,1,8,0:3:0:0:
64,112,29601,1,0,0:0:0:0:
248,96,29685,2,0,L|360:96,1,90,8|8,0:3|0:3,0:0:0:0:
272,32,29936,1,0,0:0:0:0:
64,112,30020,6,0,L|64:216,1,90,4|0,0:3|0:0,0:0:0:0:
128,112,30271,1,0,0:0:0:0:
288,32,30355,2,0,L|400:32,1,90,0|4,0:0|0:3,0:0:0:0:
128,112,30690,1,0,0:0:0:0:
292,70,30858,2,0,L|344:71,1,45
179,192,31026,2,0,L|119:97,1,90,8|8,0:0|0:0,0:0:0:0:
456,304,31361,6,0,P|512:240|456:176,1,180,4|0,0:0|0:0,0:0:0:0:
352,168,31864,1,8,0:0:0:0:
248,168,32031,2,0,L|432:168,1,180,8|0,0:0|0:0,0:0:0:0:
320,96,32534,1,8,0:0:0:0:
208,88,32702,6,0,P|144:144|208:192,1,180,8|0,0:0|0:0,0:0:0:0:
368,112,33204,2,0,P|440:168|368:216,1,180,8|0,0:0|0:0,0:0:0:0:
224,176,33707,2,0,L|120:176,1,90,8|8,0:0|0:0,0:0:0:0:
192,112,33959,1,0,0:0:0:0:
376,296,34042,6,0,P|432:240|376:176,1,180,2|0,0:0|0:0,0:0:0:0:
264,176,34545,1,8,0:0:0:0:
152,192,34713,2,0,P|80:136|152:88,1,180,8|0,0:0|0:0,0:0:0:0:
240,176,35216,1,8,0:0:0:0:
352,184,35383,6,0,P|424:128|352:80,1,180,8|8,0:0|0:0,0:0:0:0:
216,72,35886,2,0,L|112:72,1,90,8|0,0:0|0:0,0:0:0:0:
355,74,36221,2,0,P|427:122|355:178,1,180,2|0,0:0|0:0,0:0:0:0:
129,184,36724,6,0,P|65:128|129:80,1,180,4|8,0:0|0:0,0:0:0:0:
205,191,37227,1,0,0:0:0:0:
432,296,37394,2,0,L|432:200,1,90,8|0,0:0|0:0,0:0:0:0:
264,184,37729,2,0,L|168:184,1,90,8|0,0:0|0:0,0:0:0:0:
344,184,38065,6,0,L|448:184,1,90,8|8,0:3|0:3,0:0:0:0:
200,80,38400,1,8,0:3:0:0:
96,128,38567,1,8,0:3:0:0:
96,240,38735,1,8,0:3:0:0:
200,288,38903,1,8,0:3:0:0:
368,80,39070,1,8,0:3:0:0:
200,80,39238,1,8,0:3:0:0:
432,80,39405,5,6,0:3:0:0:
376,304,41081,6,0,L|376:184,1,90,2|8,0:3|0:0,0:0:0:0:
312,208,41333,1,0,0:0:0:0:
128,200,41417,1,0,0:0:0:0:
72,160,41500,1,0,0:0:0:0:
72,96,41584,1,8,0:0:0:0:
128,64,41668,1,0,0:0:0:0:
312,208,41752,2,0,L|408:208,1,90,8|8,0:0|0:0,0:0:0:0:
344,144,42003,1,0,0:0:0:0:
160,160,42087,6,0,P|96:112|160:64,1,180,4|0,0:0|0:0,0:0:0:0:
264,176,42590,1,0,0:0:0:0:
376,192,42757,2,0,L|376:80,1,90
208,64,43093,2,0,L|104:64,1,90,8|0,0:0|0:0,0:0:0:0:
360,192,43428,6,0,P|424:136|360:88,1,180,0|8,0:0|0:0,0:0:0:0:
208,64,43931,2,0,L|392:64,1,180
328,192,44350,1,0,0:0:0:0:
136,200,44433,2,0,L|136:96,1,90,8|0,0:0|0:0,0:0:0:0:
376,192,44769,6,0,P|448:144|376:96,1,180,2|8,0:0|0:0,0:0:0:0:
312,88,45271,1,0,0:0:0:0:
80,184,45439,1,8,0:0:0:0:
24,144,45523,1,8,0:0:0:0:
24,88,45607,1,8,0:0:0:0:
80,48,45690,1,0,0:0:0:0:
256,88,45774,1,8,0:0:0:0:
312,128,45858,1,0,0:0:0:0:
312,192,45942,1,8,0:0:0:0:
256,208,46026,1,0,0:0:0:0:
80,184,46109,6,0,P|16:136|80:88,1,180,4|0,0:3|0:0,0:0:0:0:
168,80,46612,1,4,0:3:0:0:
336,184,46780,2,0,L|408:184,2,60
224,80,47115,2,0,L|152:80,2,60,8|0|0,0:3|0:0|0:0,0:0:0:0:
400,192,47450,6,0,P|464:136|400:96,1,180,4|8,0:0|0:0,0:0:0:0:
296,88,47953,1,0,0:0:0:0:
176,88,48121,2,0,L|176:184,1,90,8|0,0:0|0:0,0:0:0:0:
344,80,48456,2,0,L|240:80,1,90,8|0,0:0|0:0,0:0:0:0:
88,88,48791,6,0,P|24:152|88:192,1,180,8|8,0:0|0:0,0:0:0:0:
168,88,49294,1,8,0:0:0:0:
328,88,49461,1,8,0:3:0:0:
432,192,49629,1,8,0:3:0:0:
432,288,49797,1,8,0:3:0:0:
336,320,49964,1,8,0:3:0:0:
80,192,50132,5,4,0:0:0:0:
64,96,50299,1,0,0:0:0:0:
168,96,50467,1,8,0:0:0:0:
272,96,50635,1,0,0:0:0:0:
104,96,50802,2,0,L|104:192,1,90,8|0,0:0|0:0,0:0:0:0:
272,96,51137,2,0,L|152:96,1,90,8|8,0:0|0:0,0:0:0:0:
232,40,51389,1,0,0:0:0:0:
432,192,51472,6,0,P|496:144|432:88,1,180,4|0,0:3|0:0,0:0:0:0:
280,80,51975,2,0,L|88:80,1,180,4|0,0:3|0:0,0:0:0:0:
272,48,52478,2,0,L|392:48,1,90,8|8,0:0|0:0,0:0:0:0:
112,192,52813,6,0,L|112:88,1,90
232,152,53148,1,0,0:0:0:0:
112,192,53316,1,0,0:0:0:0:
344,208,53484,2,0,L|344:112,1,90
224,136,53819,1,0,0:0:0:0:
344,208,53986,1,0,0:0:0:0:
112,192,54154,5,4,0:0:0:0:
24,136,54322,1,0,0:0:0:0:
24,56,54489,1,0,0:0:0:0:
112,24,54657,1,0,0:0:0:0:
280,192,54824,1,0,0:0:0:0:
368,136,54992,1,0,0:0:0:0:
368,48,55160,1,0,0:0:0:0:
280,8,55327,1,0,0:0:0:0:
48,192,55495,6,0,L|48:72,1,90,2|0,0:0|0:0,0:0:0:0:
216,88,55830,2,0,L|216:192,1,90,2|0,0:0|0:0,0:0:0:0:
48,192,56165,2,0,L|176:192,1,90,2|0,0:0|0:0,0:0:0:0:
304,184,56500,2,0,L|304:88,1,90,2|0,0:0|0:0,0:0:0:0:
72,152,56836,6,0,L|72:56,1,90,2|0,0:0|0:0,0:0:0:0:
232,64,57171,2,0,L|336:64,1,90,2|0,0:0|0:0,0:0:0:0:
160,128,57506,2,0,L|160:224,1,90,2|0,0:0|0:0,0:0:0:0:
328,240,57841,2,0,L|432:240,1,90,2|0,0:0|0:0,0:0:0:0:
168,96,58176,6,0,L|64:96,2,90,4|0|0,0:3|0:0|0:0,0:0:0:0:
336,184,58679,2,0,L|440:184,2,90
176,160,59182,2,0,L|176:48,1,90
240,160,59433,1,0,0:0:0:0:
416,192,59517,6,0,L|416:304,1,90,2|2,0:3|0:3,0:0:0:0:
176,144,59852,1,2,0:3:0:0:
392,312,60188,6,0,L|392:208,1,90,8|0,0:0|0:0,0:0:0:0:
224,144,60523,2,0,L|336:144,1,90,8|0,0:0|0:0,0:0:0:0:
80,176,60858,6,0,P|16:120|80:72,1,180,4|2,0:0|0:0,0:0:0:0:
176,64,61361,1,0,0:0:0:0:
288,176,61528,2,0,L|288:72,1,90,8|0,0:0|0:0,0:0:0:0:
120,64,61864,2,0,L|120:160,1,90,2|0,0:0|0:0,0:0:0:0:
352,192,62199,6,0,P|416:248|352:304,1,180,8|2,0:0|0:0,0:0:0:0:
264,192,62702,1,0,0:0:0:0:
160,192,62869,2,0,L|64:192,1,90,8|0,0:0|0:0,0:0:0:0:
232,112,63204,2,0,L|232:0,1,90,2|0,0:0|0:0,0:0:0:0:
64,40,63540,6,0,L|176:40,1,90,4|0,0:3|0:0,0:0:0:0:
320,48,63875,2,0,L|320:160,1,90,8|0,0:3|0:0,0:0:0:0:
152,48,64210,2,0,L|48:48,1,90,4|0,0:3|0:0,0:0:0:0:
230,48,64545,2,0,L|334:48,1,90,8|0,0:3|0:0,0:0:0:0:
88,288,64880,6,0,P|24:240|88:168,1,180,4|2,0:3|0:3,0:0:0:0:
176,152,65383,1,0,0:0:0:0:
280,152,65551,2,0,L|392:152,1,90,2|8,0:3|0:3,0:0:0:0:
304,88,65802,1,8,0:3:0:0:
112,152,65886,1,8,0:3:0:0:
56,112,65970,1,0,0:0:0:0:
56,48,66053,1,8,0:3:0:0:
112,24,66137,1,0,0:0:0:0:
304,88,66221,6,0,P|360:144|304:216,1,180,4|2,0:0|0:0,0:0:0:0:
208,88,66724,1,0,0:0:0:0:
104,96,66891,2,0,L|104:192,1,90,8|0,0:0|0:0,0:0:0:0:
272,80,67227,2,0,L|368:80,1,90,2|0,0:0|0:0,0:0:0:0:
192,184,67562,6,0,L|88:184,1,90,12|0,0:0|0:0,0:0:0:0:
272,184,67897,2,0,L|272:80,1,90,2|0,0:0|0:0,0:0:0:0:
104,80,68232,2,0,L|208:80,1,90,8|0,0:0|0:0,0:0:0:0:
360,192,68567,2,0,L|360:96,1,90,2|0,0:0|0:0,0:0:0:0:
128,192,68903,6,0,P|64:144|128:88,1,180,4|8,0:3|0:3,0:0:0:0:
216,80,69405,1,0,0:0:0:0:
448,192,69573,2,0,P|512:144|448:96,1,180,4|8,0:3|0:3,0:0:0:0:
360,88,70076,1,8,0:3:0:0:
128,80,70243,5,4,0:0:0:0:
72,112,70327,1,0,0:0:0:0:
72,152,70411,1,0,0:0:0:0:
128,184,70495,1,0,0:0:0:0:
312,80,70579,1,4,0:0:0:0:
368,112,70662,1,0,0:0:0:0:
368,176,70746,1,0,0:0:0:0:
304,200,70830,1,0,0:0:0:0:
120,80,70914,5,8,0:3:0:0:
64,112,70998,1,0,0:0:0:0:
64,176,71081,1,8,0:3:0:0:
120,208,71165,1,8,0:3:0:0:
312,80,71249,1,8,0:3:0:0:
368,112,71333,1,0,0:0:0:0:
368,176,71417,1,8,0:3:0:0:
312,208,71500,1,0,0:0:0:0:
120,208,71584,6,0,P|56:160|120:96,1,180,4|2,0:0|0:0,0:0:0:0:
208,192,72087,1,0,0:0:0:0:
312,200,72255,2,0,L|312:88,1,90,8|0,0:0|0:0,0:0:0:0:
144,72,72590,2,0,L|48:72,1,90,2|0,0:0|0:0,0:0:0:0:
288,200,72925,6,0,P|352:136|288:96,1,180,8|2,0:0|0:0,0:0:0:0:
192,88,73428,1,0,0:0:0:0:
80,88,73595,2,0,L|80:192,1,90,8|0,0:0|0:0,0:0:0:0:
248,88,73931,2,0,L|248:192,1,90,2|0,0:0|0:0,0:0:0:0:
80,88,74266,6,0,L|184:88,1,90,4|0,0:3|0:0,0:0:0:0:
336,88,74601,2,0,L|336:184,1,90,8|0,0:3|0:0,0:0:0:0:
168,96,74936,2,0,L|168:0,1,90,4|0,0:3|0:0,0:0:0:0:
336,88,75271,2,0,L|448:88,1,90,8|0,0:3|0:0,0:0:0:0:
192,288,75607,6,0,P|136:232|192:168,1,180,4|8,0:3|0:3,0:0:0:0:
296,160,76109,1,0,0:0:0:0:
408,160,76277,2,0,L|408:56,1,90,2|0,0:0|0:0,0:0:0:0:
344,160,76528,1,0,0:0:0:0:
152,72,76612,2,0,L|40:72,1,90,2|0,0:0|0:0,0:0:0:0:
128,160,76864,1,0,0:0:0:0:
312,160,76947,6,0,P|376:96|312:64,1,180,4|2,0:3|0:0,0:0:0:0:
216,168,77450,1,0,0:0:0:0:
112,168,77618,2,0,L|112:264,1,90,8|0,0:0|0:0,0:0:0:0:
280,104,77953,2,0,L|384:104,1,90,2|0,0:0|0:0,0:0:0:0:
200,48,78288,6,0,L|88:48,1,90,6|0,0:0|0:0,0:0:0:0:
280,176,78623,2,0,L|280:280,1,90,12|0,0:0|0:0,0:0:0:0:
112,144,78959,2,0,L|224:144,1,90,6|0,0:0|0:0,0:0:0:0:
368,176,79294,2,0,L|368:80,1,90,8|0,0:0|0:0,0:0:0:0:
128,192,79629,6,0,P|64:144|128:80,1,180,4|0,0:3|0:0,0:0:0:0:
208,72,80132,1,0,0:0:0:0:
440,80,80299,1,0,0:0:0:0:
496,120,80383,1,0,0:0:0:0:
496,184,80467,1,0,0:0:0:0:
440,208,80551,1,0,0:0:0:0:
248,72,80635,2,0,L|136:72,1,90
328,184,80970,6,0,L|224:184,2,90,8|2|8,0:3|0:3|0:3,0:0:0:0:
96,312,81472,2,0,P|40:264|96:192,1,180,2|0,0:3|0:0,0:0:0:0:
136,192,81891,1,0,0:0:0:0:
304,240,81975,2,0,L|384:160,1,90
120,192,82310,6,0,L|120:96,1,90,12|0,0:0|0:0,0:0:0:0:
288,184,82646,2,0,L|392:184,1,90,8|2,0:3|0:3,0:0:0:0:
208,128,82981,2,0,L|208:24,1,90,8|2,0:3|0:3,0:0:0:0:
368,40,83316,2,0,L|368:144,1,90,8|0,0:3|0:0,0:0:0:0:
120,64,83651,6,0,L|120:176,1,90,4|0,0:3|0:0,0:0:0:0:
288,72,83986,2,0,L|288:192,1,90,8|0,0:3|0:0,0:0:0:0:
120,64,84322,2,0,L|248:64,1,90,8|0,0:3|0:0,0:0:0:0:
376,72,84657,2,0,L|376:176,1,90,8|2,0:3|0:3,0:0:0:0:
144,184,84992,6,0,L|144:88,1,90,8|0,0:0|0:0,0:0:0:0:
312,56,85327,2,0,L|208:56,1,90,8|0,0:0|0:0,0:0:0:0:
392,56,85662,2,0,L|392:168,1,90,8|0,0:0|0:0,0:0:0:0:
222,56,85998,2,0,L|326:56,1,90,8|0,0:0|0:0,0:0:0:0:
144,72,86333,6,0,L|240:72,2,90,8|0|8,0:3|0:0|0:3,0:0:0:0:
376,168,86836,2,0,P|448:120|376:72,1,180
336,56,87255,1,0,0:0:0:0:
152,64,87338,2,0,L|56:64,1,90,8|0,0:0|0:0,0:0:0:0:
296,192,87674,6,0,L|296:88,1,90,12|0,0:0|0:0,0:0:0:0:
176,136,88009,1,8,0:3:0:0:
296,192,88176,1,2,0:3:0:0:
128,184,88344,2,0,L|32:184,1,90,8|2,0:3|0:3,0:0:0:0:
208,240,88679,2,0,L|96:240,1,90,8|2,0:3|0:3,0:0:0:0:
384,168,89014,6,0,L|384:72,1,90,4|0,0:3|0:0,0:0:0:0:
216,96,89350,2,0,L|216:200,1,90,2|0,0:3|0:0,0:0:0:0:
384,48,89685,2,0,L|384:144,1,90,2|8,0:3|0:3,0:0:0:0:
320,48,89936,1,0,0:0:0:0:
136,56,90020,1,2,0:3:0:0:
80,88,90104,1,0,0:0:0:0:
80,152,90188,1,8,0:3:0:0:
136,192,90271,1,0,0:0:0:0:
320,48,90355,6,0,L|424:48,1,90,2|0,0:0|0:0,0:0:0:0:
248,184,90690,2,0,L|152:184,1,90,2|0,0:0|0:0,0:0:0:0:
392,48,91026,1,2,0:0:0:0:
448,80,91109,1,0,0:0:0:0:
448,144,91193,1,0,0:0:0:0:
392,176,91277,1,0,0:0:0:0:
208,192,91361,2,0,L|144:192,1,45,2|0,0:0|0:0,0:0:0:0:
392,48,91528,5,4,0:3:0:0:
256,192,91696,12,0,95718,0:0:0:0:
