osu file format v14

[General]
AudioFilename: audio.mp3
AudioLeadIn: 0
PreviewTime: 60104
Countdown: 0
SampleSet: Soft
StackLeniency: 0.7
Mode: 2
LetterboxInBreaks: 0
WidescreenStoryboard: 0

[Editor]
DistanceSpacing: 1
BeatDivisor: 4
GridSize: 8
TimelineZoom: 2.899999

[Metadata]
Title:MY Mai*TONIGHT (TV Size)
TitleUnicode:MY舞☆TONIGHT (TV Size)
Artist:Aqours
ArtistUnicode:Aqours
Creator:Verti
Version:Overdose
Source:ラブライブ!サンシャイン!!
Tags:Odore Love Live Sunshine!! School Idol Project Festival Insert song Kanan Matsuura 松浦果南 Nanaka Suwa 諏訪ななか Mari Ohara 小原鞠莉 Aina Suzuki 鈴木愛奈 Dia Kurosawa 黒澤ダイヤ Chika Takami 高海千歌 Inami Anju 伊波杏樹 Riko Sakurauchi 桜内梨子 Rikako Aida 逢田梨香子 You Watanabe 渡辺曜 Shuka Saito 斉藤朱夏 Yoshiko Tsushima 津島善子 Aika Kobayashi 小林愛香 Hanamaru Kunikida 国木田花丸 Kanako Takatsuki 高槻かなこ Ruby Kurosawa 黒澤ルビィ Ai Furihata 降幡愛 japanese pop anime jpop j-pop aki hata 畑亜貴 effy Kotori-Chan
BeatmapID:2865773
BeatmapSetID:1387563

[Difficulty]
HPDrainRate:6
CircleSize:4
OverallDifficulty:9.2
ApproachRate:9.2
SliderMultiplier:1.8
SliderTickRate:2

[Events]
//Background and Video events
0,0,"bg.jpg",0,0
//Break Periods
//Storyboard Layer 0 (Background)
//Storyboard Layer 1 (Fail)
//Storyboard Layer 2 (Pass)
//Storyboard Layer 3 (Foreground)
//Storyboard Layer 4 (Overlay)
//Storyboard Sound Samples

[TimingPoints]
404,810.810810810811,4,2,1,40,1,0
6079,-100,4,2,1,40,0,0
6890,-100,4,2,1,70,0,0
7701,-100,4,2,1,40,0,0
8512,-100,4,2,1,70,0,0
9322,-100,4,2,1,40,0,0
11755,-100,4,2,1,55,0,0
12160,-100,4,2,1,40,0,0
12566,-100,4,2,1,45,0,0
12971,-100,4,2,1,50,0,0
13376,-100,4,2,1,70,0,0
13782,-100,4,2,1,40,0,0
14998,-100,4,2,1,40,0,0
15403,857.142857142857,4,2,1,40,1,0
16661,571.428571428571,4,2,1,40,1,0
16661,-100,4,2,1,40,0,0
17125,685.714285714286,4,2,1,5,1,0
19803,342.857142857143,4,2,15,60,1,0
19971,335.195530726257,4,2,15,70,1,0
20635,335.195530726257,4,2,2,80,1,0
28679,-100,4,2,2,80,0,0
29350,-100,4,2,1,65,0,0
30020,-100,4,2,2,80,0,0
31026,-100,4,2,5,80,0,0
31361,-100,4,2,5,50,0,0
36640,-100,4,2,5,5,0,0
36724,-100,4,2,5,50,0,0
37897,-100,4,2,1,50,0,0
38232,-100,4,2,1,55,0,0
38400,-100,4,2,1,60,0,0
38567,-100,4,2,1,65,0,0
38735,-100,4,2,1,70,0,0
38903,-100,4,2,1,75,0,0
39070,-100,4,2,1,80,0,0
39238,-100,4,2,1,85,0,0
39405,-100,4,2,5,80,0,0
41081,-100,4,2,2,80,0,0
41249,-100,4,2,15,60,0,0
42087,-100,4,2,5,70,0,0
45439,-100,4,2,15,70,0,0
46109,-100,4,2,2,70,0,0
47115,-100,4,2,1,50,0,0
47450,-100,4,2,5,70,0,0
47702,-100,4,2,5,5,0,0
47785,-100,4,2,5,70,0,0
49461,-100,4,2,1,50,0,0
50132,-100,4,2,5,50,0,0
50383,-100,4,2,5,5,0,0
50467,-100,4,2,5,50,0,0
51472,-100,4,2,2,50,0,0
52813,-100,4,2,20,70,0,0
53148,-100,4,2,20,80,0,0
53484,-100,4,2,20,90,0,0
53819,-100,4,2,20,100,0,0
54154,-100,4,2,20,70,0,0
54489,-100,4,2,20,80,0,0
54824,-100,4,2,20,90,0,0
55160,-100,4,2,20,100,0,0
55495,-100,4,2,2,65,0,0
55830,-100,4,2,2,70,0,0
56165,-100,4,2,2,75,0,0
56500,-100,4,2,2,80,0,0
56836,-100,4,2,2,85,0,0
57171,-100,4,2,2,90,0,0
57506,-100,4,2,2,95,0,0
57841,-100,4,2,2,100,0,0
59517,-100,4,2,2,70,0,0
60523,-100,4,2,2,70,0,0
60774,-100,4,2,1,5,0,0
60858,-100,4,2,5,80,0,1
61193,-100,4,2,2,80,0,1
61780,-100,4,2,2,5,0,1
61864,-100,4,2,2,80,0,1
62115,-100,4,2,2,5,0,1
62199,-100,4,2,2,80,0,1
63456,-100,4,2,2,5,0,1
63540,-100,4,2,2,80,0,1
65718,-100,4,2,1,65,0,1
66221,-100,4,2,5,80,0,1
66556,-100,4,2,2,80,0,1
67478,-100,4,2,2,5,0,1
67562,-100,4,2,2,80,0,1
68819,-100,4,2,2,5,0,1
68903,-100,4,2,2,80,0,1
70243,-100,4,2,1,80,0,1
70914,-100,4,2,1,65,0,1
71584,-100,4,2,5,80,0,1
71919,-100,4,2,2,80,0,1
72506,-100,4,2,2,5,0,1
72590,-100,4,2,2,80,0,1
72841,-100,4,2,2,5,0,1
72925,-100,4,2,2,80,0,1
74182,-100,4,2,2,5,0,1
74266,-100,4,2,2,80,0,1
78204,-100,4,2,2,5,0,1
78288,-100,4,2,2,80,0,1
81975,-100,4,2,5,80,0,0
82227,-100,4,2,5,5,0,0
82310,-100,4,2,5,80,0,1
82646,-100,4,2,2,80,0,1
86333,-100,4,2,1,65,0,1
87338,-100,4,2,5,80,0,1
88009,-100,4,2,2,80,0,1
91528,-100,4,2,2,80,0,0
93037,-100,4,2,1,5,0,0
93121,-100,4,2,2,80,0,0
95718,-100,4,2,1,5,0,0

[Colours]
Combo1 : 73,254,218
Combo2 : 189,51,162
Combo3 : 79,45,134
Combo4 : 255,255,128

[HitObjects]
360,208,6079,6,0,L|472:208,1,90,8|8,0:3|0:3,0:0:0:0:
192,144,6890,6,0,L|88:144,1,90,4|0,0:0|0:0,0:0:0:0:
280,80,7701,2,0,L|168:80,1,90,8|0,0:3|0:0,0:0:0:0:
464,104,8512,2,0,L|464:200,1,90,4|0,0:0|0:0,0:0:0:0:
280,112,9322,2,0,L|384:112,1,90,8|0,0:3|0:0,0:0:0:0:
104,288,10133,5,8,0:3:0:0:
243,209,10539,1,0,0:0:0:0:
101,211,10944,1,8,0:3:0:0:
102,137,11349,1,0,0:0:0:0:
376,64,11755,2,0,L|496:64,1,90,12|0,0:3|0:0,0:0:0:0:
280,120,12566,2,0,L|384:120,1,90,8|0,0:3|0:0,0:0:0:0:
96,120,13376,1,4,0:2:0:0:
296,192,14187,6,0,L|296:296,1,90,8|0,0:3|0:0,0:0:0:0:
24,112,14998,2,0,L|128:112,1,90,8|0,0:3|0:0,0:0:0:0:
304,112,15831,2,0,L|416:112,1,90,8|0,0:3|0:0,0:0:0:0:
64,120,16661,5,8,0:0:0:0:
256,192,17125,12,0,19525,0:0:0:0:
336,304,19803,6,0,L|392:304,1,45
184,208,19971,1,0,0:0:0:0:
128,160,20054,1,0,0:0:0:0:
128,96,20138,1,0,0:0:0:0:
184,64,20222,1,0,0:0:0:0:
336,304,20306,2,0,L|392:304,1,45
184,208,20473,2,0,L|120:208,1,45
336,304,20635,6,0,P|400:240|336:176,1,180,4|8,0:0|0:0,0:0:0:0:
240,136,21137,1,0,0:0:0:0:
120,128,21305,2,0,L|120:32,1,90
288,136,21640,2,0,L|184:136,1,90,8|0,0:0|0:0,0:0:0:0:
424,96,21975,6,0,L|232:96,1,180,4|8,0:0|0:0,0:0:0:0:
360,280,22478,1,0,0:0:0:0:
480,216,22646,2,0,L|480:104,1,90,2|0,0:0|0:0,0:0:0:0:
312,96,22981,2,0,L|416:96,1,90,8|0,0:0|0:0,0:0:0:0:
168,184,23316,6,0,L|64:184,1,90,2|0,0:0|0:0,0:0:0:0:
248,96,23651,2,0,L|248:200,1,90,8|0,0:0|0:0,0:0:0:0:
80,80,23986,2,0,L|184:80,1,90,2|0,0:0|0:0,0:0:0:0:
344,88,24322,2,0,L|344:184,1,90,8|0,0:0|0:0,0:0:0:0:
112,32,24657,6,0,P|48:96|112:160,1,180,4|8,0:0|0:0,0:0:0:0:
208,32,25160,1,0,0:0:0:0:
328,40,25327,2,0,L|328:144,1,90
264,40,25579,1,0,0:0:0:0:
96,176,25662,1,8,0:0:0:0:
40,136,25746,1,0,0:0:0:0:
40,72,25830,1,0,0:0:0:0:
96,40,25914,1,0,0:0:0:0:
328,40,25998,6,0,P|392:104|328:168,1,180,4|8,0:0|0:0,0:0:0:0:
232,40,26500,1,0,0:0:0:0:
112,40,26668,2,0,L|16:40,1,90,2|0,0:0|0:0,0:0:0:0:
192,168,27003,2,0,L|304:168,1,90,8|0,0:0|0:0,0:0:0:0:
56,192,27338,6,0,L|56:96,1,90,2|0,0:0|0:0,0:0:0:0:
224,160,27674,2,0,L|320:160,1,90,8|0,0:0|0:0,0:0:0:0:
146,192,28009,2,0,L|50:192,1,90,2|0,0:0|0:0,0:0:0:0:
120,120,28260,1,0,0:0:0:0:
296,192,28344,2,0,L|360:192,1,45,8|0,0:0|0:0,0:0:0:0:
144,192,28512,2,0,L|88:192,1,45
296,192,28679,6,0,L|400:192,1,90,8|0,0:3|0:0,0:0:0:0:
144,192,29014,2,0,L|144:64,1,90,8|0,0:3|0:0,0:0:0:0:
312,192,29350,2,0,L|312:120,2,45,8|0|8,0:3|0:0|0:3,0:0:0:0:
144,192,29685,1,8,0:3:0:0:
312,192,29852,1,8,0:3:0:0:
144,192,30020,6,0,L|40:192,1,90,4|0,0:3|0:0,0:0:0:0:
120,112,30271,1,0,0:0:0:0:
184,112,30355,1,0,0:0:0:0:
416,112,30523,1,4,0:3:0:0:
144,192,30690,5,0,0:0:0:0:
122,196,30731,1,0,0:0:0:0:
103,209,30773,1,0,0:0:0:0:
91,228,30815,1,0,0:0:0:0:
88,250,30857,1,0,0:0:0:0:
93,271,30899,1,0,0:0:0:0:
106,289,30941,1,0,0:0:0:0:
126,300,30983,1,0,0:0:0:0:
312,192,31026,2,0,L|416:192,1,90,8|8,0:0|0:0,0:0:0:0:
144,192,31361,6,0,P|80:128|144:64,1,180,4|0,0:0|0:0,0:0:0:0:
248,192,31864,1,8,0:0:0:0:
368,192,32031,2,0,L|168:192,1,180,8|0,0:0|0:0,0:0:0:0:
304,104,32534,1,8,0:0:0:0:
424,104,32702,6,0,P|488:168|424:232,1,180,8|0,0:0|0:0,0:0:0:0:
304,104,33204,2,0,P|240:168|304:232,1,180,8|0,0:0|0:0,0:0:0:0:
448,184,33707,2,0,L|448:72,1,90,8|8,0:0|0:0,0:0:0:0:
384,184,33959,1,0,0:0:0:0:
200,192,34042,6,0,P|136:128|200:64,1,180,2|0,0:0|0:0,0:0:0:0:
304,192,34545,1,8,0:0:0:0:
424,192,34713,2,0,L|232:192,1,180,8|0,0:0|0:0,0:0:0:0:
128,192,35216,1,8,0:0:0:0:
248,192,35383,6,0,P|312:128|248:64,1,180,8|8,0:0|0:0,0:0:0:0:
104,192,35886,2,0,L|104:96,1,90,8|0,0:0|0:0,0:0:0:0:
272,64,36221,2,0,L|88:64,1,180,2|0,0:0|0:0,0:0:0:0:
320,64,36724,6,0,P|384:128|320:192,1,180,4|8,0:0|0:0,0:0:0:0:
216,64,37227,1,0,0:0:0:0:
88,64,37394,2,0,L|88:176,1,90,8|0,0:0|0:0,0:0:0:0:
256,56,37729,2,0,L|352:56,1,90,8|0,0:0|0:0,0:0:0:0:
280,40,37981,1,0,0:0:0:0:
88,64,38065,5,8,0:3:0:0:
88,192,38232,1,8,0:3:0:0:
320,96,38400,1,8,0:3:0:0:
88,192,38567,1,8,0:3:0:0:
320,96,38735,1,8,0:3:0:0:
320,232,38903,1,8,0:3:0:0:
88,192,39070,1,8,0:3:0:0:
320,96,39238,1,8,0:3:0:0:
88,192,39405,5,6,0:3:0:0:
352,280,41081,5,2,0:3:0:0:
192,192,41249,1,8,0:0:0:0:
192,192,41333,1,0,0:0:0:0:
256,192,41417,1,0,0:0:0:0:
320,192,41500,1,0,0:0:0:0:
256,192,41584,1,8,0:0:0:0:
192,192,41668,1,0,0:0:0:0:
384,192,41752,1,8,0:0:0:0:
440,224,41836,1,0,0:0:0:0:
440,288,41919,1,8,0:0:0:0:
384,320,42003,1,0,0:0:0:0:
192,192,42087,6,0,P|128:128|192:64,1,180,4|0,0:0|0:0,0:0:0:0:
316,191,42590,1,0,0:0:0:0:
176,48,42757,1,0,0:0:0:0:
426,192,42925,2,0,L|314:192,2,90,0|8|0,0:0|0:0|0:0,0:0:0:0:
192,112,43428,6,0,L|376:112,1,180,0|8,0:0|0:0,0:0:0:0:
144,112,43931,2,0,P|80:176|144:240,1,180
208,112,44350,1,0,0:0:0:0:
392,112,44433,2,0,L|504:112,1,90,8|0,0:0|0:0,0:0:0:0:
248,112,44769,6,0,L|144:112,2,90,2|0|8,0:0|0:0|0:0,0:0:0:0:
88,48,45271,1,0,0:0:0:0:
320,336,45439,1,8,0:0:0:0:
320,272,45523,1,8,0:0:0:0:
256,272,45607,1,8,0:0:0:0:
320,272,45690,1,0,0:0:0:0:
384,272,45774,1,8,0:0:0:0:
320,272,45858,1,0,0:0:0:0:
120,272,45942,2,0,L|64:272,1,45,8|0,0:0|0:0,0:0:0:0:
256,272,46109,6,0,P|320:208|256:144,1,180,4|0,0:3|0:0,0:0:0:0:
120,272,46612,2,0,L|120:168,1,90,4|0,0:3|0:0,0:0:0:0:
360,192,46891,2,0,L|360:128,1,60
272,80,47115,1,8,0:3:0:0:
360,192,47227,1,0,0:0:0:0:
448,192,47338,1,0,0:0:0:0:
272,80,47450,6,0,L|168:80,1,90,4|0,0:0|0:0,0:0:0:0:
416,192,47785,2,0,L|416:96,1,90,8|0,0:0|0:0,0:0:0:0:
248,80,48121,2,0,L|248:176,1,90,8|0,0:0|0:0,0:0:0:0:
416,192,48456,2,0,L|320:192,1,90,8|0,0:0|0:0,0:0:0:0:
80,192,48791,6,0,L|80:88,1,90,8|0,0:0|0:0,0:0:0:0:
248,80,49126,2,0,L|352:80,1,90,8|8,0:0|0:0,0:0:0:0:
168,176,49461,1,8,0:3:0:0:
288,176,49629,1,8,0:3:0:0:
168,176,49797,1,8,0:3:0:0:
48,176,49964,1,8,0:3:0:0:
288,176,50132,6,0,L|400:176,1,90,4|0,0:0|0:0,0:0:0:0:
208,72,50467,2,0,L|88:72,1,90,8|0,0:0|0:0,0:0:0:0:
352,176,50802,1,8,0:0:0:0:
440,248,50970,1,0,0:0:0:0:
440,336,51137,1,8,0:0:0:0:
352,368,51305,1,8,0:0:0:0:
288,368,51389,1,0,0:0:0:0:
104,192,51472,6,0,P|40:128|112:56,1,180,4|0,0:3|0:0,0:0:0:0:
320,184,51975,2,0,L|128:184,1,180,4|0,0:3|0:0,0:0:0:0:
200,104,52394,1,0,0:0:0:0:
392,104,52478,2,0,L|512:104,1,90,8|8,0:0|0:0,0:0:0:0:
240,296,52813,5,0,0:0:0:0:
392,304,52981,1,0,0:0:0:0:
240,296,53148,1,0,0:0:0:0:
240,176,53316,1,0,0:0:0:0:
488,168,53484,1,0,0:0:0:0:
240,176,53651,1,0,0:0:0:0:
488,168,53819,1,0,0:0:0:0:
488,56,53986,1,0,0:0:0:0:
240,176,54154,5,4,0:0:0:0:
392,176,54322,1,0,0:0:0:0:
240,176,54489,1,0,0:0:0:0:
240,288,54657,1,0,0:0:0:0:
488,56,54824,1,0,0:0:0:0:
240,176,54992,1,0,0:0:0:0:
488,56,55160,1,0,0:0:0:0:
488,184,55327,1,0,0:0:0:0:
240,176,55495,6,0,L|120:176,1,90,2|0,0:0|0:0,0:0:0:0:
392,304,55830,2,0,L|392:184,1,90,2|0,0:0|0:0,0:0:0:0:
160,88,56165,2,0,L|264:88,1,90,2|0,0:0|0:0,0:0:0:0:
24,288,56500,2,0,L|24:160,1,90,2|0,0:0|0:0,0:0:0:0:
256,152,56836,6,0,L|352:152,1,90,2|0,0:0|0:0,0:0:0:0:
280,96,57087,1,0,0:0:0:0:
104,72,57171,2,0,L|208:72,1,90,2|0,0:0|0:0,0:0:0:0:
440,192,57506,2,0,L|440:96,1,90,2|0,0:0|0:0,0:0:0:0:
208,56,57841,2,0,L|312:56,1,90,2|0,0:0|0:0,0:0:0:0:
72,184,58176,6,0,L|176:184,2,90,4|0|0,0:3|0:0|0:0,0:0:0:0:
304,72,58679,2,0,L|208:72,2,90
72,184,59182,2,0,L|72:80,1,90
136,184,59433,1,0,0:0:0:0:
304,96,59517,5,2,0:3:0:0:
136,184,59685,1,2,0:3:0:0:
408,192,59852,1,2,0:3:0:0:
176,184,60188,6,0,L|176:72,1,90,8|0,0:0|0:0,0:0:0:0:
232,184,60439,1,0,0:0:0:0:
416,304,60523,2,0,L|416:192,1,90,8|0,0:0|0:0,0:0:0:0:
176,184,60858,6,0,L|360:184,1,180,4|2,0:0|0:0,0:0:0:0:
232,64,61361,1,0,0:0:0:0:
112,64,61528,2,0,L|112:168,1,90,8|0,0:0|0:0,0:0:0:0:
344,64,61864,2,0,L|448:64,1,90,2|0,0:0|0:0,0:0:0:0:
200,32,62199,6,0,L|384:32,1,180,8|2,0:0|0:0,0:0:0:0:
256,176,62702,1,0,0:0:0:0:
128,176,62869,2,0,L|128:280,1,90,8|0,0:0|0:0,0:0:0:0:
360,56,63204,2,0,L|232:56,1,90,2|0,0:0|0:0,0:0:0:0:
504,192,63540,6,0,L|504:88,1,90,4|0,0:3|0:0,0:0:0:0:
336,56,63875,2,0,L|440:56,1,90,8|0,0:3|0:0,0:0:0:0:
192,192,64210,2,0,L|80:192,1,90,4|0,0:3|0:0,0:0:0:0:
272,192,64545,2,0,L|272:88,1,90,8|0,0:3|0:0,0:0:0:0:
41,95,64880,6,0,L|161:95,1,90,4|0,0:3|0:0,0:0:0:0:
296,192,65216,2,0,L|400:192,2,90,2|0|2,0:3|0:0|0:3,0:0:0:0:
72,192,65718,1,8,0:3:0:0:
16,144,65802,1,8,0:3:0:0:
16,80,65886,1,8,0:3:0:0:
72,48,65970,1,0,0:0:0:0:
264,192,66053,2,0,L|352:192,1,45,8|0,0:3|0:0,0:0:0:0:
72,192,66221,6,0,P|8:128|72:64,1,180,4|2,0:0|0:0,0:0:0:0:
176,192,66724,1,0,0:0:0:0:
296,192,66891,2,0,L|400:192,1,90,8|0,0:0|0:0,0:0:0:0:
144,48,67227,2,0,L|16:48,1,90,2|0,0:0|0:0,0:0:0:0:
296,192,67562,6,0,L|296:96,1,90,12|0,0:0|0:0,0:0:0:0:
128,48,67897,2,0,L|224:48,1,90,2|0,0:0|0:0,0:0:0:0:
456,192,68232,2,0,L|456:80,1,90,8|0,0:0|0:0,0:0:0:0:
296,192,68567,2,0,L|392:192,1,90,2|0,0:0|0:0,0:0:0:0:
144,128,68903,6,0,L|48:128,1,90,4|0,0:3|0:0,0:0:0:0:
224,128,69238,2,0,L|224:232,1,90,8|0,0:3|0:0,0:0:0:0:
456,128,69573,2,0,L|456:224,1,90,4|0,0:3|0:0,0:0:0:0:
288,112,69908,2,0,L|408:112,1,90,8|8,0:3|0:3,0:0:0:0:
136,248,70243,5,4,0:0:0:0:
80,224,70327,1,0,0:0:0:0:
80,176,70411,1,0,0:0:0:0:
136,152,70495,1,0,0:0:0:0:
320,264,70579,1,4,0:0:0:0:
376,216,70663,1,0,0:0:0:0:
376,152,70746,1,0,0:0:0:0:
320,120,70830,1,0,0:0:0:0:
136,192,70914,5,8,0:3:0:0:
80,144,70998,1,0,0:0:0:0:
80,80,71081,1,8,0:3:0:0:
136,48,71165,1,8,0:3:0:0:
336,112,71249,2,0,L|384:112,1,45,8|0,0:3|0:0,0:0:0:0:
136,192,71417,2,0,L|88:192,1,45,8|0,0:3|0:0,0:0:0:0:
336,112,71584,6,0,P|400:176|336:240,1,180,4|2,0:0|0:0,0:0:0:0:
240,112,72087,1,0,0:0:0:0:
120,192,72255,2,0,L|120:96,1,90,8|0,0:0|0:0,0:0:0:0:
352,104,72590,2,0,L|456:104,1,90,2|0,0:0|0:0,0:0:0:0:
208,192,72925,6,0,P|144:128|208:64,1,180,8|2,0:0|0:0,0:0:0:0:
312,184,73428,1,0,0:0:0:0:
432,192,73595,2,0,L|432:96,1,90,8|0,0:0|0:0,0:0:0:0:
264,184,73931,2,0,L|368:184,1,90,2|0,0:0|0:0,0:0:0:0:
120,192,74266,6,0,L|120:96,1,90,4|0,0:3|0:0,0:0:0:0:
288,120,74601,2,0,L|288:24,1,90,8|0,0:3|0:0,0:0:0:0:
56,80,74936,2,0,L|160:80,1,90,4|0,0:3|0:0,0:0:0:0:
312,104,75271,2,0,L|312:208,1,90,8|0,0:3|0:0,0:0:0:0:
72,80,75607,6,0,P|8:144|72:208,1,180,4|8,0:3|0:3,0:0:0:0:
168,80,76109,1,0,0:0:0:0:
288,184,76277,2,0,L|160:184,1,90,2|0,0:0|0:0,0:0:0:0:
264,104,76528,1,0,0:0:0:0:
448,176,76612,2,0,L|504:176,1,45,2|0,0:0|0:0,0:0:0:0:
288,184,76780,2,0,L|216:184,1,45
440,176,76947,6,0,P|504:112|440:48,1,180,4|2,0:3|0:0,0:0:0:0:
344,176,77450,1,0,0:0:0:0:
224,184,77618,2,0,L|224:80,1,90,8|0,0:0|0:0,0:0:0:0:
456,48,77953,2,0,L|328:48,1,90,2|0,0:0|0:0,0:0:0:0:
136,184,78288,6,0,L|136:80,1,90,6|0,0:0|0:0,0:0:0:0:
304,72,78623,2,0,L|416:72,1,90,12|0,0:0|0:0,0:0:0:0:
136,184,78959,2,0,L|232:184,1,90,6|0,0:0|0:0,0:0:0:0:
392,184,79294,2,0,L|392:72,1,90,8|0,0:0|0:0,0:0:0:0:
160,152,79629,6,0,L|64:152,1,90,4|0,0:3|0:0,0:0:0:0:
296,88,79964,2,0,L|176:88,1,90
432,88,80299,1,0,0:0:0:0:
488,128,80383,1,0,0:0:0:0:
488,192,80467,1,0,0:0:0:0:
432,216,80551,1,0,0:0:0:0:
232,88,80635,2,0,L|120:88,1,90
376,192,80970,6,0,L|280:192,2,90,8|2|8,0:3|0:3|0:3,0:0:0:0:
144,192,81472,2,0,P|80:128|144:64,1,180,2|0,0:3|0:0,0:0:0:0:
184,64,81891,1,0,0:0:0:0:
376,192,81975,2,0,L|472:192,1,90
240,96,82310,6,0,L|368:96,1,90,12|0,0:0|0:0,0:0:0:0:
96,184,82646,1,8,0:3:0:0:
96,72,82813,1,2,0:3:0:0:
328,192,82981,1,8,0:3:0:0:
96,72,83148,1,2,0:3:0:0:
328,192,83316,2,0,L|432:192,1,90,8|0,0:3|0:0,0:0:0:0:
184,96,83651,6,0,L|304:96,1,90,4|0,0:3|0:0,0:0:0:0:
48,192,83986,2,0,L|48:80,1,90,8|0,0:3|0:0,0:0:0:0:
280,192,84322,1,8,0:3:0:0:
48,192,84489,1,0,0:0:0:0:
280,192,84657,1,8,0:3:0:0:
280,88,84824,1,2,0:3:0:0:
48,192,84992,6,0,L|168:192,1,90,8|0,0:0|0:0,0:0:0:0:
304,192,85327,2,0,L|304:296,1,90,8|0,0:0|0:0,0:0:0:0:
72,184,85662,2,0,L|72:80,1,90,8|0,0:0|0:0,0:0:0:0:
240,56,85998,2,0,L|136:56,1,90,8|0,0:0|0:0,0:0:0:0:
376,192,86333,6,0,L|472:192,1,90,8|0,0:3|0:0,0:0:0:0:
296,192,86668,2,0,L|296:96,1,90,8|0,0:3|0:0,0:0:0:0:
64,112,87003,2,0,L|64:16,1,90
128,112,87255,1,0,0:0:0:0:
296,192,87338,2,0,L|352:192,1,45,8|0,0:0|0:0,0:0:0:0:
128,112,87506,2,0,L|56:112,1,45
296,192,87674,5,12,0:0:0:0:
296,64,87841,1,0,0:0:0:0:
64,80,88009,1,8,0:3:0:0:
296,192,88176,1,2,0:3:0:0:
64,80,88344,1,8,0:3:0:0:
64,192,88512,1,2,0:3:0:0:
296,192,88679,2,0,L|392:192,1,90,8|2,0:3|0:3,0:0:0:0:
152,184,89014,6,0,L|152:72,1,90,4|0,0:3|0:0,0:0:0:0:
384,184,89350,1,2,0:3:0:0:
152,184,89517,1,0,0:0:0:0:
384,184,89685,2,0,L|384:88,1,90,2|8,0:3|0:3,0:0:0:0:
320,184,89936,1,0,0:0:0:0:
152,184,90020,2,0,L|80:184,1,45,2|0,0:3|0:0,0:0:0:0:
320,184,90188,2,0,L|384:184,1,45,8|0,0:3|0:0,0:0:0:0:
152,184,90355,6,0,L|48:184,1,90,2|0,0:0|0:0,0:0:0:0:
288,56,90690,2,0,L|184:56,1,90,2|0,0:0|0:0,0:0:0:0:
432,56,91026,1,2,0:0:0:0:
488,88,91109,1,0,0:0:0:0:
488,152,91193,1,0,0:0:0:0:
432,176,91277,1,0,0:0:0:0:
240,56,91361,2,0,L|176:56,1,45,2|0,0:0|0:0,0:0:0:0:
432,176,91528,5,4,0:3:0:0:
256,192,91696,12,0,95718,0:0:0:0:
