osu file format v14

[General]
AudioFilename: audio.mp3
AudioLeadIn: 0
PreviewTime: 60104
Countdown: 0
SampleSet: Soft
StackLeniency: 0.7
Mode: 2
LetterboxInBreaks: 0
WidescreenStoryboard: 1

[Editor]
DistanceSpacing: 1
BeatDivisor: 4
GridSize: 8
TimelineZoom: 2.899999

[Metadata]
Title:MY Mai*TONIGHT (TV Size)
TitleUnicode:MY舞☆TONIGHT (TV Size)
Artist:Aqours
ArtistUnicode:Aqours
Creator:Verti
Version:Cup
Source:ラブライブ!サンシャイン!!
Tags:Odore Love Live Sunshine!! School Idol Project Festival Insert song Kanan Matsuura 松浦果南 Nanaka Suwa 諏訪ななか Mari Ohara 小原鞠莉 Aina Suzuki 鈴木愛奈 Dia Kurosawa 黒澤ダイヤ Chika Takami 高海千歌 Inami Anju 伊波杏樹 Riko Sakurauchi 桜内梨子 Rikako Aida 逢田梨香子 You Watanabe 渡辺曜 Shuka Saito 斉藤朱夏 Yoshiko Tsushima 津島善子 Aika Kobayashi 小林愛香 Hanamaru Kunikida 国木田花丸 Kanako Takatsuki 高槻かなこ Ruby Kurosawa 黒澤ルビィ Ai Furihata 降幡愛 japanese pop anime jpop j-pop aki hata 畑亜貴 effy Kotori-Chan
BeatmapID:2865772
BeatmapSetID:1387563

[Difficulty]
HPDrainRate:2
CircleSize:2.5
OverallDifficulty:6
ApproachRate:6
SliderMultiplier:1.6
SliderTickRate:1

[Events]
//Background and Video events
0,0,"bg.jpg",0,0
//Break Periods
//Storyboard Layer 0 (Background)
//Storyboard Layer 1 (Fail)
//Storyboard Layer 2 (Pass)
//Storyboard Layer 3 (Foreground)
//Storyboard Layer 4 (Overlay)
//Storyboard Sound Samples

[TimingPoints]
404,810.810810810811,4,2,1,40,1,0
6079,-100,4,2,1,40,0,0
6890,-100,4,2,1,70,0,0
7701,-100,4,2,1,40,0,0
8512,-100,4,2,1,70,0,0
9322,-100,4,2,1,40,0,0
11755,-100,4,2,1,55,0,0
12160,-100,4,2,1,40,0,0
12566,-100,4,2,1,45,0,0
12971,-100,4,2,1,50,0,0
13376,-100,4,2,1,70,0,0
13782,-100,4,2,1,40,0,0
14998,-100,4,2,1,40,0,0
15403,857.142857142857,4,2,1,40,1,0
16661,571.428571428571,4,2,1,40,1,0
16661,-100,4,2,1,40,0,0
17125,685.714285714286,4,2,1,5,1,0
19803,342.857142857143,4,2,15,60,1,0
19971,335.195530726257,4,2,15,70,1,0
20635,335.195530726257,4,2,2,80,1,0
28679,-100,4,2,2,80,0,0
29350,-100,4,2,1,65,0,0
30020,-100,4,2,2,80,0,0
31026,-100,4,2,5,80,0,0
31361,-100,4,2,5,50,0,0
36640,-100,4,2,5,5,0,0
36724,-100,4,2,5,50,0,0
37897,-100,4,2,1,50,0,0
38232,-100,4,2,1,55,0,0
38400,-100,4,2,1,60,0,0
38567,-100,4,2,1,65,0,0
38735,-100,4,2,1,70,0,0
38903,-100,4,2,1,75,0,0
39070,-100,4,2,1,80,0,0
39238,-100,4,2,1,85,0,0
39405,-100,4,2,5,80,0,0
41081,-100,4,2,2,80,0,0
41249,-100,4,2,15,60,0,0
42087,-100,4,2,5,70,0,0
45439,-100,4,2,15,70,0,0
46109,-100,4,2,2,70,0,0
47115,-100,4,2,1,50,0,0
47450,-100,4,2,5,70,0,0
47702,-100,4,2,5,5,0,0
47785,-100,4,2,5,70,0,0
49461,-100,4,2,1,50,0,0
50132,-100,4,2,5,50,0,0
50383,-100,4,2,5,5,0,0
50467,-100,4,2,5,50,0,0
51472,-100,4,2,2,50,0,0
52813,-100,4,2,20,70,0,0
53148,-100,4,2,20,80,0,0
53484,-100,4,2,20,90,0,0
53819,-100,4,2,20,100,0,0
54154,-100,4,2,20,70,0,0
54489,-100,4,2,20,80,0,0
54824,-100,4,2,20,90,0,0
55160,-100,4,2,20,100,0,0
55495,-100,4,2,2,65,0,0
55830,-100,4,2,2,70,0,0
56165,-100,4,2,2,75,0,0
56500,-100,4,2,2,80,0,0
56836,-100,4,2,2,85,0,0
57171,-100,4,2,2,90,0,0
57506,-100,4,2,2,95,0,0
57841,-100,4,2,2,100,0,0
59517,-100,4,2,2,70,0,0
60523,-100,4,2,2,70,0,0
60774,-100,4,2,1,5,0,0
60858,-100,4,2,5,80,0,1
61193,-100,4,2,2,80,0,1
61780,-100,4,2,2,5,0,1
61864,-100,4,2,2,80,0,1
62115,-100,4,2,2,5,0,1
62199,-100,4,2,2,80,0,1
63456,-100,4,2,2,5,0,1
63540,-100,4,2,2,80,0,1
65718,-100,4,2,1,65,0,1
66221,-100,4,2,5,80,0,1
66556,-100,4,2,2,80,0,1
67478,-100,4,2,2,5,0,1
67562,-100,4,2,2,80,0,1
68819,-100,4,2,2,5,0,1
68903,-100,4,2,2,80,0,1
70243,-100,4,2,1,80,0,1
70914,-100,4,2,1,65,0,1
71584,-100,4,2,5,80,0,1
71919,-100,4,2,2,80,0,1
72506,-100,4,2,2,5,0,1
72590,-100,4,2,2,80,0,1
72841,-100,4,2,2,5,0,1
72925,-100,4,2,2,80,0,1
74182,-100,4,2,2,5,0,1
74266,-100,4,2,2,80,0,1
78204,-100,4,2,2,5,0,1
78288,-100,4,2,2,80,0,1
81975,-100,4,2,5,80,0,0
82227,-100,4,2,5,5,0,0
82310,-100,4,2,5,80,0,1
82646,-100,4,2,2,80,0,1
86333,-100,4,2,1,65,0,1
87338,-100,4,2,5,80,0,1
88009,-100,4,2,2,80,0,1
91528,-100,4,2,2,80,0,0
93037,-100,4,2,1,5,0,0
93121,-100,4,2,2,80,0,0
95718,-100,4,2,1,5,0,0

[Colours]
Combo1 : 73,254,218
Combo2 : 189,51,162
Combo3 : 79,45,134
Combo4 : 255,255,128

[HitObjects]
384,344,6079,6,0,L|384:216,1,80,8|8,0:3|0:3,0:0:0:0:
224,160,6890,6,0,L|368:160,1,80,4|0,0:0|0:0,0:0:0:0:
144,184,7701,2,0,L|144:80,1,80,8|0,0:3|0:0,0:0:0:0:
304,96,8512,2,0,L|208:96,1,80,4|0,0:0|0:0,0:0:0:0:
384,192,9322,5,8,0:3:0:0:
224,128,9728,1,0,0:0:0:0:
384,103,10133,1,8,0:3:0:0:
384,192,10539,1,0,0:0:0:0:
224,288,10944,6,0,L|128:288,1,80,8|0,0:3|0:0,0:0:0:0:
304,160,11755,2,0,L|392:160,1,80,12|0,0:3|0:0,0:0:0:0:
224,104,12566,2,0,L|344:104,1,80,8|0,0:3|0:0,0:0:0:0:
128,152,13376,1,4,0:2:0:0:
288,312,14187,6,0,L|384:312,1,80,8|0,0:3|0:0,0:0:0:0:
208,208,14998,2,0,L|128:208,1,80,8|0,0:3|0:0,0:0:0:0:
306,186,15831,2,0,L|306:98,1,80,8|0,0:3|0:0,0:0:0:0:
112,80,16661,5,8,0:0:0:0:
256,192,17125,12,0,19525,0:0:0:0:
192,320,19971,6,0,L|112:280,2,80
352,328,20635,6,0,L|352:168,1,160,4|8,0:0|0:0,0:0:0:0:
192,328,21305,2,0,L|191:148,1,160,0|8,0:0|0:0,0:0:0:0:
351,331,21975,6,0,L|176:307,1,160,4|8,0:0|0:0,0:0:0:0:
32,278,22646,2,0,L|31:107,1,160,2|8,0:0|0:0,0:0:0:0:
196,111,23316,6,0,L|344:35,1,160,2|8,0:0|0:0,0:0:0:0:
165,287,23986,2,0,L|106:110,1,160,2|8,0:0|0:0,0:0:0:0:
271,91,24657,6,0,P|199:43|127:83,1,160,4|8,0:0|0:0,0:0:0:0:
243,150,25327,2,0,L|307:214,2,80,0|0|8,0:0|0:0|0:0,0:0:0:0:
68,122,25998,6,0,P|154:63|231:76,1,160,4|8,0:0|0:0,0:0:0:0:
48,128,26668,2,0,L|48:288,1,160,2|8,0:0|0:0,0:0:0:0:
208,128,27338,6,0,P|136:200|64:128,1,160,2|8,0:0|0:0,0:0:0:0:
256,120,28009,2,0,L|328:192,2,80,2|0|8,0:0|0:0|0:0,0:0:0:0:
96,128,28679,6,0,L|96:296,1,160,8|8,0:3|0:3,0:0:0:0:
256,80,29350,2,0,P|200:24|144:88,1,160,8|8,0:3|0:3,0:0:0:0:
296,176,30020,6,0,L|368:104,2,80,4|0|0,0:3|0:0|0:0,0:0:0:0:
216,176,30523,2,0,L|192:16,1,160,4|0,0:3|0:0,0:0:0:0:
272,24,31026,1,8,0:0:0:0:
434,182,31361,6,0,L|408:344,1,160,4|0,0:0|0:0,0:0:0:0:
248,176,32031,2,0,P|312:112|376:176,1,160,8|0,0:0|0:0,0:0:0:0:
200,176,32702,6,0,P|136:112|56:192,2,160,8|0|0,0:0|0:0|0:0,0:0:0:0:
360,184,33707,2,0,L|426:137,1,80,8|8,0:0|0:0,0:0:0:0:
360,184,34042,6,0,P|312:120|240:160,1,160,2|0,0:0|0:0,0:0:0:0:
104,176,34713,2,0,L|104:8,1,160,8|0,0:0|0:0,0:0:0:0:
248,184,35383,6,0,P|176:112|96:192,2,160,8|8|0,0:0|0:0|0:0,0:0:0:0:
320,192,36221,2,0,P|392:120|472:200,1,160,2|0,0:0|0:0,0:0:0:0:
368,192,36724,6,0,P|296:120|224:192,1,160,4|8,0:0|0:0,0:0:0:0:
96,192,37394,2,0,L|96:16,1,160,8|8,0:0|0:0,0:0:0:0:
232,64,38065,6,0,P|160:136|96:72,1,160,8|8,0:3|0:3,0:0:0:0:
288,64,38735,2,0,L|352:128,2,80,8|8|8,0:3|0:3|0:3,0:0:0:0:
96,72,39405,5,6,0:3:0:0:
240,272,41081,5,2,0:3:0:0:
160,200,41249,2,0,L|160:32,1,160,8|8,0:0|0:0,0:0:0:0:
240,200,41752,1,8,0:0:0:0:
423,89,42087,6,0,P|350:145|292:84,1,160,4|0,0:0|0:0,0:0:0:0:
152,80,42757,2,0,L|88:144,2,80,0|0|8,0:0|0:0|0:0,0:0:0:0:
312,80,43428,6,0,L|312:248,1,160,0|8,0:0|0:0,0:0:0:0:
232,80,43931,2,0,B|152:160|80:88,1,160
176,40,44433,1,8,0:0:0:0:
336,192,44769,6,0,L|336:32,1,160,2|8,0:0|0:0,0:0:0:0:
176,40,45439,2,0,L|120:96,2,80,8|8|8,0:0|0:0|0:0,0:0:0:0:
336,176,46109,6,0,P|264:248|192:176,1,160,4|0,0:3|0:0,0:0:0:0:
384,192,46780,2,0,L|384:32,1,160,0|8,0:0|0:3,0:0:0:0:
224,56,47450,6,0,P|280:112|344:48,1,160,4|8,0:0|0:0,0:0:0:0:
176,48,48121,2,0,P|104:120|40:56,1,160,8|8,0:0|0:0,0:0:0:0:
224,160,48791,6,0,L|224:320,1,160,8|8,0:0|0:0,0:0:0:0:
384,160,49461,2,0,L|440:216,2,80,8|8|8,0:3|0:3|0:3,0:0:0:0:
224,160,50132,5,4,0:0:0:0:
288,160,50299,1,0,0:0:0:0:
352,160,50467,2,0,P|440:144|464:64,2,160,8|8|8,0:0|0:0|0:0,0:0:0:0:
192,264,51472,6,0,P|264:192|336:264,1,160,4|0,0:3|0:0,0:0:0:0:
392,200,51975,2,0,L|392:32,1,160,4|0,0:3|0:0,0:0:0:0:
320,24,52478,1,8,0:0:0:0:
159,183,52813,6,0,P|106:120|159:88,1,160
236,87,53316,2,0,P|293:131|237:177,1,160
162,86,53819,1,0,0:0:0:0:
323,287,54154,6,0,P|381:238|326:206,1,160,4|0,0:0|0:0,0:0:0:0:
250,190,54657,2,0,P|196:139|251:103,1,160
331,92,55160,1,0,0:0:0:0:
173,223,55495,6,0,P|288:226|357:227,1,160,2|2,0:0|0:0,0:0:0:0:
184,200,56165,2,0,L|184:32,1,160,2|2,0:0|0:0,0:0:0:0:
344,136,56836,6,0,P|272:64|200:136,1,160,2|2,0:0|0:0,0:0:0:0:
64,152,57506,2,0,L|64:320,1,160,2|2,0:0|0:0,0:0:0:0:
216,176,58176,6,0,L|304:176,1,80,4|0,0:3|0:0,0:0:0:0:
208,136,58512,2,0,P|144:72|72:144,1,160
248,160,59182,2,0,L|336:160,1,80
248,80,59517,6,0,L|160:80,2,80,2|2|2,0:3|0:3|0:3,0:0:0:0:
400,176,60188,2,0,L|400:8,1,160,8|8,0:0|0:0,0:0:0:0:
224,304,60858,6,0,L|224:128,1,160,4|2,0:0|0:0,0:0:0:0:
392,128,61528,2,0,P|328:64|264:128,1,160,8|2,0:0|0:0,0:0:0:0:
448,136,62199,6,0,L|448:304,1,160,8|2,0:0|0:0,0:0:0:0:
272,112,62869,2,0,L|216:168,2,80,8|0|2,0:0|0:0|0:0,0:0:0:0:
448,184,63540,6,0,P|384:120|328:176,1,160,4|8,0:3|0:3,0:0:0:0:
160,184,64210,2,0,P|88:112|16:184,1,160,4|8,0:3|0:3,0:0:0:0:
224,112,64880,6,0,P|280:56|336:112,1,160,4|2,0:3|0:3,0:0:0:0:
160,168,65551,2,0,L|96:232,2,80,2|8|8,0:3|0:3|0:3,0:0:0:0:
336,192,66221,6,0,L|336:352,1,160,4|2,0:0|0:0,0:0:0:0:
160,168,66891,2,0,L|160:0,1,160,8|2,0:0|0:0,0:0:0:0:
336,136,67562,6,0,P|400:72|464:136,1,160,12|2,0:0|0:0,0:0:0:0:
288,176,68232,2,0,L|232:120,2,80,8|0|2,0:0|0:0|0:0,0:0:0:0:
464,176,68903,6,0,P|392:104|320:176,1,160,4|8,0:3|0:3,0:0:0:0:
168,176,69573,2,0,L|168:16,1,160,4|8,0:3|0:3,0:0:0:0:
344,192,70243,6,0,L|424:192,1,80,4|0,0:0|0:0,0:0:0:0:
344,192,70579,2,0,L|256:192,2,80,4|0|8,0:0|0:0|0:3,0:0:0:0:
504,192,71249,1,8,0:3:0:0:
328,200,71584,6,0,P|272:256|208:192,1,160,4|2,0:0|0:0,0:0:0:0:
392,192,72255,2,0,L|392:24,1,160,8|2,0:0|0:0,0:0:0:0:
216,192,72925,6,0,P|288:120|360:192,1,160,8|2,0:0|0:0,0:0:0:0:
152,192,73595,2,0,L|96:248,2,80,8|0|2,0:0|0:0|0:0,0:0:0:0:
328,192,74266,6,0,L|328:352,1,160,4|8,0:3|0:3,0:0:0:0:
152,192,74936,2,0,L|152:24,1,160,4|8,0:3|0:3,0:0:0:0:
328,192,75607,6,0,P|264:128|200:192,1,160,4|8,0:3|0:3,0:0:0:0:
392,192,76277,2,0,L|448:136,2,80,2|0|2,0:0|0:0|0:0,0:0:0:0:
216,176,76947,6,0,P|280:112|344:176,1,160,4|2,0:3|0:0,0:0:0:0:
160,176,77618,2,0,P|96:112|32:176,1,160,8|2,0:0|0:0,0:0:0:0:
224,184,78288,6,0,P|288:120|352:184,1,160,6|12,0:0|0:0,0:0:0:0:
160,80,78959,2,0,L|96:144,2,80,6|0|8,0:0|0:0|0:0,0:0:0:0:
336,264,79629,6,0,L|336:88,1,160,4|0,0:3|0:0,0:0:0:0:
160,128,80299,2,0,P|224:192|288:128,1,160
104,128,80970,6,0,L|104:288,1,160,8|8,0:3|0:3,0:0:0:0:
280,200,81640,2,0,L|280:32,1,160
120,184,82310,6,0,P|184:120|232:168,1,160,12|8,0:0|0:3,0:0:0:0:
392,192,82981,2,0,L|392:32,1,160,8|8,0:3|0:3,0:0:0:0:
232,72,83651,6,0,P|288:128|344:72,1,160,4|8,0:3|0:3,0:0:0:0:
184,72,84322,2,0,P|112:144|48:80,1,160,8|8,0:3|0:3,0:0:0:0:
232,312,84992,6,0,L|232:136,1,160,8|8,0:0|0:0,0:0:0:0:
392,184,85662,2,0,L|392:16,1,160,8|8,0:0|0:0,0:0:0:0:
232,136,86333,6,0,L|136:136,2,80,8|0|8,0:3|0:0|0:3,0:0:0:0:
312,136,86836,2,0,L|392:136,1,80
232,64,87338,1,8,0:0:0:0:
392,184,87674,6,0,P|320:256|256:192,1,160,12|8,0:0|0:3,0:0:0:0:
120,184,88344,2,0,L|120:8,1,160,8|8,0:3|0:3,0:0:0:0:
280,96,89014,6,0,P|216:160|160:104,1,160,4|2,0:3|0:3,0:0:0:0:
328,96,89685,2,0,L|392:160,2,80,2|8|2,0:3|0:3|0:3,0:0:0:0:
168,176,90355,6,0,L|168:0,1,160,2|2,0:0|0:0,0:0:0:0:
328,104,91026,2,0,L|384:48,2,80,2|0|2,0:0|0:0|0:0,0:0:0:0:
248,184,91528,5,4,0:3:0:0:
256,192,92031,12,0,95718,0:0:0:0:
