osu file format v14

[General]
AudioFilename: audio.mp3
AudioLeadIn: 0
PreviewTime: 59878
Countdown: 0
SampleSet: Normal
StackLeniency: 0.3
Mode: 1
LetterboxInBreaks: 0
WidescreenStoryboard: 1

[Editor]
Bookmarks: 6579,19484,20322,31048,37752,39092,41774,47137,52500,60545,71271,81997,91215
DistanceSpacing: 0.8
BeatDivisor: 4
GridSize: 32
TimelineZoom: 1.899999

[Metadata]
Title:MY Mai*TONIGHT (TV Size)
TitleUnicode:MY舞☆TONIGHT (TV Size)
Artist:Aqours
ArtistUnicode:Aqours
Creator:Defectum
Version:Vendelicious' Muzukashii
Source:ラブライブ!サンシャイン!!
Tags:vendelicious japanese pop jpop j-pop anime love live! lovelive! sunshine!! school idol project festival season two 2 insert song tv size inami anju 伊波杏樹 takami chika 高海千歌 aida rikako 逢田梨香子 sakurauchi riko 桜内梨子 suwa nanaka 諏訪ななか matsuura kanan 松浦果南 komiya arisa 小宮有紗 kurosawa dia 黒澤ダイヤ saito shuka 斉藤朱夏 watanabe you 渡辺曜 kobayashi aika 小林愛香 tsushima yoshiko 津島善子 yohane ヨハネ takatsuki kanako 高槻かなこ kunikida hanamaru 国木田花丸 suzuki aina 鈴木愛奈 ohara mari 小原鞠莉 furihata ai 降幡愛 kurosawa ruby 黒澤ルビィ
BeatmapID:3897059
BeatmapSetID:1890927

[Difficulty]
HPDrainRate:6
CircleSize:4
OverallDifficulty:5
ApproachRate:9
SliderMultiplier:1.4
SliderTickRate:1

[Events]
//Background and Video events
0,0,"bg.jpg",0,80
//Break Periods
//Storyboard Layer 0 (Background)
//Storyboard Layer 1 (Fail)
//Storyboard Layer 2 (Pass)
//Storyboard Layer 3 (Foreground)
//Storyboard Layer 4 (Overlay)
//Storyboard Sound Samples

[TimingPoints]
-6395,810.810810810811,4,1,0,50,1,0
15496,857.142857142857,4,1,0,50,1,8
15496,-94.6073793755913,4,1,0,50,0,8
16353,857.142857142857,4,1,0,50,1,0
16353,-94.6073793755913,4,1,0,50,0,8
16928,685.714285714286,4,1,0,50,1,8
18985,335.195530726257,4,1,0,50,1,8
19403,-100,4,1,0,80,0,0
20325,335.195530726257,4,1,0,80,1,1
31051,-113.636363636364,4,1,0,54,0,0
35911,-100,4,1,0,54,0,0
36749,-113.636363636364,4,1,0,54,0,0
37587,-113.636363636364,4,1,0,70,0,0
41693,-100,4,1,0,80,0,0
47643,-106.382978723404,4,1,0,80,0,0
52503,-100,4,1,0,80,0,0
59207,-88.4955752212389,4,1,0,80,0,0
60548,335.195530726257,4,1,0,80,1,1
81162,-100,4,1,0,80,0,0
82000,-100,4,1,0,80,0,1
91218,-100,4,1,0,80,0,0
91385,-100,4,1,0,65,0,0
91721,-100,4,1,0,60,0,0
92056,-100,4,1,0,55,0,0
92391,-100,4,1,0,50,0,0
92726,-100,4,1,0,35,0,0

[HitObjects]
256,192,91,12,0,4753,0:0:0:0:
245,198,6577,5,0,0:0:0:0:
252,197,7388,1,8,0:0:0:0:
253,236,7794,1,8,0:0:0:0:
258,224,8199,1,0,0:0:0:0:
252,198,9010,1,8,0:0:0:0:
252,198,9821,1,0,0:0:0:0:
252,198,10226,1,8,0:0:0:0:
252,198,10632,1,0,0:0:0:0:
252,198,11037,1,8,0:0:0:0:
252,198,11442,1,0,0:0:0:0:
252,198,12253,1,0,0:0:0:0:
252,198,12659,1,8,0:0:0:0:
252,198,13064,1,0,0:0:0:0:
252,198,13875,1,0,0:0:0:0:
252,198,14280,1,0,0:0:0:0:
257,201,14686,1,8,0:0:0:0:
257,201,15091,1,0,0:0:0:0:
257,201,15496,1,8,0:0:0:0:
256,192,16353,12,0,19320,0:0:0:0:
198,198,19487,5,0,0:0:0:0:
198,198,19655,1,8,0:0:0:0:
206,203,19739,1,8,0:0:0:0:
204,206,19822,1,8,0:0:0:0:
210,217,19990,1,0,0:0:0:0:
209,215,20158,1,0,0:0:0:0:
220,204,20325,1,12,0:0:0:0:
230,218,20660,1,8,0:0:0:0:
252,224,20827,1,8,0:0:0:0:
225,218,20995,1,0,0:0:0:0:
225,218,21079,1,0,0:0:0:0:
224,218,21162,1,0,0:0:0:0:
224,218,21330,1,8,0:0:0:0:
224,197,21665,1,0,0:0:0:0:
240,192,22000,1,8,0:0:0:0:
240,193,22168,1,8,0:0:0:0:
226,199,22336,1,0,0:0:0:0:
234,194,22419,1,0,0:0:0:0:
224,197,22503,1,0,0:0:0:0:
224,197,22671,1,8,0:0:0:0:
222,211,23006,1,0,0:0:0:0:
216,216,23341,1,8,0:0:0:0:
217,216,23676,1,0,0:0:0:0:
218,215,23760,1,0,0:0:0:0:
218,215,23844,1,0,0:0:0:0:
218,215,24012,1,8,0:0:0:0:
224,217,24347,1,0,0:0:0:0:
263,200,25017,1,8,0:0:0:0:
263,200,25185,1,8,0:0:0:0:
263,200,25269,1,8,0:0:0:0:
256,144,25352,1,8,0:0:0:0:
263,200,25520,1,8,0:0:0:0:
220,226,25688,1,4,0:0:0:0:
326,184,26023,1,8,0:0:0:0:
293,232,26358,1,0,0:0:0:0:
268,235,26442,1,0,0:0:0:0:
293,232,26526,1,0,0:0:0:0:
293,232,26693,1,8,0:0:0:0:
284,212,27028,1,4,0:0:0:0:
284,212,27364,1,8,0:0:0:0:
284,212,27531,1,8,0:0:0:0:
284,212,27699,1,0,0:0:0:0:
281,212,27866,1,8,0:0:0:0:
284,212,27950,1,8,0:0:0:0:
284,212,28034,1,8,0:0:0:0:
284,212,28202,1,0,0:0:0:0:
284,212,28369,1,12,0:0:0:0:
281,221,29040,1,0,0:0:0:0:
281,221,29207,1,8,0:0:0:0:
277,221,29375,1,8,0:0:0:0:
281,221,29542,1,0,0:0:0:0:
281,221,29710,1,8,0:0:0:0:
281,221,29878,1,0,0:0:0:0:
281,221,29961,1,0,0:0:0:0:
281,221,30045,1,0,0:0:0:0:
281,221,30213,1,8,0:0:0:0:
281,221,30548,1,8,0:0:0:0:
281,221,30632,1,8,0:0:0:0:
281,221,30716,1,8,0:0:0:0:
281,221,31051,1,4,0:0:0:0:
261,197,31386,1,8,0:0:0:0:
261,197,31554,1,0,0:0:0:0:
261,201,31721,1,8,0:0:0:0:
261,201,32056,1,8,0:0:0:0:
261,197,32392,1,0,0:0:0:0:
261,201,32727,1,8,0:0:0:0:
256,193,32894,1,0,0:0:0:0:
261,201,33062,1,8,0:0:0:0:
261,197,33397,1,8,0:0:0:0:
261,201,33565,1,8,0:0:0:0:
264,194,33732,1,0,0:0:0:0:
249,193,34068,1,8,0:0:0:0:
247,205,34235,1,0,0:0:0:0:
249,207,34403,1,8,0:0:0:0:
249,207,34738,1,8,0:0:0:0:
222,209,34906,1,0,0:0:0:0:
248,204,35073,1,0,0:0:0:0:
249,207,35408,1,8,0:0:0:0:
249,207,35743,1,8,0:0:0:0:
248,204,35911,1,4,0:0:0:0:
249,207,36414,1,12,0:0:0:0:
256,204,36749,1,0,0:0:0:0:
256,204,37084,1,8,0:0:0:0:
256,204,37419,1,8,0:0:0:0:
253,214,37587,1,0,0:0:0:0:
254,212,37671,1,0,0:0:0:0:
254,211,37755,1,0,0:0:0:0:
288,211,38090,1,8,0:0:0:0:
288,211,38257,1,0,0:0:0:0:
288,211,38425,1,8,0:0:0:0:
288,211,38593,1,8,0:0:0:0:
288,211,38760,1,0,0:0:0:0:
288,211,38928,1,8,0:0:0:0:
288,211,39095,1,0,0:0:0:0:
266,208,40771,1,8,0:0:0:0:
266,208,40939,1,4,0:0:0:0:
265,175,41274,1,8,0:0:0:0:
265,175,41358,1,8,0:0:0:0:
265,175,41442,1,8,0:0:0:0:
265,175,41609,1,0,0:0:0:0:
265,175,41777,1,12,0:0:0:0:
273,204,42112,1,8,0:0:0:0:
273,204,42447,1,0,0:0:0:0:
273,204,42615,1,0,0:0:0:0:
273,204,42783,1,8,0:0:0:0:
273,204,43118,1,0,0:0:0:0:
280,212,43453,1,8,0:0:0:0:
280,212,43621,1,0,0:0:0:0:
280,212,43956,1,0,0:0:0:0:
272,222,44040,1,0,0:0:0:0:
272,222,44123,1,0,0:0:0:0:
272,224,44291,1,8,0:0:0:0:
272,224,44459,1,0,0:0:0:0:
285,205,44961,1,0,0:0:0:0:
271,210,45129,1,8,0:0:0:0:
272,213,45213,1,8,0:0:0:0:
277,213,45297,1,8,0:0:0:0:
272,213,45464,1,0,0:0:0:0:
274,212,45632,1,0,0:0:0:0:
322,215,45799,1,8,0:0:0:0:
296,184,46135,1,0,0:0:0:0:
296,184,46302,1,8,0:0:0:0:
296,184,46470,1,0,0:0:0:0:
312,148,46581,1,0,0:0:0:0:
318,143,46693,1,0,0:0:0:0:
289,184,46805,1,0,0:0:0:0:
269,186,47140,1,12,0:0:0:0:
286,164,47643,1,0,0:0:0:0:
289,162,47811,1,8,0:0:0:0:
280,175,48313,1,8,0:0:0:0:
280,175,48481,1,0,0:0:0:0:
280,175,48649,1,8,0:0:0:0:
280,175,48816,1,0,0:0:0:0:
280,175,49151,1,8,0:0:0:0:
302,218,49319,1,8,0:0:0:0:
302,218,49654,1,8,0:0:0:0:
302,218,49822,1,0,0:0:0:0:
310,199,50325,1,0,0:0:0:0:
310,199,50492,1,8,0:0:0:0:
310,199,50827,1,8,0:0:0:0:
310,199,50995,1,0,0:0:0:0:
311,210,51079,1,0,0:0:0:0:
310,199,51162,1,0,0:0:0:0:
310,199,51330,1,8,0:0:0:0:
310,199,51498,1,8,0:0:0:0:
310,199,51665,1,0,0:0:0:0:
309,182,52000,1,8,0:0:0:0:
309,184,52084,1,8,0:0:0:0:
309,184,52168,1,8,0:0:0:0:
297,170,52503,1,0,0:0:0:0:
310,189,52838,1,0,0:0:0:0:
310,189,53006,1,0,0:0:0:0:
309,184,53174,1,8,0:0:0:0:
310,189,53341,1,0,0:0:0:0:
310,189,53509,1,8,0:0:0:0:
310,189,53676,1,8,0:0:0:0:
310,189,53844,1,0,0:0:0:0:
308,191,54179,1,0,0:0:0:0:
310,189,54347,1,0,0:0:0:0:
310,189,54514,1,8,0:0:0:0:
310,189,54682,1,8,0:0:0:0:
310,189,54850,1,0,0:0:0:0:
308,191,55017,1,0,0:0:0:0:
308,191,55185,1,8,0:0:0:0:
310,189,55520,1,8,0:0:0:0:
310,189,55855,1,8,0:0:0:0:
313,190,56190,1,8,0:0:0:0:
310,189,56358,1,0,0:0:0:0:
310,189,56526,1,8,0:0:0:0:
320,192,56861,1,0,0:0:0:0:
308,197,56945,1,0,0:0:0:0:
308,197,57028,1,0,0:0:0:0:
313,190,57196,1,8,0:0:0:0:
265,206,57364,1,8,0:0:0:0:
308,197,57531,1,0,0:0:0:0:
308,197,57615,1,0,0:0:0:0:
308,197,57699,1,0,0:0:0:0:
308,197,57866,1,12,0:0:0:0:
308,197,58202,1,0,0:0:0:0:
308,197,58369,1,12,0:0:0:0:
308,197,58704,1,0,0:0:0:0:
308,197,58872,1,12,0:0:0:0:
314,190,59207,1,12,0:0:0:0:
314,190,59375,1,12,0:0:0:0:
314,190,59542,1,12,0:0:0:0:
258,202,60548,5,12,0:0:0:0:
258,202,60883,1,0,0:0:0:0:
258,202,61050,1,8,0:0:0:0:
258,202,61218,1,0,0:0:0:0:
258,202,61302,1,0,0:0:0:0:
258,202,61385,1,0,0:0:0:0:
260,208,61553,1,8,0:0:0:0:
265,205,61888,1,8,0:0:0:0:
258,209,62223,1,0,0:0:0:0:
258,209,62391,1,8,0:0:0:0:
260,208,62475,1,8,0:0:0:0:
260,208,62559,1,8,0:0:0:0:
245,190,62726,1,0,0:0:0:0:
245,200,62894,1,8,0:0:0:0:
245,200,63229,1,8,0:0:0:0:
240,221,63564,1,8,0:0:0:0:
240,221,63732,1,0,0:0:0:0:
240,221,63816,1,0,0:0:0:0:
240,221,63899,1,0,0:0:0:0:
240,221,64235,1,8,0:0:0:0:
240,221,64402,1,0,0:0:0:0:
240,221,64486,1,0,0:0:0:0:
240,221,64570,1,0,0:0:0:0:
244,208,64905,1,8,0:0:0:0:
244,208,65073,1,0,0:0:0:0:
256,229,65240,1,8,0:0:0:0:
256,229,65408,1,0,0:0:0:0:
256,229,65492,1,0,0:0:0:0:
256,229,65575,1,0,0:0:0:0:
256,229,65743,1,8,0:0:0:0:
256,229,65911,1,4,0:0:0:0:
276,243,66581,1,0,0:0:0:0:
276,243,66916,1,8,0:0:0:0:
276,243,67084,1,0,0:0:0:0:
276,243,67251,1,8,0:0:0:0:
297,255,67335,1,8,0:0:0:0:
297,255,67419,1,8,0:0:0:0:
276,243,67587,1,8,0:0:0:0:
276,243,67922,1,0,0:0:0:0:
276,243,68257,1,8,0:0:0:0:
276,243,68425,1,0,0:0:0:0:
276,243,68592,1,8,0:0:0:0:
281,233,68676,1,8,0:0:0:0:
283,233,68760,1,8,0:0:0:0:
281,233,68927,1,8,0:0:0:0:
270,234,69263,1,0,0:0:0:0:
267,234,69346,1,0,0:0:0:0:
267,234,69430,1,0,0:0:0:0:
276,243,69598,1,8,0:0:0:0:
264,245,69933,1,8,0:0:0:0:
264,245,70017,1,8,0:0:0:0:
264,245,70101,1,8,0:0:0:0:
255,245,70268,1,0,0:0:0:0:
255,245,70436,1,8,0:0:0:0:
255,245,70520,1,8,0:0:0:0:
255,245,70603,1,8,0:0:0:0:
257,239,70939,1,0,0:0:0:0:
258,202,71274,1,12,0:0:0:0:
256,224,71609,1,0,0:0:0:0:
256,224,71777,1,8,0:0:0:0:
258,202,71944,1,0,0:0:0:0:
258,202,72028,1,0,0:0:0:0:
258,202,72111,1,0,0:0:0:0:
260,208,72279,1,8,0:0:0:0:
265,205,72614,1,8,0:0:0:0:
258,209,72949,1,0,0:0:0:0:
258,209,73117,1,8,0:0:0:0:
260,208,73201,1,8,0:0:0:0:
260,208,73285,1,8,0:0:0:0:
245,200,73452,1,0,0:0:0:0:
245,200,73620,1,8,0:0:0:0:
245,200,73955,1,8,0:0:0:0:
240,221,74290,1,8,0:0:0:0:
240,221,74458,1,0,0:0:0:0:
240,221,74542,1,0,0:0:0:0:
240,221,74625,1,0,0:0:0:0:
240,221,74961,1,8,0:0:0:0:
240,221,75129,1,0,0:0:0:0:
240,221,75212,1,0,0:0:0:0:
240,221,75296,1,0,0:0:0:0:
256,229,75631,1,8,0:0:0:0:
256,229,75799,1,0,0:0:0:0:
256,229,75966,1,0,0:0:0:0:
256,229,76134,1,8,0:0:0:0:
256,229,76218,1,8,0:0:0:0:
256,229,76301,1,8,0:0:0:0:
234,187,76469,1,0,0:0:0:0:
256,229,76637,1,12,0:0:0:0:
262,211,77307,1,0,0:0:0:0:
256,229,77475,1,0,0:0:0:0:
276,243,77642,1,8,0:0:0:0:
276,243,77810,1,0,0:0:0:0:
276,243,77977,1,8,0:0:0:0:
255,249,78061,1,8,0:0:0:0:
255,249,78145,1,8,0:0:0:0:
255,249,78313,1,0,0:0:0:0:
276,243,78648,1,0,0:0:0:0:
276,243,78983,1,8,0:0:0:0:
276,243,79151,1,0,0:0:0:0:
276,243,79318,1,8,0:0:0:0:
281,233,79402,1,8,0:0:0:0:
283,233,79486,1,8,0:0:0:0:
281,233,79653,1,0,0:0:0:0:
270,234,79989,1,8,0:0:0:0:
267,234,80072,1,8,0:0:0:0:
267,234,80156,1,8,0:0:0:0:
276,243,80324,1,8,0:0:0:0:
264,245,80659,1,0,0:0:0:0:
264,245,80743,1,0,0:0:0:0:
264,245,80827,1,0,0:0:0:0:
255,245,80994,1,8,0:0:0:0:
255,245,81162,1,0,0:0:0:0:
257,239,81665,1,8,0:0:0:0:
257,239,82000,1,12,0:0:0:0:
260,228,82335,1,0,0:0:0:0:
260,228,82503,1,8,0:0:0:0:
260,228,82670,1,0,0:0:0:0:
260,228,83006,1,8,0:0:0:0:
263,229,83173,1,8,0:0:0:0:
260,228,83341,1,0,0:0:0:0:
260,228,83425,1,0,0:0:0:0:
260,228,83508,1,0,0:0:0:0:
260,228,83676,1,8,0:0:0:0:
260,228,83844,1,0,0:0:0:0:
263,229,84011,1,8,0:0:0:0:
260,228,84346,1,0,0:0:0:0:
290,234,84682,1,8,0:0:0:0:
290,234,85017,1,0,0:0:0:0:
290,234,85184,1,8,0:0:0:0:
290,234,85352,1,0,0:0:0:0:
290,234,85687,1,8,0:0:0:0:
290,234,85855,1,0,0:0:0:0:
290,234,86022,1,8,0:0:0:0:
279,204,86190,1,0,0:0:0:0:
268,208,86274,1,0,0:0:0:0:
268,204,86358,1,0,0:0:0:0:
268,204,86525,1,8,0:0:0:0:
265,197,87028,1,8,0:0:0:0:
257,239,87363,1,12,0:0:0:0:
260,228,87698,1,0,0:0:0:0:
257,239,87866,1,8,0:0:0:0:
260,228,88034,1,8,0:0:0:0:
260,228,88369,1,8,0:0:0:0:
263,229,88536,1,0,0:0:0:0:
260,228,88704,1,8,0:0:0:0:
260,228,88788,1,8,0:0:0:0:
260,228,88872,1,8,0:0:0:0:
260,228,89039,1,0,0:0:0:0:
260,228,89207,1,8,0:0:0:0:
263,229,89374,1,0,0:0:0:0:
263,229,89710,1,8,0:0:0:0:
290,234,90045,1,0,0:0:0:0:
290,234,90380,1,8,0:0:0:0:
290,234,90548,1,0,0:0:0:0:
182,270,90631,1,0,0:0:0:0:
182,270,90715,1,0,0:0:0:0:
290,234,90883,1,8,0:0:0:0:
290,234,91050,1,0,0:0:0:0:
256,192,91218,1,12,0:0:0:0:
256,192,91385,12,0,95408,0:0:0:0:
