osu file format v14

[General]
AudioFilename: audio.mp3
AudioLeadIn: 0
PreviewTime: 59878
Countdown: 0
SampleSet: Normal
StackLeniency: 0.3
Mode: 1
LetterboxInBreaks: 0
WidescreenStoryboard: 1

[Editor]
Bookmarks: 6579,19484,20322,31048,37752,39092,41774,47137,52500,60545,71271,81997,91215
DistanceSpacing: 0.9
BeatDivisor: 4
GridSize: 32
TimelineZoom: 2.2

[Metadata]
Title:MY Mai*TONIGHT (TV Size)
TitleUnicode:MY舞☆TONIGHT (TV Size)
Artist:Aqours
ArtistUnicode:Aqours
Creator:Defectum
Version:Oni
Source:ラブライブ!サンシャイン!!
Tags:vendelicious japanese pop jpop j-pop anime love live! lovelive! sunshine!! school idol project festival season two 2 insert song tv size inami anju 伊波杏樹 takami chika 高海千歌 aida rikako 逢田梨香子 sakurauchi riko 桜内梨子 suwa nanaka 諏訪ななか matsuura kanan 松浦果南 komiya arisa 小宮有紗 kurosawa dia 黒澤ダイヤ saito shuka 斉藤朱夏 watanabe you 渡辺曜 kobayashi aika 小林愛香 tsushima yoshiko 津島善子 yohane ヨハネ takatsuki kanako 高槻かなこ kunikida hanamaru 国木田花丸 suzuki aina 鈴木愛奈 ohara mari 小原鞠莉 furihata ai 降幡愛 kurosawa ruby 黒澤ルビィ
BeatmapID:3896975
BeatmapSetID:1890927

[Difficulty]
HPDrainRate:5.5
CircleSize:4
OverallDifficulty:5.5
ApproachRate:9
SliderMultiplier:1.4
SliderTickRate:1

[Events]
//Background and Video events
0,0,"bg.jpg",0,80
//Break Periods
//Storyboard Layer 0 (Background)
//Storyboard Layer 1 (Fail)
//Storyboard Layer 2 (Pass)
//Storyboard Layer 3 (Foreground)
//Storyboard Layer 4 (Overlay)
//Storyboard Sound Samples

[TimingPoints]
-6395,810.810810810811,4,1,0,50,1,0
15496,857.142857142857,4,1,0,50,1,8
15496,-94.5945943,4,1,0,50,0,8
16353,857.142857142857,4,1,0,50,1,0
16353,-94.5945943,4,1,0,50,0,8
16928,685.714285714286,4,1,0,50,1,8
18985,335.195530726257,4,1,0,50,1,8
19403,-100,4,1,0,80,0,0
20325,335.195530726257,4,1,0,80,1,1
30883,-102.040816326531,4,1,0,80,0,1
31051,-104.166666666667,4,1,0,80,0,0
31135,-113.636363636364,4,1,0,60,0,0
39053,-107.52688172043,4,1,0,90,0,0
39221,-100,4,1,0,60,0,0
40688,-100,4,1,0,70,0,0
47475,-106.382978723404,4,1,0,70,0,0
52461,-103.092783505155,4,1,0,70,0,0
53802,-100,4,1,0,75,0,0
55143,-97.0873786407767,4,1,0,80,0,0
56484,-94.3396226415094,4,1,0,85,0,0
57824,-91.743119266055,4,1,0,90,0,0
59165,-86.9565217391304,4,1,0,100,0,0
59794,-100,4,1,0,80,0,0
60464,-100,4,1,0,90,0,0
60548,335.195530726257,4,1,0,90,1,1
60548,-97.0873786407767,4,1,0,90,0,1
81162,-97.0873786407767,4,1,0,90,0,0
81413,-100,4,1,0,80,0,0
81916,-100,4,1,0,90,0,0
82000,-94.3396226415094,4,1,0,90,0,1
91218,-94.3396226415094,4,1,0,90,0,0
91385,-94.3396226415094,4,1,0,88,0,0
91553,-104.166666666667,4,1,0,86,0,0
91721,-106.382978723404,4,1,0,84,0,0
91888,-108.695652173913,4,1,0,82,0,0
92056,-111.111111111111,4,1,0,80,0,0
92223,-113.636363636364,4,1,0,78,0,0
92391,-116.279069767442,4,1,0,76,0,0
92559,-119.047619047619,4,1,0,74,0,0
92726,-121.951219512195,4,1,0,72,0,0
92894,-125,4,1,0,70,0,0
93061,-128.205128205128,4,1,0,68,0,0
93229,-131.578947368421,4,1,0,66,0,0
93397,-135.135135135135,4,1,0,64,0,0
93564,-138.888888888889,4,1,0,62,0,0
93732,-142.857142857143,4,1,0,60,0,0
93899,-147.058823529412,4,1,0,58,0,0
94067,-151.515151515152,4,1,0,56,0,0
94235,-156.25,4,1,0,54,0,0
94402,-161.290322580645,4,1,0,52,0,0
94570,-166.666666666667,4,1,0,50,0,0
94737,-172.413793103448,4,1,0,48,0,0
94905,-178.571428571429,4,1,0,46,0,0
95073,-185.185185185185,4,1,0,44,0,0
95240,-192.307692307692,4,1,0,42,0,0
95408,-200,4,1,0,40,0,0

[HitObjects]
256,192,91,12,0,4753,0:0:0:0:
256,192,5767,5,0,0:0:0:0:
256,192,6172,1,8,0:0:0:0:
256,192,6577,1,0,0:0:0:0:
256,192,7388,1,0,0:0:0:0:
256,192,7794,1,8,0:0:0:0:
256,192,8199,1,0,0:0:0:0:
256,192,9010,1,0,0:0:0:0:
256,192,9415,1,0,0:0:0:0:
256,192,9821,1,8,0:0:0:0:
256,192,10226,1,0,0:0:0:0:
256,192,10632,1,8,0:0:0:0:
256,192,11037,1,8,0:0:0:0:
256,192,11442,1,0,0:0:0:0:
256,192,12253,1,0,0:0:0:0:
256,192,12659,1,8,0:0:0:0:
256,192,13064,1,0,0:0:0:0:
256,192,13875,1,0,0:0:0:0:
256,192,14280,1,0,0:0:0:0:
256,192,14686,1,8,0:0:0:0:
256,192,15091,1,0,0:0:0:0:
256,192,15496,1,8,0:0:0:0:
256,192,16353,1,8,0:0:0:0:
256,192,16928,12,0,19320,0:0:0:0:
256,192,19487,5,0,0:0:0:0:
256,192,19571,1,0,0:0:0:0:
256,192,19655,1,8,0:0:0:0:
256,192,19739,1,8,0:0:0:0:
256,192,19822,1,0,0:0:0:0:
256,192,19990,1,8,0:0:0:0:
256,192,20074,1,8,0:0:0:0:
256,192,20158,1,0,0:0:0:0:
256,160,20325,1,12,0:0:0:0:
256,192,20660,1,8,0:0:0:0:
256,192,20827,1,8,0:0:0:0:
256,192,20995,1,0,0:0:0:0:
256,192,21079,1,0,0:0:0:0:
256,192,21162,1,8,0:0:0:0:
256,192,21330,1,0,0:0:0:0:
256,192,21498,1,8,0:0:0:0:
256,192,21665,1,0,0:0:0:0:
256,192,22000,1,8,0:0:0:0:
256,192,22168,1,0,0:0:0:0:
256,192,22336,1,8,0:0:0:0:
256,192,22419,1,8,0:0:0:0:
256,192,22503,1,0,0:0:0:0:
256,192,22671,1,8,0:0:0:0:
256,192,22838,1,8,0:0:0:0:
256,192,23006,1,0,0:0:0:0:
256,192,23341,1,0,0:0:0:0:
256,192,23509,1,8,0:0:0:0:
256,192,23676,1,0,0:0:0:0:
256,192,23760,1,0,0:0:0:0:
256,192,23844,1,8,0:0:0:0:
256,192,23928,1,0,0:0:0:0:
256,192,24012,1,8,0:0:0:0:
256,192,24347,1,0,0:0:0:0:
256,192,24514,1,0,0:0:0:0:
256,192,24682,1,8,0:0:0:0:
256,192,24850,1,0,0:0:0:0:
256,192,25017,1,8,0:0:0:0:
256,192,25185,1,0,0:0:0:0:
256,192,25269,1,0,0:0:0:0:
256,192,25352,1,8,0:0:0:0:
256,192,25436,1,8,0:0:0:0:
256,192,25520,1,0,0:0:0:0:
256,160,25688,1,12,0:0:0:0:
256,192,26023,1,8,0:0:0:0:
256,192,26190,1,8,0:0:0:0:
256,192,26358,1,0,0:0:0:0:
256,192,26526,1,8,0:0:0:0:
256,192,26609,1,0,0:0:0:0:
256,192,26693,1,8,0:0:0:0:
256,192,26861,1,0,0:0:0:0:
256,192,27028,1,8,0:0:0:0:
256,192,27196,1,0,0:0:0:0:
256,192,27280,1,0,0:0:0:0:
256,192,27364,1,8,0:0:0:0:
256,192,27531,1,0,0:0:0:0:
256,192,27699,1,8,0:0:0:0:
256,192,27866,1,0,0:0:0:0:
256,192,27950,1,0,0:0:0:0:
256,192,28034,1,8,0:0:0:0:
256,192,28118,1,0,0:0:0:0:
256,192,28202,1,0,0:0:0:0:
256,192,28369,1,8,0:0:0:0:
256,192,28704,1,8,0:0:0:0:
256,192,28872,1,0,0:0:0:0:
256,192,29040,1,8,0:0:0:0:
256,192,29207,1,0,0:0:0:0:
256,192,29291,1,0,0:0:0:0:
256,192,29375,1,0,0:0:0:0:
256,192,29542,1,8,0:0:0:0:
256,192,29626,1,0,0:0:0:0:
256,192,29710,1,8,0:0:0:0:
256,192,29878,1,0,0:0:0:0:
256,192,29961,1,0,0:0:0:0:
256,192,30045,1,0,0:0:0:0:
256,160,30213,1,12,0:0:0:0:
256,192,30548,1,0,0:0:0:0:
256,192,30632,1,0,0:0:0:0:
256,192,30716,1,8,0:0:0:0:
256,192,30883,1,8,0:0:0:0:
256,160,31051,1,4,0:0:0:0:
256,192,31386,1,0,0:0:0:0:
256,192,31554,1,8,0:0:0:0:
256,192,31721,1,0,0:0:0:0:
256,192,32056,1,8,0:0:0:0:
256,192,32224,1,8,0:0:0:0:
256,192,32392,1,0,0:0:0:0:
256,192,32727,1,0,0:0:0:0:
256,192,32894,1,8,0:0:0:0:
256,192,33062,1,0,0:0:0:0:
256,192,33397,1,8,0:0:0:0:
256,192,33565,1,0,0:0:0:0:
256,192,33649,1,0,0:0:0:0:
256,192,33732,1,0,0:0:0:0:
256,192,34068,1,8,0:0:0:0:
256,192,34235,1,0,0:0:0:0:
256,192,34403,1,8,0:0:0:0:
256,192,34738,1,0,0:0:0:0:
256,192,34906,1,0,0:0:0:0:
256,192,35073,1,8,0:0:0:0:
256,192,35408,1,8,0:0:0:0:
256,192,35576,1,8,0:0:0:0:
256,192,35743,1,0,0:0:0:0:
256,192,35911,1,8,0:0:0:0:
256,192,36414,1,0,0:0:0:0:
256,192,36749,1,8,0:0:0:0:
256,192,36917,1,0,0:0:0:0:
256,192,37084,1,8,0:0:0:0:
256,192,37252,1,0,0:0:0:0:
256,192,37419,1,8,0:0:0:0:
256,192,37587,1,0,0:0:0:0:
256,192,37671,1,0,0:0:0:0:
256,192,37755,1,8,0:0:0:0:
256,192,38090,1,0,0:0:0:0:
256,192,38257,1,8,0:0:0:0:
256,192,38425,1,0,0:0:0:0:
256,192,38593,1,8,0:0:0:0:
256,192,38676,1,0,0:0:0:0:
256,192,38760,1,8,0:0:0:0:
256,192,38928,1,8,0:0:0:0:
256,160,39095,1,4,0:0:0:0:
256,192,40771,1,8,0:0:0:0:
256,160,40939,1,4,0:0:0:0:
256,192,41274,1,8,0:0:0:0:
256,192,41358,1,8,0:0:0:0:
256,192,41442,1,0,0:0:0:0:
256,192,41609,1,0,0:0:0:0:
256,160,41777,1,12,0:0:0:0:
256,192,42112,1,0,0:0:0:0:
256,192,42280,1,8,0:0:0:0:
256,192,42447,1,0,0:0:0:0:
256,192,42531,1,0,0:0:0:0:
256,192,42615,1,0,0:0:0:0:
256,192,42783,1,8,0:0:0:0:
256,192,42950,1,0,0:0:0:0:
256,192,43118,1,8,0:0:0:0:
256,192,43453,1,8,0:0:0:0:
256,192,43621,1,0,0:0:0:0:
256,192,43956,1,0,0:0:0:0:
256,192,44040,1,0,0:0:0:0:
256,192,44123,1,8,0:0:0:0:
256,192,44291,1,8,0:0:0:0:
256,192,44459,1,0,0:0:0:0:
256,192,44626,1,0,0:0:0:0:
256,192,44794,1,8,0:0:0:0:
256,192,44961,1,0,0:0:0:0:
256,192,45129,1,8,0:0:0:0:
256,192,45213,1,8,0:0:0:0:
256,192,45297,1,8,0:0:0:0:
256,192,45380,1,8,0:0:0:0:
256,192,45464,1,0,0:0:0:0:
256,192,45632,1,0,0:0:0:0:
256,160,45799,1,12,0:0:0:0:
256,192,46135,1,0,0:0:0:0:
256,160,46302,1,12,0:0:0:0:
256,192,46470,1,0,0:0:0:0:
256,192,46581,1,0,0:0:0:0:
256,192,46693,1,8,0:0:0:0:
256,192,46805,1,8,0:0:0:0:
256,192,46917,1,8,0:0:0:0:
256,192,47028,1,8,0:0:0:0:
256,160,47140,1,4,0:0:0:0:
256,192,47475,1,8,0:0:0:0:
256,192,47643,1,0,0:0:0:0:
256,192,47811,1,8,0:0:0:0:
256,192,48146,1,8,0:0:0:0:
256,192,48313,1,0,0:0:0:0:
256,192,48481,1,8,0:0:0:0:
256,192,48649,1,8,0:0:0:0:
256,192,48816,1,0,0:0:0:0:
256,192,48984,1,8,0:0:0:0:
256,192,49151,1,0,0:0:0:0:
256,192,49319,1,0,0:0:0:0:
256,192,49487,1,8,0:0:0:0:
256,192,49654,1,0,0:0:0:0:
256,192,49738,1,0,0:0:0:0:
256,192,49822,1,8,0:0:0:0:
256,192,50157,1,8,0:0:0:0:
256,192,50325,1,8,0:0:0:0:
256,192,50492,1,0,0:0:0:0:
256,192,50660,1,0,0:0:0:0:
256,192,50827,1,8,0:0:0:0:
256,192,50995,1,8,0:0:0:0:
256,192,51079,1,8,0:0:0:0:
256,192,51162,1,0,0:0:0:0:
256,192,51330,1,0,0:0:0:0:
256,192,51498,1,8,0:0:0:0:
256,192,51665,1,0,0:0:0:0:
256,192,52000,1,0,0:0:0:0:
256,192,52084,1,0,0:0:0:0:
256,192,52168,1,8,0:0:0:0:
256,192,52336,1,8,0:0:0:0:
256,160,52503,1,4,0:0:0:0:
256,192,52838,1,8,0:0:0:0:
256,192,53006,1,0,0:0:0:0:
256,192,53090,1,0,0:0:0:0:
256,192,53174,1,0,0:0:0:0:
256,192,53341,1,8,0:0:0:0:
256,192,53509,1,0,0:0:0:0:
256,192,53676,1,0,0:0:0:0:
256,160,53844,1,12,0:0:0:0:
256,192,54179,1,0,0:0:0:0:
256,192,54347,1,8,0:0:0:0:
256,192,54431,1,8,0:0:0:0:
256,192,54514,1,8,0:0:0:0:
256,192,54682,1,0,0:0:0:0:
256,192,54850,1,8,0:0:0:0:
256,192,55017,1,8,0:0:0:0:
256,160,55185,1,4,0:0:0:0:
256,192,55520,1,8,0:0:0:0:
256,192,55688,1,0,0:0:0:0:
256,192,55771,1,0,0:0:0:0:
256,192,55855,1,8,0:0:0:0:
256,192,56023,1,8,0:0:0:0:
256,192,56107,1,8,0:0:0:0:
256,192,56190,1,0,0:0:0:0:
256,192,56358,1,0,0:0:0:0:
256,160,56526,1,12,0:0:0:0:
256,192,56861,1,0,0:0:0:0:
256,192,56945,1,8,0:0:0:0:
256,192,57028,1,0,0:0:0:0:
256,192,57196,1,8,0:0:0:0:
256,192,57280,1,8,0:0:0:0:
256,192,57364,1,0,0:0:0:0:
256,192,57447,1,0,0:0:0:0:
256,192,57531,1,8,0:0:0:0:
256,192,57699,1,0,0:0:0:0:
256,160,57866,1,12,0:0:0:0:
256,192,58034,1,0,0:0:0:0:
256,192,58202,1,0,0:0:0:0:
256,160,58369,1,12,0:0:0:0:
256,192,58537,1,0,0:0:0:0:
256,192,58704,1,0,0:0:0:0:
256,160,58872,1,12,0:0:0:0:
256,160,59207,1,12,0:0:0:0:
256,160,59375,1,12,0:0:0:0:
256,160,59542,1,12,0:0:0:0:
256,192,59878,1,8,0:0:0:0:
256,192,60045,1,0,0:0:0:0:
256,192,60129,1,0,0:0:0:0:
256,192,60213,1,8,0:0:0:0:
256,160,60548,1,12,0:0:0:0:
256,192,60883,1,8,0:0:0:0:
256,192,61050,1,8,0:0:0:0:
256,192,61218,1,0,0:0:0:0:
256,192,61385,1,8,0:0:0:0:
256,192,61469,1,8,0:0:0:0:
256,192,61553,1,0,0:0:0:0:
256,192,61721,1,0,0:0:0:0:
256,160,61888,1,12,0:0:0:0:
256,192,62223,1,8,0:0:0:0:
256,192,62391,1,0,0:0:0:0:
256,192,62559,1,8,0:0:0:0:
256,192,62726,1,0,0:0:0:0:
256,192,62810,1,0,0:0:0:0:
256,192,62894,1,8,0:0:0:0:
256,192,63061,1,0,0:0:0:0:
256,160,63229,1,12,0:0:0:0:
256,192,63564,1,8,0:0:0:0:
256,192,63648,1,8,0:0:0:0:
256,192,63732,1,8,0:0:0:0:
256,160,63899,1,4,0:0:0:0:
256,192,64235,1,0,0:0:0:0:
256,192,64318,1,0,0:0:0:0:
256,192,64402,1,0,0:0:0:0:
256,160,64570,1,12,0:0:0:0:
256,192,64905,1,8,0:0:0:0:
256,192,65073,1,8,0:0:0:0:
256,192,65240,1,0,0:0:0:0:
256,192,65408,1,8,0:0:0:0:
256,192,65492,1,8,0:0:0:0:
256,192,65575,1,0,0:0:0:0:
256,192,65659,1,0,0:0:0:0:
256,192,65743,1,8,0:0:0:0:
256,160,65911,1,4,0:0:0:0:
256,192,66246,1,0,0:0:0:0:
256,192,66413,1,8,0:0:0:0:
256,192,66581,1,0,0:0:0:0:
256,192,66665,1,0,0:0:0:0:
256,192,66749,1,0,0:0:0:0:
256,192,66916,1,8,0:0:0:0:
256,192,67084,1,0,0:0:0:0:
256,160,67251,1,12,0:0:0:0:
256,192,67419,1,0,0:0:0:0:
256,192,67503,1,0,0:0:0:0:
256,192,67587,1,8,0:0:0:0:
256,192,67754,1,0,0:0:0:0:
256,192,67922,1,8,0:0:0:0:
256,192,68006,1,0,0:0:0:0:
256,192,68089,1,0,0:0:0:0:
256,192,68173,1,0,0:0:0:0:
256,192,68257,1,8,0:0:0:0:
256,192,68425,1,8,0:0:0:0:
256,160,68592,1,4,0:0:0:0:
256,192,68927,1,0,0:0:0:0:
256,192,69095,1,0,0:0:0:0:
256,160,69263,1,12,0:0:0:0:
256,192,69598,1,8,0:0:0:0:
256,192,69765,1,8,0:0:0:0:
256,160,69933,1,0,0:0:0:0:
256,192,70101,1,8,0:0:0:0:
256,192,70184,1,0,0:0:0:0:
256,192,70268,1,8,0:0:0:0:
256,192,70436,1,0,0:0:0:0:
256,192,70603,1,8,0:0:0:0:
256,192,70687,1,8,0:0:0:0:
256,192,70771,1,0,0:0:0:0:
256,192,70855,1,0,0:0:0:0:
256,192,70939,1,8,0:0:0:0:
256,192,71106,1,0,0:0:0:0:
256,160,71274,1,12,0:0:0:0:
256,192,71609,1,8,0:0:0:0:
256,192,71777,1,8,0:0:0:0:
256,192,71944,1,0,0:0:0:0:
256,192,72112,1,8,0:0:0:0:
256,192,72196,1,0,0:0:0:0:
256,192,72279,1,8,0:0:0:0:
256,192,72447,1,0,0:0:0:0:
256,160,72615,1,12,0:0:0:0:
256,192,72950,1,8,0:0:0:0:
256,192,73117,1,0,0:0:0:0:
256,192,73285,1,8,0:0:0:0:
256,192,73453,1,0,0:0:0:0:
256,192,73536,1,8,0:0:0:0:
256,192,73620,1,8,0:0:0:0:
256,192,73788,1,0,0:0:0:0:
256,160,73955,1,12,0:0:0:0:
256,192,74291,1,8,0:0:0:0:
256,192,74374,1,8,0:0:0:0:
256,192,74458,1,8,0:0:0:0:
256,160,74626,1,4,0:0:0:0:
256,192,74961,1,0,0:0:0:0:
256,192,75045,1,0,0:0:0:0:
256,192,75129,1,0,0:0:0:0:
256,160,75296,1,12,0:0:0:0:
256,192,75631,1,8,0:0:0:0:
256,192,75799,1,8,0:0:0:0:
256,192,75966,1,0,0:0:0:0:
256,192,76134,1,8,0:0:0:0:
256,192,76218,1,8,0:0:0:0:
256,192,76302,1,0,0:0:0:0:
256,192,76385,1,0,0:0:0:0:
256,192,76469,1,8,0:0:0:0:
256,160,76637,1,4,0:0:0:0:
256,192,76972,1,8,0:0:0:0:
256,192,77140,1,0,0:0:0:0:
256,192,77307,1,8,0:0:0:0:
256,192,77391,1,8,0:0:0:0:
256,192,77475,1,8,0:0:0:0:
256,192,77642,1,0,0:0:0:0:
256,192,77810,1,0,0:0:0:0:
256,160,77978,1,12,0:0:0:0:
256,192,78145,1,0,0:0:0:0:
256,192,78229,1,8,0:0:0:0:
256,192,78313,1,0,0:0:0:0:
256,192,78480,1,8,0:0:0:0:
256,192,78648,1,0,0:0:0:0:
256,192,78732,1,0,0:0:0:0:
256,192,78816,1,8,0:0:0:0:
256,192,78899,1,8,0:0:0:0:
256,192,78983,1,0,0:0:0:0:
256,192,79151,1,8,0:0:0:0:
256,192,79235,1,0,0:0:0:0:
256,192,79318,1,8,0:0:0:0:
256,192,79486,1,0,0:0:0:0:
256,192,79654,1,8,0:0:0:0:
256,192,79821,1,0,0:0:0:0:
256,192,79989,1,8,0:0:0:0:
256,192,80073,1,8,0:0:0:0:
256,192,80156,1,0,0:0:0:0:
256,192,80240,1,0,0:0:0:0:
256,192,80324,1,8,0:0:0:0:
256,192,80492,1,8,0:0:0:0:
256,192,80575,1,0,0:0:0:0:
256,192,80659,1,8,0:0:0:0:
256,192,80827,1,0,0:0:0:0:
256,192,80911,1,0,0:0:0:0:
256,192,80994,1,0,0:0:0:0:
256,192,81162,1,8,0:0:0:0:
256,192,81497,1,0,0:0:0:0:
256,192,81581,1,0,0:0:0:0:
256,192,81665,1,8,0:0:0:0:
256,160,82000,1,4,0:0:0:0:
256,192,82168,1,8,0:0:0:0:
256,192,82335,1,0,0:0:0:0:
256,192,82419,1,0,0:0:0:0:
256,192,82503,1,8,0:0:0:0:
256,192,82587,1,8,0:0:0:0:
256,192,82670,1,0,0:0:0:0:
256,192,82838,1,0,0:0:0:0:
256,192,83006,1,8,0:0:0:0:
256,192,83173,1,0,0:0:0:0:
256,192,83341,1,8,0:0:0:0:
256,192,83425,1,0,0:0:0:0:
256,192,83508,1,0,0:0:0:0:
256,192,83676,1,8,0:0:0:0:
256,192,83844,1,0,0:0:0:0:
256,192,83927,1,8,0:0:0:0:
256,192,84011,1,8,0:0:0:0:
256,192,84095,1,8,0:0:0:0:
256,192,84179,1,0,0:0:0:0:
256,192,84346,1,8,0:0:0:0:
256,192,84514,1,0,0:0:0:0:
256,192,84682,1,8,0:0:0:0:
256,192,84765,1,8,0:0:0:0:
256,192,84849,1,0,0:0:0:0:
256,192,85017,1,8,0:0:0:0:
256,192,85184,1,8,0:0:0:0:
256,192,85352,1,0,0:0:0:0:
256,192,85436,1,8,0:0:0:0:
256,192,85520,1,0,0:0:0:0:
256,192,85687,1,8,0:0:0:0:
256,192,85855,1,0,0:0:0:0:
256,192,85939,1,0,0:0:0:0:
256,192,86022,1,0,0:0:0:0:
256,192,86190,1,8,0:0:0:0:
256,192,86274,1,0,0:0:0:0:
256,192,86358,1,8,0:0:0:0:
256,192,86525,1,8,0:0:0:0:
256,192,86860,1,0,0:0:0:0:
256,192,86944,1,0,0:0:0:0:
256,192,87028,1,8,0:0:0:0:
256,192,87112,1,0,0:0:0:0:
256,192,87196,1,8,0:0:0:0:
256,160,87363,1,4,0:0:0:0:
256,192,87531,1,8,0:0:0:0:
256,192,87698,1,0,0:0:0:0:
256,192,87782,1,0,0:0:0:0:
256,192,87866,1,8,0:0:0:0:
256,192,87950,1,8,0:0:0:0:
256,192,88034,1,0,0:0:0:0:
256,192,88201,1,0,0:0:0:0:
256,192,88369,1,8,0:0:0:0:
256,192,88536,1,0,0:0:0:0:
256,192,88704,1,8,0:0:0:0:
256,192,88788,1,0,0:0:0:0:
256,192,88872,1,8,0:0:0:0:
256,192,89039,1,0,0:0:0:0:
256,192,89207,1,8,0:0:0:0:
256,192,89291,1,8,0:0:0:0:
256,192,89374,1,8,0:0:0:0:
256,192,89542,1,0,0:0:0:0:
256,192,89626,1,0,0:0:0:0:
256,192,89710,1,8,0:0:0:0:
256,192,89793,1,0,0:0:0:0:
256,192,89877,1,0,0:0:0:0:
256,192,90045,1,8,0:0:0:0:
256,192,90129,1,8,0:0:0:0:
256,192,90212,1,0,0:0:0:0:
256,192,90380,1,8,0:0:0:0:
256,192,90548,1,0,0:0:0:0:
256,192,90631,1,8,0:0:0:0:
256,192,90715,1,0,0:0:0:0:
256,192,90799,1,0,0:0:0:0:
256,192,90883,1,8,0:0:0:0:
256,192,91050,1,0,0:0:0:0:
256,160,91218,1,12,0:0:0:0:
256,192,91385,12,0,95408,0:0:0:0:
