osu file format v14

[General]
AudioFilename: audio.mp3
AudioLeadIn: 0
PreviewTime: 59878
Countdown: 0
SampleSet: Normal
StackLeniency: 0.3
Mode: 1
LetterboxInBreaks: 0
WidescreenStoryboard: 1

[Editor]
Bookmarks: 6579,19484,20322,31048,37752,39092,41774,47137,52500,60545,71271,81997,91215
DistanceSpacing: 0.9
BeatDivisor: 4
GridSize: 32
TimelineZoom: 1.8

[Metadata]
Title:MY Mai*TONIGHT (TV Size)
TitleUnicode:MY舞☆TONIGHT (TV Size)
Artist:Aqours
ArtistUnicode:Aqours
Creator:Defectum
Version:Kantan
Source:ラブライブ!サンシャイン!!
Tags:vendelicious japanese pop jpop j-pop anime love live! lovelive! sunshine!! school idol project festival season two 2 insert song tv size inami anju 伊波杏樹 takami chika 高海千歌 aida rikako 逢田梨香子 sakurauchi riko 桜内梨子 suwa nanaka 諏訪ななか matsuura kanan 松浦果南 komiya arisa 小宮有紗 kurosawa dia 黒澤ダイヤ saito shuka 斉藤朱夏 watanabe you 渡辺曜 kobayashi aika 小林愛香 tsushima yoshiko 津島善子 yohane ヨハネ takatsuki kanako 高槻かなこ kunikida hanamaru 国木田花丸 suzuki aina 鈴木愛奈 ohara mari 小原鞠莉 furihata ai 降幡愛 kurosawa ruby 黒澤ルビィ
BeatmapID:3897076
BeatmapSetID:1890927

[Difficulty]
HPDrainRate:8
CircleSize:4
OverallDifficulty:3
ApproachRate:9
SliderMultiplier:1.4
SliderTickRate:1

[Events]
//Background and Video events
0,0,"bg.jpg",0,80
//Break Periods
//Storyboard Layer 0 (Background)
//Storyboard Layer 1 (Fail)
//Storyboard Layer 2 (Pass)
//Storyboard Layer 3 (Foreground)
//Storyboard Layer 4 (Overlay)
//Storyboard Sound Samples

[TimingPoints]
-6395,810.810810810811,4,1,0,50,1,0
10,-55.1210428,4,1,0,50,0,0
15496,857.142857142857,4,1,0,50,1,8
15496,-52.1415271,4,1,0,50,0,8
16353,857.142857142857,4,1,0,50,1,0
16353,-52.1415271,4,1,0,50,0,8
16928,685.714285714286,4,1,0,50,1,8
16928,-61.1033519,4,1,0,50,0,8
18985,335.195530726257,4,1,0,50,1,8
19403,-100,4,1,0,80,0,0
20325,335.195530726257,4,1,0,80,1,1
31051,-100,4,1,0,80,0,0
31135,-100,4,1,0,60,0,0
39054,-100,4,1,0,80,0,0
39221,-100,4,1,0,60,0,0
40688,-100,4,1,0,70,0,0
52461,-100,4,1,0,70,0,0
53802,-100,4,1,0,75,0,0
55143,-100,4,1,0,80,0,0
56484,-100,4,1,0,85,0,0
57825,-100,4,1,0,90,0,0
59165,-100,4,1,0,100,0,0
59794,-100,4,1,0,80,0,0
60464,-100,4,1,0,90,0,0
60548,335.195530726257,4,1,0,80,1,1
81162,-100,4,1,0,90,0,0
81581,-100,4,1,0,80,0,0
81916,-100,4,1,0,90,0,0
82000,-100,4,1,0,90,0,1
91218,-100,4,1,0,90,0,0
91385,-100,4,1,0,88,0,0
91553,-100,4,1,0,86,0,0
91721,-106.382978723404,4,1,0,84,0,0
91888,-108.695652173913,4,1,0,82,0,0
92056,-111.111111111111,4,1,0,80,0,0
92223,-113.636363636364,4,1,0,78,0,0
92391,-116.279069767442,4,1,0,76,0,0
92559,-119.047619047619,4,1,0,74,0,0
92726,-121.951219512195,4,1,0,72,0,0
92894,-125,4,1,0,70,0,0
93061,-128.205128205128,4,1,0,68,0,0
93229,-131.578947368421,4,1,0,66,0,0
93397,-135.135135135135,4,1,0,64,0,0
93564,-138.888888888889,4,1,0,62,0,0
93732,-142.857142857143,4,1,0,60,0,0
93899,-147.058823529412,4,1,0,58,0,0
94067,-151.515151515152,4,1,0,56,0,0
94235,-156.25,4,1,0,54,0,0
94402,-161.290322580645,4,1,0,52,0,0
94570,-166.666666666667,4,1,0,50,0,0
94737,-172.413793103448,4,1,0,48,0,0
94905,-178.571428571429,4,1,0,46,0,0
95073,-185.185185185185,4,1,0,44,0,0
95240,-192.307692307692,4,1,0,42,0,0
95408,-200,4,1,0,40,0,0

[HitObjects]
256,192,91,12,0,4753,0:0:0:0:
256,192,6577,5,0,0:0:0:0:
256,192,8199,1,0,0:0:0:0:
256,192,9821,1,8,0:0:0:0:
256,192,10632,1,8,0:0:0:0:
256,192,11442,1,0,0:0:0:0:
256,192,13064,1,0,0:0:0:0:
256,192,14686,1,8,0:0:0:0:
256,192,15496,1,0,0:0:0:0:
256,192,16353,1,8,0:0:0:0:
256,192,16928,12,0,18985,0:0:0:0:
256,192,19655,5,0,0:0:0:0:
256,160,20325,1,12,0:0:0:0:
256,192,21330,1,8,0:0:0:0:
256,192,21665,1,0,0:0:0:0:
256,192,22336,1,0,0:0:0:0:
256,192,23006,1,8,0:0:0:0:
256,192,23341,1,8,0:0:0:0:
256,192,23676,1,0,0:0:0:0:
256,192,24347,1,0,0:0:0:0:
256,160,25688,1,12,0:0:0:0:
256,192,26693,1,0,0:0:0:0:
256,192,27028,1,8,0:0:0:0:
256,192,27699,1,0,0:0:0:0:
256,192,28034,1,8,0:0:0:0:
256,192,28369,1,8,0:0:0:0:
256,192,29710,1,0,0:0:0:0:
256,160,30213,1,12,0:0:0:0:
256,160,31051,1,4,0:0:0:0:
256,192,32392,1,0,0:0:0:0:
256,192,33732,1,0,0:0:0:0:
256,192,35073,1,0,0:0:0:0:
256,192,35911,1,8,0:0:0:0:
256,192,36414,1,0,0:0:0:0:
256,192,37755,1,8,0:0:0:0:
256,192,38090,1,0,0:0:0:0:
256,192,38425,1,8,0:0:0:0:
256,192,38760,1,8,0:0:0:0:
256,160,39095,1,4,0:0:0:0:
256,160,40939,1,4,0:0:0:0:
256,160,41777,1,12,0:0:0:0:
256,192,42447,1,0,0:0:0:0:
256,192,43118,1,8,0:0:0:0:
256,192,43621,1,0,0:0:0:0:
256,192,44459,1,0,0:0:0:0:
256,192,45129,1,8,0:0:0:0:
256,192,45799,1,0,0:0:0:0:
256,192,46302,1,8,0:0:0:0:
256,160,47140,1,4,0:0:0:0:
256,192,48481,1,8,0:0:0:0:
256,192,48984,1,0,0:0:0:0:
256,192,49822,1,8,0:0:0:0:
256,192,50492,1,8,0:0:0:0:
256,192,51162,1,0,0:0:0:0:
256,192,51665,1,8,0:0:0:0:
256,192,52168,1,8,0:0:0:0:
256,192,52503,1,0,0:0:0:0:
256,192,53509,1,0,0:0:0:0:
256,192,53844,1,8,0:0:0:0:
256,192,54850,1,8,0:0:0:0:
256,192,55185,1,0,0:0:0:0:
256,192,55520,1,0,0:0:0:0:
256,192,55855,1,8,0:0:0:0:
256,192,56526,1,0,0:0:0:0:
256,192,56861,1,8,0:0:0:0:
256,192,57196,1,0,0:0:0:0:
256,192,57531,1,0,0:0:0:0:
256,192,57866,1,8,0:0:0:0:
256,160,59207,1,12,0:0:0:0:
256,160,59542,1,12,0:0:0:0:
256,160,60548,1,4,0:0:0:0:
256,192,61218,1,8,0:0:0:0:
256,192,61553,1,8,0:0:0:0:
256,192,61888,1,0,0:0:0:0:
256,192,62559,1,8,0:0:0:0:
256,192,63229,1,0,0:0:0:0:
256,192,63564,1,0,0:0:0:0:
256,192,63899,1,8,0:0:0:0:
256,192,64235,1,8,0:0:0:0:
256,192,64570,1,0,0:0:0:0:
256,160,65911,1,4,0:0:0:0:
256,192,66581,1,8,0:0:0:0:
256,192,66916,1,0,0:0:0:0:
256,192,67251,1,8,0:0:0:0:
256,192,67922,1,0,0:0:0:0:
256,192,68257,1,8,0:0:0:0:
256,192,68592,1,0,0:0:0:0:
256,192,69263,1,0,0:0:0:0:
256,192,69933,1,8,0:0:0:0:
256,160,71274,1,4,0:0:0:0:
256,192,71944,1,8,0:0:0:0:
256,192,72279,1,8,0:0:0:0:
256,192,72615,1,0,0:0:0:0:
256,192,73285,1,8,0:0:0:0:
256,192,73955,1,0,0:0:0:0:
256,192,74291,1,0,0:0:0:0:
256,192,74626,1,8,0:0:0:0:
256,192,74961,1,0,0:0:0:0:
256,192,75296,1,0,0:0:0:0:
256,160,76637,1,4,0:0:0:0:
256,192,77307,1,8,0:0:0:0:
256,192,77642,1,0,0:0:0:0:
256,192,77978,1,8,0:0:0:0:
256,192,78648,1,0,0:0:0:0:
256,192,78983,1,8,0:0:0:0:
256,192,79318,1,0,0:0:0:0:
256,192,79989,1,8,0:0:0:0:
256,192,80659,1,0,0:0:0:0:
256,192,81665,1,8,0:0:0:0:
256,160,82000,1,4,0:0:0:0:
256,192,82503,1,8,0:0:0:0:
256,192,83006,1,0,0:0:0:0:
256,192,83341,1,0,0:0:0:0:
256,192,83844,1,8,0:0:0:0:
256,192,84682,1,8,0:0:0:0:
256,192,85352,1,0,0:0:0:0:
256,192,86022,1,8,0:0:0:0:
256,192,87028,1,8,0:0:0:0:
256,160,87363,1,4,0:0:0:0:
256,192,87866,1,8,0:0:0:0:
256,192,88369,1,8,0:0:0:0:
256,192,88704,1,0,0:0:0:0:
256,192,89207,1,0,0:0:0:0:
256,192,90045,1,8,0:0:0:0:
256,192,90380,1,0,0:0:0:0:
256,192,90715,1,8,0:0:0:0:
256,160,91218,1,12,0:0:0:0:
256,192,91553,12,0,95408,0:0:0:0:
