osu file format v14

[General]
AudioFilename: audio.mp3
AudioLeadIn: 0
PreviewTime: 59786
Countdown: 0
SampleSet: Soft
StackLeniency: 0.4
Mode: 0
LetterboxInBreaks: 0
WidescreenStoryboard: 0

[Editor]
DistanceSpacing: 1
BeatDivisor: 4
GridSize: 32
TimelineZoom: 1

[Metadata]
Title:MY Mai*TONIGHT
TitleUnicode:MY舞☆TONIGHT
Artist:Aqours
ArtistUnicode:Aqours
Creator:My Angel Kanan
Version:sdafsf's Odore
Source:ラブライブ!サンシャイン!!
Tags:Odore Love Live Sunshine School Idol Project Festival Insert song Kanan Matsuura 松浦果南 Nanaka Suwa 諏訪ななか Mari Ohara 小原鞠莉 Aina Suzuki 鈴木愛奈 Dia Kurosawa 黒澤ダイヤ Chika Takami 高海千歌 Inami Anju 伊波杏樹 Riko Sakurauchi 桜内梨子 Rikako Aida 逢田梨香子 You Watanabe 渡辺曜 Shuka Saito 斉藤朱夏 Yoshiko Tsushima 津島善子 Aika Kobayashi 小林愛香 Hanamaru Kunikida 国木田花丸 Kanako Takatsuki 高槻かなこ Ruby Kurosawa 黒澤ルビィ Ai Furihata 降幡愛 Kotori-Chan Akitoshi newton- sdafsf
BeatmapID:1474491
BeatmapSetID:684916

[Difficulty]
HPDrainRate:6.5
CircleSize:4.2
OverallDifficulty:8.6
ApproachRate:9.4
SliderMultiplier:1.8
SliderTickRate:1

[Events]
//Background and Video events
0,0,"A new BG.jpg",0,0
//Break Periods
//Storyboard Layer 0 (Background)
//Storyboard Layer 1 (Fail)
//Storyboard Layer 2 (Pass)
//Storyboard Layer 3 (Foreground)
//Storyboard Sound Samples

[TimingPoints]
100,810.810810810811,4,2,1,40,1,0
5775,-100,4,2,1,40,0,0
6586,-83.3333333333333,4,2,1,70,0,0
7397,-83.3333333333333,4,2,1,40,0,0
8208,-83.3333333333333,4,2,1,70,0,0
9018,-83.3333333333333,4,2,1,40,0,0
11451,-83.3333333333333,4,2,1,55,0,0
11856,-83.3333333333333,4,2,1,40,0,0
12262,-83.3333333333333,4,2,1,45,0,0
12667,-83.3333333333333,4,2,1,50,0,0
13072,-83.3333333333333,4,2,1,70,0,0
13478,-83.3333333333333,4,2,1,40,0,0
15099,857.142857142857,4,2,1,40,1,0
15099,-50,4,2,1,40,0,0
16357,571.428571428571,4,2,1,40,1,0
16928,685.714285714286,4,2,1,5,1,0
19468,372.670807453416,4,2,15,60,1,0
19647,335.195530726257,4,2,15,70,1,0
20317,335.195530726257,4,2,2,80,1,0
29032,-100,4,2,1,80,0,0
29702,-100,4,2,2,80,0,0
30708,-100,4,2,5,80,0,0
31043,-200,4,2,5,50,0,0
35903,-133.333333333333,4,2,5,50,0,0
36322,-133.333333333333,4,2,5,5,0,0
36406,-133.333333333333,4,2,5,50,0,0
36741,-200,4,2,5,50,0,0
37076,-181.818181818182,4,2,5,50,0,0
37411,-166.666666666667,4,2,5,50,0,0
37579,-166.666666666667,4,2,1,50,0,0
37914,-166.666666666667,4,2,1,55,0,0
38082,-166.666666666667,4,2,1,60,0,0
38249,-166.666666666667,4,2,1,65,0,0
38417,-166.666666666667,4,2,1,70,0,0
38585,-166.666666666667,4,2,1,75,0,0
38752,-166.666666666667,4,2,1,80,0,0
38920,-166.666666666667,4,2,1,85,0,0
39087,-166.666666666667,4,2,5,80,0,0
40763,-125,4,2,2,80,0,0
40931,-125,4,2,15,60,0,0
41769,-125,4,2,5,70,0,0
45121,-125,4,2,15,70,0,0
45624,-100,4,2,15,70,0,0
45791,-100,4,2,2,70,0,0
46797,-100,4,2,1,50,0,0
47132,-100,4,2,5,70,0,0
47384,-100,4,2,5,5,0,0
47467,-125,4,2,5,70,0,0
49143,-125,4,2,1,50,0,0
49814,-125,4,2,5,50,0,0
50065,-125,4,2,5,5,0,0
50149,-125,4,2,5,50,0,0
51154,-125,4,2,2,50,0,0
52495,-100,4,2,20,70,0,0
52830,-100,4,2,20,80,0,0
53166,-100,4,2,20,90,0,0
53501,-100,4,2,20,100,0,0
53836,-100,4,2,20,70,0,0
54171,-100,4,2,20,80,0,0
54506,-100,4,2,20,90,0,0
54842,-100,4,2,20,100,0,0
55177,-100,4,2,2,65,0,0
55512,-100,4,2,2,70,0,0
55847,-100,4,2,2,75,0,0
56182,-100,4,2,2,80,0,0
56518,-100,4,2,2,85,0,0
56853,-100,4,2,2,90,0,0
57188,-100,4,2,2,95,0,0
57523,-100,4,2,2,100,0,0
59115,-100,4,2,1,5,0,0
59199,-83.3333333333333,4,2,2,70,0,0
60121,-83.3333333333333,4,2,1,5,0,0
60205,-83.3333333333333,4,2,2,70,0,0
60456,-83.3333333333333,4,2,1,5,0,0
60540,-83.3333333333333,4,2,5,80,0,1
60875,-83.3333333333333,4,2,2,80,0,1
61462,-83.3333333333333,4,2,2,5,0,1
61546,-83.3333333333333,4,2,2,80,0,1
61797,-83.3333333333333,4,2,2,5,0,1
61881,-83.3333333333333,4,2,2,80,0,1
63138,-83.3333333333333,4,2,2,5,0,1
63222,-83.3333333333333,4,2,2,80,0,1
65400,-83.3333333333333,4,2,1,80,0,1
65903,-83.3333333333333,4,2,5,80,0,1
66238,-83.3333333333333,4,2,2,80,0,1
67160,-83.3333333333333,4,2,2,5,0,1
67244,-83.3333333333333,4,2,2,80,0,1
68501,-83.3333333333333,4,2,2,5,0,1
68585,-83.3333333333333,4,2,2,80,0,1
69925,-83.3333333333333,4,2,1,80,0,1
71266,-83.3333333333333,4,2,5,80,0,1
71601,-83.3333333333333,4,2,2,80,0,1
72188,-83.3333333333333,4,2,2,5,0,1
72272,-83.3333333333333,4,2,2,80,0,1
72523,-83.3333333333333,4,2,2,5,0,1
72607,-83.3333333333333,4,2,2,80,0,1
73864,-83.3333333333333,4,2,2,5,0,1
73948,-83.3333333333333,4,2,2,80,0,1
77886,-83.3333333333333,4,2,2,5,0,1
77970,-83.3333333333333,4,2,2,80,0,1
81657,-200,4,2,5,80,0,0
81909,-200,4,2,5,5,0,0
81992,-83.3333333333333,4,2,5,80,0,1
82328,-83.3333333333333,4,2,2,80,0,1
86015,-83.3333333333333,4,2,1,80,0,1
87020,-83.3333333333333,4,2,5,80,0,1
87691,-83.3333333333333,4,2,2,80,0,1
91210,-153.846153846153,4,2,2,80,0,0
92719,-100,4,2,1,5,0,0
92803,-153.846153846153,4,2,2,80,0,0
95400,-100,4,2,1,5,0,0

[Colours]
Combo1 : 214,148,201
Combo2 : 242,233,113
Combo3 : 117,228,238
Combo4 : 133,98,238

[HitObjects]
96,191,5775,6,0,P|139:201|168:234,1,90,8|8,0:3|0:3,0:0:0:0:
157,351,6586,6,0,P|142:291|174:237,1,107.999996704102,4|0,0:0|0:0,0:0:0:0:
247,127,7397,2,0,P|262:187|230:241,1,107.999996704102,8|8,0:3|0:3,0:0:0:0:
99,298,8208,1,4,0:0:0:0:
177,66,9018,1,8,0:3:0:0:
426,84,9829,5,8,0:3:0:0:
247,128,10640,1,8,0:3:0:0:
378,204,11451,2,0,P|357:253|368:305,1,107.999996704102,12|12,0:3|0:3,0:0:0:0:
483,179,12262,2,0,P|424:197|359:173,1,107.999996704102,8|8,0:3|0:3,0:0:0:0:
390,70,13072,6,0,P|400:122|380:171,1,107.999996704102,4|8,0:0|0:3,0:0:0:0:
289,310,13883,2,0,P|278:257|298:208,1,107.999996704102,0|8,0:0|0:3,0:0:0:0:
426,111,14694,1,0,0:0:0:0:
365,266,15527,1,0,0:0:0:0:
227,11,16357,5,0,0:0:0:0:
256,192,16499,12,0,19328,0:0:0:0:
60,56,19468,6,0,P|56:79|60:101,1,45
141,175,19647,1,0,0:0:0:0:
159,162,19730,1,0,0:0:0:0:
180,155,19814,1,0,0:0:0:0:
203,153,19898,1,0,0:0:0:0:
224,158,19982,5,0,0:0:0:0:
269,126,20065,1,0,0:0:0:0:
324,128,20149,1,0,0:0:0:0:
366,164,20233,1,0,0:0:0:0:
378,218,20317,6,0,L|371:342,1,90,4|0,0:0|0:0,0:0:0:0:
472,144,20652,2,0,L|466:54,1,90,8|0,0:0|0:0,0:0:0:0:
289,56,20987,1,0,0:0:0:0:
378,218,21154,1,0,0:0:0:0:
444,24,21322,2,0,P|398:11|346:31,1,90,8|0,0:0|0:0,0:0:0:0:
136,264,21657,6,0,L|142:156,1,90,4|0,0:0|0:0,0:0:0:0:
250,288,21992,2,0,L|254:377,1,90,8|0,0:0|0:0,0:0:0:0:
127,371,22328,1,2,0:0:0:0:
241,191,22495,1,0,0:0:0:0:
340,375,22663,2,0,P|274:385|243:372,1,90,8|0,0:0|0:0,0:0:0:0:
212,89,22998,6,0,L|206:-9,1,90,2|0,0:0|0:0,0:0:0:0:
89,131,23333,2,0,L|83:220,1,90,8|0,0:0|0:0,0:0:0:0:
298,127,23668,1,2,0:0:0:0:
297,110,23752,1,0,0:0:0:0:
296,93,23836,1,0,0:0:0:0:
177,207,24004,2,0,L|171:296,1,90,8|0,0:0|0:0,0:0:0:0:
376,194,24339,5,4,0:0:0:0:
196,105,24506,1,0,0:0:0:0:
307,253,24674,1,8,0:0:0:0:
298,127,24842,1,0,0:0:0:0:
241,356,25009,6,0,P|264:358|301:348,1,45
378,323,25177,1,0,0:0:0:0:
394,325,25261,1,0,0:0:0:0:
412,327,25344,5,8,0:0:0:0:
387,277,25427,1,0,0:0:0:0:
399,223,25511,1,0,0:0:0:0:
442,189,25595,1,0,0:0:0:0:
497,189,25680,6,0,L|490:295,1,90,4|0,0:0|0:0,0:0:0:0:
345,167,26015,2,0,L|339:77,1,90,8|0,0:0|0:0,0:0:0:0:
512,69,26350,1,2,0:0:0:0:
419,210,26518,1,0,0:0:0:0:
371,5,26685,2,0,P|423:-7|478:16,1,90,8|0,0:0|0:0,0:0:0:0:
315,249,27020,6,0,L|307:150,1,90,2|0,0:0|0:0,0:0:0:0:
174,98,27356,1,8,0:0:0:0:
157,260,27523,1,0,0:0:0:0:
303,133,27691,6,0,P|272:136|252:132,1,45,2|0,0:0|0:0,0:0:0:0:
112,50,27858,1,0,0:0:0:0:
86,98,27941,1,0,0:0:0:0:
97,153,28025,1,8,0:0:0:0:
139,188,28109,1,0,0:0:0:0:
194,189,28193,1,0,0:0:0:0:
177,11,28361,6,0,P|165:62|179:108,1,90,8|2,0:3|0:3,0:0:0:0:
286,212,28696,1,8,0:3:0:0:
260,57,28864,1,2,0:3:0:0:
223,285,29032,5,8,0:3:0:0:
284,199,29199,1,8,0:3:0:0:
283,188,29283,1,8,0:3:0:0:
282,177,29367,1,8,0:3:0:0:
173,97,29534,1,8,0:3:0:0:
172,108,29618,1,8,0:3:0:0:
171,119,29702,5,4,0:3:0:0:
346,34,29870,1,0,0:0:0:0:
374,27,29953,1,0,0:0:0:0:
404,35,30037,1,0,0:0:0:0:
370,165,30205,6,0,P|328:138|439:97,1,270,4|8,0:3|0:0,0:0:0:0:
444,175,30875,1,8,0:0:0:0:
253,206,31043,6,0,L|261:297,1,90,4|0,0:0|0:0,0:0:0:0:
164,357,31546,1,8,0:0:0:0:
164,357,31713,2,0,L|171:267,1,90,8|0,0:0|0:0,0:0:0:0:
128,176,32216,1,8,0:0:0:0:
128,176,32384,2,0,L|66:182,1,45,8|0,0:0|0:0,0:0:0:0:
8,254,32719,1,0,0:0:0:0:
8,254,32887,2,0,L|118:260,1,90,8|0,0:0|0:0,0:0:0:0:
128,176,33389,1,8,0:0:0:0:
128,176,33557,1,8,0:0:0:0:
56,31,33724,6,0,P|42:69|55:119,1,90,2|0,0:0|0:0,0:0:0:0:
198,115,34227,1,8,0:0:0:0:
198,115,34395,2,0,P|210:73|196:31,1,90,8|0,0:0|0:0,0:0:0:0:
126,81,34898,1,8,0:0:0:0:
126,81,35065,2,0,L|128:142,1,45,8|0,0:0|0:0,0:0:0:0:
191,199,35400,1,8,0:0:0:0:
191,199,35567,2,0,L|189:260,1,45,8|0,0:0|0:0,0:0:0:0:
334,129,35903,6,0,P|371:113|465:203,1,168.750006437302,2|0,0:0|0:0,0:0:0:0:
461,205,36406,1,4,0:0:0:0:
218,37,36741,6,0,L|214:98,1,45,8|0,0:0|0:0,0:0:0:0:
149,187,37076,2,0,L|145:126,1,49.5000015106202,8|0,0:0|0:0,0:0:0:0:
236,14,37411,2,0,L|232:75,1,53.9999983520508,8|8,0:0|0:3,0:0:0:0:
238,77,37663,1,8,0:3:0:0:
244,87,37747,5,8,0:3:0:0:
321,67,37914,1,8,0:3:0:0:
245,0,38082,1,8,0:3:0:0:
243,171,38249,1,8,0:3:0:0:
398,22,38417,5,8,0:3:0:0:
154,54,38585,1,8,0:3:0:0:
392,135,38752,1,8,0:3:0:0:
126,201,38920,1,8,0:3:0:0:
501,305,39087,5,6,0:3:0:0:
494,281,40763,5,2,0:3:0:0:
147,215,40931,2,0,P|129:213|111:214,3,36,8|8|0|0,0:0|0:0|0:0|0:0,0:0:0:0:
170,298,41266,1,8,0:0:0:0:
171,321,41350,1,8,0:0:0:0:
172,343,41434,2,0,P|195:344|220:341,1,36,8|8,0:0|0:0,0:0:0:0:
266,292,41601,2,0,P|283:290|301:292,1,36,8|8,0:0|0:0,0:0:0:0:
436,311,41769,6,0,P|467:250|433:159,1,144,4|8,0:0|0:0,0:0:0:0:
381,127,42272,1,0,0:0:0:0:
366,240,42439,1,0,0:0:0:0:
366,240,42607,1,0,0:0:0:0:
459,97,42775,2,0,L|453:15,1,72,8|0,0:0|0:0,0:0:0:0:
311,34,43110,6,0,L|305:105,1,72
225,199,43445,1,8,0:0:0:0:
225,199,43613,2,0,L|219:127,1,72,0|0,0:0|0:0,0:0:0:0:
70,96,43948,1,0,0:0:0:0:
70,96,44032,1,0,0:0:0:0:
70,96,44115,2,0,P|109:88|152:104,1,72,8|0,0:0|0:0,0:0:0:0:
225,199,44451,5,2,0:0:0:0:
126,248,44618,1,0,0:0:0:0:
148,113,44786,1,8,0:0:0:0:
231,293,44953,1,0,0:0:0:0:
61,145,45121,1,8,0:0:0:0:
57,103,45204,1,8,0:0:0:0:
72,64,45288,1,8,0:0:0:0:
103,36,45372,1,8,0:0:0:0:
142,23,45456,1,8,0:0:0:0:
183,30,45539,1,8,0:0:0:0:
218,53,45624,6,0,L|221:117,1,45,8|8,0:0|0:0,0:0:0:0:
231,322,45791,1,4,0:3:0:0:
224,338,46127,5,0,0:0:0:0:
229,62,46294,1,4,0:3:0:0:
322,147,46462,2,0,P|343:156|384:156,2,60,0|0|0,0:0|0:0|0:0,0:0:0:0:
391,231,46797,2,0,P|414:224|444:198,2,60,8|8|8,0:3|0:3|0:3,0:0:0:0:
464,124,47132,6,0,P|518:182|503:261,1,135,4|0,0:0|0:0,0:0:0:0:
492,253,47467,2,0,L|504:342,1,72,8|0,0:0|0:0,0:0:0:0:
402,383,47803,2,0,L|411:311,1,72,8|0,0:0|0:0,0:0:0:0:
313,253,48138,2,0,L|325:342,1,72,8|0,0:0|0:0,0:0:0:0:
182,384,48473,5,8,0:0:0:0:
169,300,48641,1,0,0:0:0:0:
99,353,48808,1,8,0:0:0:0:
99,353,48976,1,8,0:0:0:0:
248,332,49143,5,8,0:3:0:0:
191,273,49311,1,8,0:3:0:0:
178,195,49479,1,8,0:3:0:0:
214,126,49646,1,8,0:3:0:0:
315,117,49814,6,0,P|269:136|196:114,1,108,4|0,0:0|0:0,0:0:0:0:
194,109,50149,2,0,L|202:32,1,72,8|0,0:0|0:0,0:0:0:0:
317,24,50484,1,8,0:0:0:0:
325,96,50652,1,0,0:0:0:0:
215,17,50819,1,8,0:0:0:0:
390,54,50987,1,8,0:0:0:0:
408,58,51071,1,0,0:0:0:0:
427,61,51154,6,0,L|435:151,1,72,4|0,0:3|0:0,0:0:0:0:
455,244,51490,1,0,0:0:0:0:
506,178,51657,2,0,P|447:157|378:211,1,144,4|0,0:3|0:0,0:0:0:0:
383,198,52076,1,0,0:0:0:0:
383,198,52160,1,8,0:0:0:0:
333,296,52328,1,8,0:0:0:0:
194,117,52495,6,0,L|201:222,1,90,0|0,0:0|0:0,0:0:0:0:
207,286,52830,1,0,0:0:0:0:
277,236,52998,1,0,0:0:0:0:
112,193,53166,1,0,0:0:0:0:
175,364,53333,1,0,0:0:0:0:
269,121,53501,5,0,0:0:0:0:
286,354,53668,1,0,0:0:0:0:
108,103,53836,6,0,L|113:221,1,90,4|0,0:0|0:0,0:0:0:0:
115,272,54171,1,0,0:0:0:0:
199,206,54339,1,0,0:0:0:0:
36,234,54506,1,0,0:0:0:0:
193,365,54674,1,0,0:0:0:0:
195,91,54842,5,0,0:0:0:0:
213,353,55009,1,0,0:0:0:0:
444,196,55177,6,0,P|426:155|391:127,1,90,2|0,0:0|0:0,0:0:0:0:
319,310,55512,2,0,P|364:315|405:298,1,90,2|0,0:0|0:0,0:0:0:0:
281,141,55847,2,0,P|253:177|247:221,1,90,2|0,0:0|0:0,0:0:0:0:
287,384,56182,1,2,0:0:0:0:
348,215,56350,1,0,0:0:0:0:
118,139,56518,5,2,0:0:0:0:
174,210,56685,1,0,0:0:0:0:
195,183,56768,1,0,0:0:0:0:
205,151,56852,1,2,0:0:0:0:
203,118,56936,1,0,0:0:0:0:
189,87,57020,1,0,0:0:0:0:
35,213,57188,5,2,0:0:0:0:
32,263,57272,1,0,0:0:0:0:
28,306,57356,2,0,L|24:380,1,45,0|0,0:0|0:0,0:0:0:0:
160,231,57523,1,2,0:0:0:0:
206,215,57607,1,0,0:0:0:0:
250,233,57691,1,0,0:0:0:0:
119,340,57858,5,4,0:3:0:0:
118,139,58026,1,0,0:0:0:0:
118,139,58194,1,0,0:0:0:0:
214,342,58361,5,0,0:0:0:0:
247,143,58529,1,0,0:0:0:0:
247,143,58697,1,0,0:0:0:0:
306,354,58864,5,0,0:0:0:0:
374,164,59032,1,0,0:0:0:0:
374,164,59115,1,0,0:0:0:0:
374,164,59200,5,2,0:3:0:0:
118,139,59367,1,2,0:3:0:0:
392,379,59534,1,2,0:3:0:0:
121,34,59870,6,0,B|128:52|127:71|127:71|106:106|120:146,1,107.999996704102,8|0,0:0|0:0,0:0:0:0:
118,138,60121,1,0,0:0:0:0:
118,138,60205,1,8,0:0:0:0:
392,379,60540,6,0,P|411:318|389:260,1,107.999996704102,4|0,0:0|0:0,0:0:0:0:
307,119,60875,2,0,P|288:180|310:238,1,107.999996704102,2|0,0:0|0:0,0:0:0:0:
490,346,61210,1,8,0:0:0:0:
382,181,61378,1,0,0:0:0:0:
269,343,61546,2,0,P|200:367|122:308,1,161.999995056153,2|0,0:0|0:0,0:0:0:0:
126,296,61881,6,0,L|136:176,1,107.999996704102,8|0,0:0|0:0,0:0:0:0:
14,27,62216,2,0,L|22:134,1,107.999996704102,2|0,0:0|0:0,0:0:0:0:
40,282,62551,1,8,0:0:0:0:
146,74,62719,1,0,0:0:0:0:
223,288,62886,2,0,B|261:308|297:300|297:300|338:269|405:293,1,161.999995056153,2|0,0:0|0:0,0:0:0:0:
402,298,63222,5,4,0:3:0:0:
344,59,63389,1,0,0:0:0:0:
214,181,63557,2,0,L|225:304,1,107.999996704102,8|8,0:3|0:3,0:0:0:0:
354,364,63892,1,4,0:3:0:0:
433,160,64060,1,0,0:0:0:0:
214,181,64227,2,0,L|200:302,1,107.999996704102,8|8,0:3|0:3,0:0:0:0:
59,348,64562,5,4,0:3:0:0:
201,288,64730,1,0,0:0:0:0:
28,233,64898,1,2,0:3:0:0:
214,181,65065,1,8,0:3:0:0:
35,11,65233,5,2,0:3:0:0:
34,187,65400,1,8,0:3:0:0:
31,210,65484,1,8,0:3:0:0:
28,233,65568,1,8,0:3:0:0:
186,84,65735,1,8,0:3:0:0:
183,61,65819,1,8,0:3:0:0:
178,35,65903,6,0,L|294:44,1,107.999996704102,4|0,0:0|0:0,0:0:0:0:
470,147,66238,2,0,L|354:156,1,107.999996704102,2|0,0:0|0:0,0:0:0:0:
195,173,66573,1,8,0:0:0:0:
285,23,66741,1,0,0:0:0:0:
379,171,66909,2,0,P|399:249|344:327,1,161.999995056153,2|0,0:0|0:0,0:0:0:0:
340,329,67244,6,0,L|223:342,1,107.999996704102,12|0,0:0|0:0,0:0:0:0:
85,171,67579,2,0,L|192:182,1,107.999996704102,2|0,0:0|0:0,0:0:0:0:
157,352,67914,1,8,0:0:0:0:
59,167,68082,1,0,0:0:0:0:
249,109,68249,2,0,P|285:183|245:259,1,161.999995056153,2|0,0:0|0:0,0:0:0:0:
235,272,68585,5,4,0:3:0:0:
149,124,68752,1,0,0:0:0:0:
354,112,68920,1,8,0:3:0:0:
354,112,69087,1,8,0:3:0:0:
161,244,69255,5,4,0:3:0:0:
201,72,69422,1,0,0:0:0:0:
366,195,69590,1,8,0:3:0:0:
240,176,69757,1,8,0:3:0:0:
424,119,69925,5,4,0:0:0:0:
447,151,70008,1,0,0:0:0:0:
455,190,70092,1,0,0:0:0:0:
446,229,70176,1,0,0:0:0:0:
421,261,70260,1,4,0:0:0:0:
386,279,70343,1,0,0:0:0:0:
346,280,70427,1,0,0:0:0:0:
308,266,70511,1,0,0:0:0:0:
281,237,70596,6,0,L|290:172,1,53.9999983520508,8|8,0:3|0:3,0:0:0:0:
309,104,70763,1,8,0:3:0:0:
309,104,70847,1,8,0:3:0:0:
309,104,70931,1,8,0:3:0:0:
259,369,71099,2,0,L|268:304,1,53.9999983520508,8|8,0:3|0:3,0:0:0:0:
120,213,71266,6,0,P|51:201|2:226,1,107.999996704102,4|0,0:0|0:0,0:0:0:0:
157,371,71601,2,0,P|226:383|275:358,1,107.999996704102,2|0,0:0|0:0,0:0:0:0:
309,104,71937,1,8,0:0:0:0:
432,264,72104,1,0,0:0:0:0:
512,79,72272,2,0,P|434:39|353:79,1,161.999995056153,2|0,0:0|0:0,0:0:0:0:
349,85,72607,6,0,L|359:213,1,107.999996704102,8|0,0:0|0:0,0:0:0:0:
195,308,72942,2,0,L|203:200,1,107.999996704102,2|0,0:0|0:0,0:0:0:0:
368,62,73277,1,8,0:0:0:0:
285,246,73445,1,0,0:0:0:0:
194,94,73613,2,0,B|153:70|116:79|116:79|78:103|26:95,1,161.999995056153,2|0,0:0|0:0,0:0:0:0:
13,94,73948,5,4,0:3:0:0:
39,300,74115,1,0,0:0:0:0:
203,201,74283,2,0,L|192:78,1,107.999996704102,8|8,0:3|0:3,0:0:0:0:
59,13,74618,1,4,0:3:0:0:
8,210,74786,1,0,0:0:0:0:
203,201,74953,2,0,L|217:80,1,107.999996704102,8|8,0:3|0:3,0:0:0:0:
357,33,75289,5,4,0:3:0:0:
215,93,75457,1,0,0:0:0:0:
387,147,75625,1,8,0:3:0:0:
203,201,75792,1,8,0:3:0:0:
381,370,75960,5,2,0:0:0:0:
382,194,76127,1,0,0:0:0:0:
385,171,76211,1,0,0:0:0:0:
387,147,76295,1,2,0:0:0:0:
230,297,76462,1,0,0:0:0:0:
233,320,76546,1,0,0:0:0:0:
238,346,76630,6,0,L|122:337,1,107.999996704102,4|0,0:3|0:0,0:0:0:0:
274,202,76965,2,0,L|390:193,1,107.999996704102,2|0,0:0|0:0,0:0:0:0:
506,337,77300,1,8,0:0:0:0:
318,358,77467,1,0,0:0:0:0:
319,114,77635,2,0,P|379:94|475:147,1,161.999995056153,2|0,0:0|0:0,0:0:0:0:
472,154,77970,6,0,L|463:278,1,107.999996704102,6|0,0:0|0:0,0:0:0:0:
235,181,78305,2,0,L|227:73,1,107.999996704102,12|0,0:0|0:0,0:0:0:0:
380,257,78641,2,0,L|371:381,1,107.999996704102,6|8,0:0|0:0,0:0:0:0:
142,276,78976,2,0,L|134:168,1,107.999996704102,8|0,0:0|0:0,0:0:0:0:
325,22,79311,5,4,0:3:0:0:
380,257,79479,1,0,0:0:0:0:
323,42,79646,1,0,0:0:0:0:
258,255,79814,1,0,0:0:0:0:
442,120,79981,6,0,P|420:133|370:136,1,53.9999983520508
203,121,80149,2,0,P|230:131|278:133,1,53.9999983520508
462,216,80317,1,0,0:0:0:0:
188,207,80484,1,0,0:0:0:0:
448,27,80652,5,8,0:3:0:0:
391,369,80819,1,2,0:3:0:0:
124,148,80987,1,8,0:3:0:0:
124,148,81071,1,0,0:0:0:0:
124,148,81154,2,0,B|87:194|99:261|146:290|146:290|137:257|158:219,1,215.999993408203,2|0,0:3|0:0,0:0:0:0:
225,273,81573,1,0,0:0:0:0:
225,273,81657,2,0,P|234:233|222:188,1,67.5
221,133,81992,5,12,0:0:0:0:
192,348,82160,1,0,0:0:0:0:
325,99,82328,5,8,0:3:0:0:
192,270,82496,1,2,0:3:0:0:
432,120,82663,5,8,0:3:0:0:
230,207,82831,1,2,0:3:0:0:
498,173,82998,2,0,P|517:116|486:55,1,107.999996704102,8|2,0:3|0:3,0:0:0:0:
325,99,83333,5,4,0:3:0:0:
354,313,83501,1,2,0:3:0:0:
221,64,83669,5,8,0:3:0:0:
354,235,83837,1,0,0:0:0:0:
114,85,84004,5,8,0:3:0:0:
314,174,84172,1,0,0:0:0:0:
31,156,84338,5,8,0:3:0:0:
248,133,84506,1,2,0:3:0:0:
51,242,84674,6,0,P|39:296|66:361,1,107.999996704102,8|0,0:0|0:0,0:0:0:0:
251,384,85009,1,8,0:0:0:0:
251,384,85177,1,0,0:0:0:0:
171,163,85344,1,8,0:0:0:0:
128,291,85512,1,0,0:0:0:0:
295,161,85680,1,8,0:0:0:0:
254,30,85847,1,0,0:0:0:0:
254,30,85931,1,0,0:0:0:0:
254,30,86015,5,8,0:3:0:0:
214,269,86182,1,8,0:3:0:0:
446,175,86350,1,8,0:3:0:0:
295,161,86518,1,8,0:3:0:0:
287,180,86853,2,0,P|281:213|293:250,1,53.9999983520508
414,384,87020,1,8,0:0:0:0:
437,351,87103,1,0,0:0:0:0:
443,311,87187,1,0,0:0:0:0:
431,273,87271,1,0,0:0:0:0:
404,244,87355,5,12,0:0:0:0:
200,354,87523,1,0,0:0:0:0:
327,104,87691,5,8,0:3:0:0:
223,357,87858,1,2,0:3:0:0:
194,69,88026,5,8,0:3:0:0:
248,360,88194,1,2,0:3:0:0:
62,139,88361,1,8,0:3:0:0:
62,139,88529,1,2,0:3:0:0:
318,21,88696,5,4,0:3:0:0:
281,255,88864,1,8,0:3:0:0:
189,14,89032,5,2,0:3:0:0:
203,259,89200,1,8,0:3:0:0:
61,24,89367,5,2,0:3:0:0:
121,276,89534,1,8,0:3:0:0:
257,169,89702,1,2,0:3:0:0:
297,166,89785,1,0,0:0:0:0:
333,183,89869,1,8,0:3:0:0:
359,214,89953,1,0,0:0:0:0:
367,253,90037,5,2,0:0:0:0:
161,352,90205,1,0,0:0:0:0:
203,68,90372,1,2,0:0:0:0:
433,168,90540,1,0,0:0:0:0:
464,210,90623,1,0,0:0:0:0:
472,263,90707,1,2,0:0:0:0:
453,312,90791,1,0,0:0:0:0:
413,348,90875,1,0,0:0:0:0:
360,359,90958,1,0,0:0:0:0:
309,344,91043,6,0,L|304:272,1,53.9999983520508,2|0,0:0|0:0,0:0:0:0:
288,72,91210,2,0,B|289:32|328:9|328:9|420:53|364:217|203:178|203:68|203:68|192:124|135:152,1,526.499975898744,4|0,0:3|0:0,0:0:0:0:
256,192,92803,12,0,95400,0:0:0:0:
