osu file format v14

[General]
AudioFilename: audio.mp3
AudioLeadIn: 0
PreviewTime: 59786
Countdown: 0
SampleSet: Soft
StackLeniency: 0.2
Mode: 0
LetterboxInBreaks: 0
WidescreenStoryboard: 0

[Editor]
Bookmarks: 19468,28361,40763,41769,52495,57858,59199,59870,79311,80652,81657,81992,87356,88696,90037,91378,95400
DistanceSpacing: 1
BeatDivisor: 4
GridSize: 8
TimelineZoom: 1.6

[Metadata]
Title:MY Mai*TONIGHT
TitleUnicode:MY舞☆TONIGHT
Artist:Aqours
ArtistUnicode:Aqours
Creator:My Angel Kanan
Version:newton's Insane
Source:ラブライブ!サンシャイン!!
Tags:Odore Love Live Sunshine School Idol Project Festival Insert song Kanan Matsuura 松浦果南 Nanaka Suwa 諏訪ななか Mari Ohara 小原鞠莉 Aina Suzuki 鈴木愛奈 Dia Kurosawa 黒澤ダイヤ Chika Takami 高海千歌 Inami Anju 伊波杏樹 Riko Sakurauchi 桜内梨子 Rikako Aida 逢田梨香子 You Watanabe 渡辺曜 Shuka Saito 斉藤朱夏 Yoshiko Tsushima 津島善子 Aika Kobayashi 小林愛香 Hanamaru Kunikida 国木田花丸 Kanako Takatsuki 高槻かなこ Ruby Kurosawa 黒澤ルビィ Ai Furihata 降幡愛 Kotori-Chan Akitoshi newton- sdafsf
BeatmapID:1472912
BeatmapSetID:684916

[Difficulty]
HPDrainRate:6
CircleSize:4
OverallDifficulty:8
ApproachRate:9.2
SliderMultiplier:1.6
SliderTickRate:1

[Events]
//Background and Video events
0,0,"A new BG.jpg",0,0
//Break Periods
2,39287,40162
//Storyboard Layer 0 (Background)
//Storyboard Layer 1 (Fail)
//Storyboard Layer 2 (Pass)
//Storyboard Layer 3 (Foreground)
//Storyboard Sound Samples

[TimingPoints]
100,810.810810810811,4,2,1,40,1,0
5775,-200,4,2,1,40,0,0
6586,-200,4,2,1,70,0,0
7397,-200,4,2,1,40,0,0
8208,-200,4,2,1,70,0,0
9018,-200,4,2,1,40,0,0
11451,-200,4,2,1,55,0,0
11856,-200,4,2,1,40,0,0
12262,-200,4,2,1,45,0,0
12667,-200,4,2,1,50,0,0
13072,-200,4,2,1,70,0,0
13478,-200,4,2,1,40,0,0
15099,857.142857142857,4,2,1,40,1,0
15527,-200,4,2,1,40,0,0
16357,571.428571428571,4,2,1,40,1,0
16928,685.714285714286,4,2,1,5,1,0
19468,372.670807453416,4,2,15,60,1,0
19468,-100,4,2,15,60,0,0
19647,335.195530726257,4,2,15,70,1,0
20317,335.195530726257,4,2,2,80,1,0
29032,-100,4,2,2,80,0,0
29367,-100,4,2,2,80,0,0
30205,-192.307692307692,4,2,2,80,0,0
30708,-192.307692307692,4,2,5,50,0,0
31043,-125,4,2,5,50,0,0
37579,-125,4,2,1,50,0,0
37914,-125,4,2,1,55,0,0
38082,-125,4,2,1,60,0,0
38249,-125,4,2,1,65,0,0
38417,-125,4,2,1,70,0,0
38585,-125,4,2,1,75,0,0
38752,-125,4,2,1,80,0,0
38920,-125,4,2,1,85,0,0
39087,-125,4,2,5,80,0,0
40763,-100,4,2,2,80,0,0
40931,-100,4,2,15,60,0,0
41769,-100,4,2,5,70,0,0
45121,-100,4,2,15,70,0,0
45791,-100,4,2,2,70,0,0
46797,-100,4,2,1,50,0,0
47132,-100,4,2,5,70,0,0
49143,-100,4,2,1,50,0,0
49814,-100,4,2,5,50,0,0
51154,-100,4,2,2,50,0,0
52495,-100,4,2,20,70,0,0
52830,-100,4,2,20,80,0,0
53166,-100,4,2,20,90,0,0
53501,-100,4,2,20,100,0,0
53836,-100,4,2,20,70,0,0
54171,-100,4,2,20,80,0,0
54506,-100,4,2,20,90,0,0
54842,-100,4,2,20,100,0,0
55177,-100,4,2,2,65,0,0
55512,-100,4,2,2,70,0,0
55847,-100,4,2,2,75,0,0
56182,-100,4,2,2,80,0,0
56518,-100,4,2,2,85,0,0
56853,-100,4,2,2,90,0,0
57188,-100,4,2,2,95,0,0
57523,-100,4,2,2,100,0,0
59115,-100,4,2,1,5,0,0
59199,-100,4,2,2,70,0,0
59870,-83.3333333333333,4,2,2,70,0,1
60121,-83.3333333333333,4,2,1,5,0,1
60205,-83.3333333333333,4,2,2,70,0,1
60456,-83.3333333333333,4,2,1,5,0,1
60540,-83.3333333333333,4,2,5,80,0,1
60875,-83.3333333333333,4,2,2,80,0,1
61462,-83.3333333333333,4,2,2,5,0,1
61546,-83.3333333333333,4,2,2,80,0,1
61797,-83.3333333333333,4,2,2,5,0,1
61881,-83.3333333333333,4,2,2,80,0,1
65400,-83.3333333333333,4,2,1,80,0,1
65903,-83.3333333333333,4,2,5,80,0,1
66238,-83.3333333333333,4,2,2,80,0,1
69925,-83.3333333333333,4,2,1,80,0,1
71266,-83.3333333333333,4,2,5,80,0,1
71601,-83.3333333333333,4,2,2,80,0,1
72272,-83.3333333333333,4,2,2,80,0,1
72607,-83.3333333333333,4,2,2,80,0,1
79311,-83.3333333333333,4,2,2,80,0,0
81657,-83.3333333333333,4,2,5,80,0,0
81992,-100,4,2,5,80,0,1
82328,-100,4,2,2,80,0,1
86015,-100,4,2,1,80,0,1
87020,-100,4,2,5,80,0,1
87691,-100,4,2,2,80,0,1
91210,-200,4,2,2,80,0,1
91378,-200,4,2,1,80,0,0
95400,-200,4,2,1,5,0,0

[Colours]
Combo1 : 214,148,201
Combo2 : 242,233,113
Combo3 : 117,228,238
Combo4 : 133,98,238

[HitObjects]
256,192,99,12,0,4963,0:0:0:0:
207,219,5775,6,0,P|246:223|283:208,1,80,8|4,0:3|0:0,0:0:0:0:
139,151,7397,6,0,P|115:182|110:222,1,80,8|4,0:3|0:0,0:0:0:0:
233,125,9018,38,0,P|218:88|186:64,1,80,8|8,0:3|0:3,0:0:0:0:
139,151,10234,1,2,0:0:0:0:
207,219,10639,1,8,0:3:0:0:
182,311,11044,1,2,0:0:0:0:
139,151,11450,5,12,0:3:0:0:
139,151,12262,1,8,0:3:0:0:
207,219,12667,1,8,0:3:0:0:
391,169,13071,37,4,0:0:0:0:
391,169,13882,1,0,0:0:0:0:
299,194,14288,1,8,0:3:0:0:
207,219,14694,6,0,P|183:219|154:211,1,40,0|8,0:0|0:3,0:0:0:0:
299,194,15527,2,0,P|311:214|316:237,1,40,0|8,0:0|0:3,0:0:0:0:
232,127,16357,1,0,0:0:0:0:
256,192,16499,12,0,18985,0:0:0:0:
207,219,19468,5,8,0:0:0:0:
207,219,19561,1,8,0:0:0:0:
207,219,19647,2,0,P|183:219|116:174,1,80,8|8,0:0|0:0,0:0:0:0:
276,165,19981,2,0,P|288:185|285:265,1,80,8|8,0:0|0:0,0:0:0:0:
195,133,20317,6,0,P|250:83|355:123,1,160,4|8,0:0|0:0,0:0:0:0:
276,165,20818,1,0,0:0:0:0:
114,101,20986,2,0,L|34:107,1,80,0|0,0:0|0:0,0:0:0:0:
47,194,21322,2,0,L|133:187,1,80,8|0,0:0|0:0,0:0:0:0:
276,165,21656,38,0,P|288:185|228:308,1,160,4|8,0:0|0:0,0:0:0:0:
207,219,22159,1,0,0:0:0:0:
329,95,22327,2,0,L|408:101,1,80,2|0,0:0|0:0,0:0:0:0:
276,165,22662,2,0,P|245:121|250:65,1,80,8|0,0:0|0:0,0:0:0:0:
362,13,22998,6,0,L|283:20,1,80,2|0,0:0|0:0,0:0:0:0:
162,89,23333,2,0,L|242:96,1,80,8|0,0:0|0:0,0:0:0:0:
84,130,23668,2,0,P|74:77|102:28,1,80,2|0,0:0|0:0,0:0:0:0:
161,12,24004,2,0,P|170:64|142:113,1,80,8|0,0:0|0:0,0:0:0:0:
84,130,24339,5,0,0:0:0:0:
6,172,24506,1,4,0:0:0:0:
14,257,24674,2,0,P|52:246|81:219,1,80,8|0,0:0|0:0,0:0:0:0:
159,177,25009,2,0,L|238:183,1,80
263,221,25261,1,0,0:0:0:0:
287,257,25344,2,0,L|366:250,1,80,8|0,0:0|0:0,0:0:0:0:
241,95,25679,6,0,L|161:88,1,80,4|0,0:0|0:0,0:0:0:0:
159,177,26015,2,0,L|238:183,1,80,8|0,0:0|0:0,0:0:0:0:
81,53,26350,2,0,P|72:91|83:129,1,80,2|0,0:0|0:0,0:0:0:0:
159,253,26685,2,0,P|168:214|158:176,1,80,8|0,0:0|0:0,0:0:0:0:
1,212,27020,38,0,L|80:218,1,80,2|0,0:0|0:0,0:0:0:0:
241,95,27356,2,0,L|161:88,1,80,8|0,0:0|0:0,0:0:0:0:
159,177,27691,1,2,0:0:0:0:
315,131,27858,1,0,0:0:0:0:
324,92,27942,1,0,0:0:0:0:
314,54,28026,2,0,L|318:6,1,40,8|0,0:0|0:0,0:0:0:0:
238,183,28194,2,0,L|242:230,1,40,8|0,0:0|0:0,0:0:0:0:
406,169,28361,6,0,P|444:179|472:206,1,80,8|2,0:3|0:3,0:0:0:0:
401,333,28696,2,0,P|390:294|400:256,1,80,8|2,0:3|0:3,0:0:0:0:
480,294,29032,1,8,0:3:0:0:
322,372,29199,1,8,0:3:0:0:
282,368,29283,1,8,0:3:0:0:
242,365,29367,1,8,0:3:0:0:
400,256,29534,1,8,0:3:0:0:
322,372,29702,38,0,L|242:365,1,80,4|0,0:3|0:0,0:0:0:0:
400,256,30036,1,0,0:0:0:0:
322,372,30205,6,0,B|297:369|297:369|282:361|282:361|266:366|266:366|227:364,1,83.1999994921875,4|0,0:3|0:0,0:0:0:0:
400,256,30707,1,8,0:0:0:0:
407,344,30874,1,8,0:0:0:0:
321,219,31043,6,0,P|345:187|445:175,1,128,4|0,0:0|0:0,0:0:0:0:
400,256,31546,1,0,0:0:0:0:
242,182,31712,2,0,L|106:193,1,128,8|0,0:0|0:0,0:0:0:0:
53,127,32215,1,8,0:0:0:0:
286,107,32383,2,0,P|325:156|321:219,1,128,8|0,0:0|0:0,0:0:0:0:
230,309,32886,2,0,L|241:181,1,128,8|0,0:0|0:0,0:0:0:0:
286,107,33388,1,8,0:0:0:0:
321,219,33556,1,8,0:0:0:0:
200,105,33724,6,0,P|223:46|279:19,1,128,2|0,0:0|0:0,0:0:0:0:
357,57,34226,1,8,0:0:0:0:
242,182,34395,2,0,L|106:193,1,128,8|0,0:0|0:0,0:0:0:0:
65,268,34897,1,8,0:0:0:0:
230,309,35065,2,0,L|241:181,1,128,8|8,0:0|0:0,0:0:0:0:
286,107,35567,2,0,P|310:128|323:156,1,64,8|0,0:0|0:0,0:0:0:0:
200,105,35902,2,0,P|223:46|279:19,1,128,2|0,0:0|0:0,0:0:0:0:
420,62,36405,6,0,L|357:57,1,64,4|0,0:0|0:0,0:0:0:0:
136,110,36741,2,0,L|199:104,1,64,8|0,0:0|0:0,0:0:0:0:
393,106,37076,2,0,P|380:78|356:57,1,64,8|0,0:0|0:0,0:0:0:0:
241,181,37410,1,8,0:0:0:0:
393,106,37579,1,0,0:0:0:0:
393,106,37663,1,0,0:0:0:0:
393,106,37747,6,0,P|380:78|356:57,1,64,8|0,0:0|0:0,0:0:0:0:
177,186,38082,2,0,L|240:180,1,64,8|8,0:3|0:3,0:0:0:0:
305,241,38416,1,8,0:3:0:0:
199,104,38584,1,8,0:3:0:0:
284,327,38751,1,8,0:3:0:0:
387,150,38919,1,8,0:3:0:0:
95,208,39086,5,6,0:3:0:0:
95,208,40762,5,2,0:3:0:0:
313,203,40931,6,0,L|307:164,1,40,8|8,0:0|0:0,0:0:0:0:
381,189,41099,2,0,L|378:150,1,40,8|8,0:0|0:0,0:0:0:0:
238,180,41266,6,0,L|241:219,1,40,8|8,0:0|0:0,0:0:0:0:
167,194,41434,2,0,L|173:233,1,40,8|8,0:0|0:0,0:0:0:0:
95,208,41601,2,0,L|98:247,1,40,8|8,0:0|0:0,0:0:0:0:
315,244,41769,6,0,L|307:156,1,80,4|0,0:0|0:0,0:0:0:0:
212,57,42104,1,8,0:0:0:0:
167,194,42272,1,0,0:0:0:0:
292,85,42439,2,0,L|371:92,1,80
167,194,42775,1,8,0:0:0:0:
132,29,42942,1,0,0:0:0:0:
247,222,43110,6,0,P|217:265|187:279,1,80
87,166,43444,1,8,0:0:0:0:
229,137,43612,2,0,P|281:141|308:160,1,80,0|0,0:0|0:0,0:0:0:0:
167,194,43947,1,0,0:0:0:0:
167,194,44031,1,0,0:0:0:0:
167,194,44114,1,8,0:0:0:0:
212,57,44282,1,0,0:0:0:0:
247,222,44450,6,0,P|281:240|321:240,1,80,2|0,0:0|0:0,0:0:0:0:
229,137,44785,1,8,0:0:0:0:
183,281,44952,1,0,0:0:0:0:
292,85,45120,1,8,0:0:0:0:
255,59,45205,1,8,0:0:0:0:
211,56,45289,1,8,0:0:0:0:
171,75,45372,1,8,0:0:0:0:
147,112,45456,2,0,L|152:175,1,40
247,223,45624,1,8,0:0:0:0:
371,78,45791,6,0,L|283:85,1,80,4|0,0:3|0:0,0:0:0:0:
229,137,46127,1,0,0:0:0:0:
465,151,46294,2,0,L|305:164,1,160,4|0,0:3|0:0,0:0:0:0:
247,223,46797,6,0,L|193:218,2,53.3333333333333
327,244,47132,6,0,P|308:279|276:301,1,80,4|0,0:0|0:0,0:0:0:0:
231,139,47467,2,0,P|249:103|281:81,1,80,8|0,0:0|0:0,0:0:0:0:
247,223,47803,2,0,P|207:222|172:203,1,80,8|0,0:0|0:0,0:0:0:0:
65,126,48138,2,0,L|144:119,1,80,8|0,0:0|0:0,0:0:0:0:
231,139,48473,5,8,0:0:0:0:
172,203,48641,1,0,0:0:0:0:
144,118,48808,1,8,0:0:0:0:
202,52,48976,1,8,0:0:0:0:
172,203,49143,2,0,L|92:209,1,80,8|8,0:3|0:3,0:0:0:0:
65,126,49478,2,0,L|144:119,1,80,8|8,0:3|0:3,0:0:0:0:
199,286,49813,5,4,0:0:0:0:
285,305,49980,1,0,0:0:0:0:
393,160,50149,2,0,L|314:154,1,80,8|0,0:0|0:0,0:0:0:0:
343,239,50484,2,0,L|423:246,1,80,8|0,0:0|0:0,0:0:0:0:
450,330,50819,2,0,L|370:323,1,80,8|8,0:0|0:0,0:0:0:0:
343,239,51071,1,0,0:0:0:0:
343,239,51154,6,0,L|422:245,1,80,4|0,0:3|0:0,0:0:0:0:
285,305,51489,1,0,0:0:0:0:
234,147,51656,2,0,L|393:160,1,160,4|0,0:3|0:0,0:0:0:0:
393,160,52076,1,8,0:0:0:0:
393,160,52159,1,8,0:0:0:0:
370,323,52327,1,8,0:0:0:0:
473,153,52495,6,0,L|393:159,1,80
285,305,52830,5,0,0:0:0:0:
285,305,52998,1,0,0:0:0:0:
429,259,53166,5,0,0:0:0:0:
429,259,53333,1,0,0:0:0:0:
256,221,53500,5,0,0:0:0:0:
370,323,53667,1,0,0:0:0:0:
393,160,53836,6,0,L|386:80,1,80,4|0,0:0|0:0,0:0:0:0:
256,221,54170,5,0,0:0:0:0:
429,259,54338,1,0,0:0:0:0:
220,122,54505,5,0,0:0:0:0:
393,160,54673,1,0,0:0:0:0:
189,302,54841,5,0,0:0:0:0:
184,23,55008,1,0,0:0:0:0:
256,221,55176,5,2,0:0:0:0:
117,104,55343,1,0,0:0:0:0:
189,302,55511,5,2,0:0:0:0:
220,122,55679,1,0,0:0:0:0:
85,285,55846,5,2,0:0:0:0:
256,221,56014,1,0,0:0:0:0:
49,186,56181,5,2,0:0:0:0:
189,302,56349,1,0,0:0:0:0:
117,104,56517,5,2,0:0:0:0:
85,285,56684,1,0,0:0:0:0:
256,221,56852,5,2,0:0:0:0:
49,186,57019,1,0,0:0:0:0:
324,139,57187,5,2,0:0:0:0:
117,104,57356,1,0,0:0:0:0:
392,57,57523,5,2,0:0:0:0:
185,22,57691,1,0,0:0:0:0:
256,221,57858,5,4,0:3:0:0:
256,192,57942,12,0,58864,0:0:0:0:
256,180,59198,5,2,0:3:0:0:
256,180,59366,1,2,0:3:0:0:
256,180,59533,1,2,0:3:0:0:
447,195,59870,6,0,L|343:185,1,95.9999970703126,8|0,0:0|0:0,0:0:0:0:
160,171,60204,2,0,L|255:179,1,95.9999970703126,8|0,0:0|0:0,0:0:0:0:
393,271,60540,6,0,P|436:214|348:188,1,191.999994140625,4|2,0:0|0:0,0:0:0:0:
298,265,61043,1,0,0:0:0:0:
308,100,61210,2,0,P|351:80|399:76,1,95.9999970703126,8|0,0:0|0:0,0:0:0:0:
255,179,61546,2,0,L|160:171,1,95.9999970703126,2|0,0:0|0:0,0:0:0:0:
8,237,61881,6,0,P|-25:173|66:162,1,191.999994140625,8|2,0:0|0:0,0:0:0:0:
102,247,62384,1,0,0:0:0:0:
218,92,62551,2,0,L|122:83,1,95.9999970703126,8|0,0:0|0:0,0:0:0:0:
64,159,62886,2,0,L|159:167,1,95.9999970703126,2|0,0:0|0:0,0:0:0:0:
291,265,63222,6,0,P|315:204|255:179,1,143.999995605469,4|0,0:3|0:0,0:0:0:0:
195,256,63557,2,0,L|290:264,1,95.9999970703126,8|8,0:3|0:3,0:0:0:0:
64,159,63892,6,0,P|52:95|116:81,1,143.999995605469,4|0,0:3|0:0,0:0:0:0:
159,168,64227,2,0,L|64:159,1,95.9999970703126,8|8,0:3|0:3,0:0:0:0:
101,246,64562,2,0,L|196:254,1,95.9999970703126,2|8,0:3|0:3,0:0:0:0:
211,89,64898,2,0,L|116:80,1,95.9999970703126,4|0,0:3|0:0,0:0:0:0:
255,178,65233,5,2,0:3:0:0:
300,166,65317,1,0,0:0:0:0:
335,196,65400,1,8,0:3:0:0:
331,242,65484,1,8,0:3:0:0:
290,264,65568,2,0,L|195:256,1,95.9999970703126,8|8,0:3|0:3,0:0:0:0:
117,85,65903,6,0,L|212:94,1,95.9999970703126,4|0,0:0|0:0,0:0:0:0:
160,170,66238,2,0,L|255:179,1,95.9999970703126,2|0,0:0|0:0,0:0:0:0:
386,256,66573,2,0,L|291:265,1,95.9999970703126,8|0,0:0|0:0,0:0:0:0:
343,341,66909,2,0,L|248:350,1,95.9999970703126,2|0,0:0|0:0,0:0:0:0:
255,178,67244,6,0,P|315:204|291:265,1,143.999995605469,12|0,0:0|0:0,0:0:0:0:
160,170,67579,2,0,L|255:179,1,95.9999970703126,2|0,0:0|0:0,0:0:0:0:
383,277,67914,6,0,P|330:315|290:264,1,143.999995605469,8|0,0:0|0:0,0:0:0:0:
478,286,68249,2,0,L|383:277,1,95.9999970703126,2|0,0:0|0:0,0:0:0:0:
160,170,68585,6,0,L|255:179,1,95.9999970703126,4|0,0:3|0:0,0:0:0:0:
382,276,68920,1,8,0:3:0:0:
402,117,69086,1,8,0:3:0:0:
290,264,69254,1,4,0:3:0:0:
438,202,69423,1,0,0:0:0:0:
311,106,69590,1,8,0:3:0:0:
382,276,69758,1,8,0:3:0:0:
255,179,69925,6,0,L|191:173,2,63.9999980468751,4|0|0,0:0|0:0|0:0,0:0:0:0:
402,117,70260,6,0,L|465:111,2,63.9999980468751,4|0|0,0:0|0:0|0:0,0:0:0:0:
255,179,70595,5,8,0:3:0:0:
234,167,70680,1,8,0:3:0:0:
221,147,70763,1,8,0:3:0:0:
219,123,70847,1,8,0:3:0:0:
228,101,70931,1,8,0:3:0:0:
247,86,71015,1,8,0:3:0:0:
270,82,71099,1,8,0:3:0:0:
293,89,71182,1,8,0:3:0:0:
310,107,71265,6,0,P|229:101|255:179,1,191.999994140625,4|2,0:0|0:0,0:0:0:0:
345,191,71768,1,0,0:0:0:0:
497,126,71936,2,0,L|402:117,1,95.9999970703126,8|0,0:0|0:0,0:0:0:0:
382,276,72271,2,0,L|477:285,1,95.9999970703126,2|0,0:0|0:0,0:0:0:0:
254,178,72606,6,0,P|208:245|288:262,1,191.999994140625,8|2,0:0|0:0,0:0:0:0:
345,191,73109,1,0,0:0:0:0:
275,23,73277,2,0,L|180:14,1,95.9999970703126,8|0,0:0|0:0,0:0:0:0:
158,168,73613,2,0,L|253:177,1,95.9999970703126,2|0,0:0|0:0,0:0:0:0:
382,276,73948,6,0,P|337:315|300:238,1,143.999995605469,4|0,0:3|0:0,0:0:0:0:
382,276,74283,2,0,L|477:285,1,95.9999970703126,8|8,0:3|0:3,0:0:0:0:
402,114,74618,6,0,P|337:123|344:187,1,143.999995605469,4|0,0:3|0:0,0:0:0:0:
497,123,74953,2,0,L|402:114,1,95.9999970703126,8|8,0:3|0:3,0:0:0:0:
249,178,75289,6,0,L|344:187,1,95.9999970703126,4|0,0:3|0:0,0:0:0:0:
366,28,75624,2,0,L|271:19,1,95.9999970703126,8|8,0:3|0:3,0:0:0:0:
344,187,75959,1,2,0:0:0:0:
402,114,76127,1,0,0:0:0:0:
402,114,76210,1,0,0:0:0:0:
402,114,76294,1,2,0:0:0:0:
249,178,76462,1,0,0:0:0:0:
381,279,76629,6,0,L|476:288,1,95.9999970703126,4|0,0:3|0:0,0:0:0:0:
344,187,76965,2,0,L|249:178,1,95.9999970703126,2|0,0:0|0:0,0:0:0:0:
402,114,77300,2,0,L|497:123,1,95.9999970703126,8|0,0:0|0:0,0:0:0:0:
366,28,77635,2,0,L|271:19,1,95.9999970703126,2|0,0:0|0:0,0:0:0:0:
153,169,77970,6,0,P|93:143|117:82,1,143.999995605469,6|0,0:0|0:0,0:0:0:0:
248,177,78305,2,0,L|153:168,1,95.9999970703126,12|0,0:0|0:0,0:0:0:0:
270,18,78641,6,0,P|330:44|306:105,1,143.999995605469,6|0,0:0|0:0,0:0:0:0:
174,8,78976,2,0,L|269:17,1,95.9999970703126,8|0,0:0|0:0,0:0:0:0:
248,177,79311,6,0,L|153:168,1,95.9999970703126,4|0,0:3|0:0,0:0:0:0:
306,104,79646,1,0,0:0:0:0:
283,264,79814,1,0,0:0:0:0:
152,167,79981,1,0,0:0:0:0:
176,170,80065,1,0,0:0:0:0:
200,172,80149,1,0,0:0:0:0:
224,174,80233,1,0,0:0:0:0:
248,177,80317,1,0,0:0:0:0:
340,190,80484,1,0,0:0:0:0:
226,340,80651,5,8,0:3:0:0:
306,104,80818,1,2,0:3:0:0:
375,276,80987,1,8,0:3:0:0:
95,243,81154,2,0,B|54:241|26:280|26:280|49:221|42:185|2:146,1,191.999994140625,2|0,0:3|0:0,0:0:0:0:
82,108,81657,2,0,B|104:133|110:153|110:153|129:153|150:166,1,95.9999970703126,8|0,0:0|0:0,0:0:0:0:
283,264,81992,6,0,L|289:184,1,80,12|0,0:0|0:0,0:0:0:0:
152,167,82328,5,8,0:3:0:0:
226,340,82495,1,2,0:3:0:0:
209,91,82663,5,8,0:3:0:0:
95,243,82830,1,2,0:3:0:0:
114,77,82998,5,2,0:3:0:0:
190,255,83166,1,2,0:3:0:0:
289,84,83333,6,0,L|209:90,1,80,4|2,0:3|0:3,0:0:0:0:
95,243,83668,5,8,0:3:0:0:
247,179,83836,1,2,0:3:0:0:
116,80,84003,5,8,0:3:0:0:
190,255,84170,1,2,0:3:0:0:
209,90,84338,5,8,0:3:0:0:
95,243,84505,1,2,0:3:0:0:
247,179,84674,6,0,L|326:172,1,80,8|0,0:0|0:0,0:0:0:0:
209,90,85009,2,0,L|289:84,1,80,8|0,0:0|0:0,0:0:0:0:
284,267,85344,2,0,L|363:260,1,80,8|0,0:0|0:0,0:0:0:0:
246,178,85680,2,0,L|326:172,1,80,8|0,0:0|0:0,0:0:0:0:
131,328,86014,5,8,0:3:0:0:
284,267,86181,1,8,0:3:0:0:
152,167,86349,1,8,0:3:0:0:
226,340,86518,2,0,B|269:358|269:358|400:345,1,160,8|0,0:3|0:0,0:0:0:0:
325,172,87020,2,0,L|245:178,1,80,8|0,0:0|0:0,0:0:0:0:
51,321,87356,6,0,L|130:327,1,80,12|0,0:0|0:0,0:0:0:0:
245,177,87691,5,8,0:3:0:0:
3,231,87857,1,2,0:3:0:0:
152,167,88025,5,8,0:3:0:0:
131,328,88193,1,2,0:3:0:0:
23,68,88360,5,8,0:3:0:0:
92,240,88528,1,2,0:3:0:0:
211,94,88696,6,0,L|290:100,1,80,4|8,0:3|0:3,0:0:0:0:
152,167,89031,5,2,0:3:0:0:
178,7,89198,1,8,0:3:0:0:
245,177,89366,5,2,0:3:0:0:
116,80,89533,1,8,0:3:0:0:
95,243,89701,5,2,0:3:0:0:
211,94,89869,1,8,0:3:0:0:
131,328,90037,6,0,L|52:334,1,80,2|0,0:0|0:0,0:0:0:0:
245,177,90372,2,0,L|324:183,1,80,2|0,0:0|0:0,0:0:0:0:
221,304,90708,1,2,0:0:0:0:
203,269,90791,1,0,0:0:0:0:
172,244,90875,1,0,0:0:0:0:
133,235,90959,1,0,0:0:0:0:
95,243,91043,1,2,0:0:0:0:
221,304,91210,6,0,B|272:288|315:324|315:324|346:355|399:364|433:314|435:271|394:226|342:238|328:257|325:283,1,340,4|0,0:3|0:0,0:0:0:0:
256,192,92802,12,0,95400,0:0:0:0:
