osu file format v14

[General]
AudioFilename: audio.mp3
AudioLeadIn: 0
PreviewTime: 59786
Countdown: 0
SampleSet: Soft
StackLeniency: 0.7
Mode: 0
LetterboxInBreaks: 0
WidescreenStoryboard: 0

[Editor]
Bookmarks: 17613
DistanceSpacing: 1
BeatDivisor: 4
GridSize: 32
TimelineZoom: 1

[Metadata]
Title:MY Mai*TONIGHT
TitleUnicode:MY舞☆TONIGHT
Artist:Aqours
ArtistUnicode:Aqours
Creator:My Angel Kanan
Version:Normal
Source:ラブライブ!サンシャイン!!
Tags:Odore Love Live Sunshine School Idol Project Festival Insert song Kanan Matsuura 松浦果南 Nanaka Suwa 諏訪ななか Mari Ohara 小原鞠莉 Aina Suzuki 鈴木愛奈 Dia Kurosawa 黒澤ダイヤ Chika Takami 高海千歌 Inami Anju 伊波杏樹 Riko Sakurauchi 桜内梨子 Rikako Aida 逢田梨香子 You Watanabe 渡辺曜 Shuka Saito 斉藤朱夏 Yoshiko Tsushima 津島善子 Aika Kobayashi 小林愛香 Hanamaru Kunikida 国木田花丸 Kanako Takatsuki 高槻かなこ Ruby Kurosawa 黒澤ルビィ Ai Furihata 降幡愛 Kotori-Chan Akitoshi newton- sdafsf
BeatmapID:1449854
BeatmapSetID:684916

[Difficulty]
HPDrainRate:4
CircleSize:3.5
OverallDifficulty:4
ApproachRate:5
SliderMultiplier:1.1
SliderTickRate:1

[Events]
//Background and Video events
0,0,"A new BG.jpg",0,0
//Break Periods
//Storyboard Layer 0 (Background)
//Storyboard Layer 1 (Fail)
//Storyboard Layer 2 (Pass)
//Storyboard Layer 3 (Foreground)
//Storyboard Sound Samples

[TimingPoints]
100,810.810810810811,4,2,1,40,1,0
5775,-50,4,2,1,40,0,0
6586,-50,4,2,1,70,0,0
7397,-50,4,2,1,40,0,0
8208,-50,4,2,1,70,0,0
9018,-50,4,2,1,40,0,0
11451,-50,4,2,1,55,0,0
11856,-50,4,2,1,40,0,0
12262,-50,4,2,1,45,0,0
12667,-50,4,2,1,50,0,0
13072,-50,4,2,1,70,0,0
13478,-50,4,2,1,40,0,0
15099,857.142857142857,4,2,1,40,1,0
15099,-50,4,2,1,40,0,0
16357,571.428571428571,4,2,1,40,1,0
16357,-50,4,2,1,40,0,0
16928,685.714285714286,4,2,1,5,1,0
19468,372.670807453416,4,2,15,60,1,0
19647,335.195530726257,4,2,15,70,1,0
20317,335.195530726257,4,2,2,80,1,0
29032,-100,4,2,1,80,0,0
29702,-100,4,2,2,80,0,0
30708,-100,4,2,5,50,0,0
37579,-100,4,2,1,50,0,0
37914,-100,4,2,1,55,0,0
38082,-100,4,2,1,60,0,0
38249,-100,4,2,1,65,0,0
38417,-100,4,2,1,70,0,0
38585,-100,4,2,1,75,0,0
38752,-100,4,2,1,80,0,0
38920,-100,4,2,1,85,0,0
39087,-100,4,2,5,80,0,0
40763,-100,4,2,2,80,0,0
40931,-100,4,2,15,60,0,0
41769,-100,4,2,5,70,0,0
45121,-100,4,2,15,70,0,0
45791,-100,4,2,2,70,0,0
46797,-100,4,2,1,50,0,0
47132,-100,4,2,5,70,0,0
49143,-100,4,2,1,50,0,0
49814,-100,4,2,5,50,0,0
51154,-100,4,2,2,50,0,0
52495,-100,4,2,20,70,0,0
52830,-100,4,2,20,80,0,0
53166,-100,4,2,20,90,0,0
53501,-100,4,2,20,100,0,0
53836,-100,4,2,20,70,0,0
54171,-100,4,2,20,80,0,0
54506,-100,4,2,20,90,0,0
54842,-100,4,2,20,100,0,0
55177,-100,4,2,2,65,0,0
55512,-100,4,2,2,70,0,0
55847,-100,4,2,2,75,0,0
56182,-100,4,2,2,80,0,0
56518,-100,4,2,2,85,0,0
56853,-100,4,2,2,90,0,0
57188,-100,4,2,2,95,0,0
57523,-100,4,2,2,100,0,0
57858,-100,4,2,2,100,0,0
59115,-100,4,2,1,5,0,0
59199,-100,4,2,2,70,0,0
59870,-100,4,2,2,70,0,0
60121,-100,4,2,1,5,0,0
60205,-100,4,2,2,70,0,0
60456,-100,4,2,1,5,0,0
60540,-100,4,2,5,80,0,1
60875,-100,4,2,2,80,0,1
61462,-100,4,2,2,5,0,1
61546,-100,4,2,2,80,0,1
61797,-100,4,2,2,5,0,1
61881,-100,4,2,2,80,0,1
65400,-100,4,2,1,80,0,1
65903,-100,4,2,5,80,0,1
66238,-100,4,2,2,80,0,1
69925,-100,4,2,1,80,0,1
71266,-100,4,2,5,80,0,1
71601,-100,4,2,2,80,0,1
72188,-100,4,2,2,5,0,1
72272,-100,4,2,2,80,0,1
72523,-100,4,2,2,5,0,1
72607,-100,4,2,2,80,0,1
81657,-100,4,2,5,80,0,0
81992,-100,4,2,5,80,0,1
82328,-100,4,2,2,80,0,1
86015,-100,4,2,1,80,0,1
87020,-100,4,2,5,80,0,1
87691,-100,4,2,2,80,0,1
91378,-100,4,2,1,80,0,0
95400,-100,4,2,1,5,0,0

[Colours]
Combo1 : 214,148,201
Combo2 : 242,233,113
Combo3 : 117,228,238
Combo4 : 133,98,238

[HitObjects]
37,50,5775,6,0,P|28:111|37:166,1,110,8|8,0:3|0:3,0:0:0:0:
82,260,6586,2,0,P|135:246|194:256,1,110,4|0,0:0|0:0,0:0:0:0:
277,319,7397,1,8,0:3:0:0:
381,354,7802,1,8,0:3:0:0:
465,283,8208,1,4,0:0:0:0:
395,74,9018,2,0,L|390:195,1,110,8|2,0:3|0:0,0:0:0:0:
284,215,9829,6,0,L|269:102,1,110,8|2,0:3|0:0,0:0:0:0:
168,61,10640,2,0,P|92:71|52:64,2,110,8|2|12,0:3|0:0|0:3,0:0:0:0:
269,105,11856,1,12,0:3:0:0:
360,43,12262,2,0,L|473:40,1,110,8|8,0:3|0:3,0:0:0:0:
476,149,13072,6,0,L|352:152,1,110,4|8,0:0|0:3,0:0:0:0:
259,123,13883,1,0,0:0:0:0:
201,217,14289,1,8,0:3:0:0:
224,324,14694,1,0,0:0:0:0:
326,306,15099,6,0,L|450:306,1,110,8|0,0:3|0:0,0:0:0:0:
491,211,15956,1,8,0:3:0:0:
256,192,16357,12,0,18642,0:0:0:0:
215,65,19647,6,0,L|280:65,1,55
323,76,19982,2,0,L|382:79,1,55
428,56,20317,2,0,P|416:116|425:177,1,110,4|8,0:0|0:0,0:0:0:0:
453,269,20987,1,0,0:0:0:0:
376,349,21322,1,8,0:0:0:0:
268,324,21657,6,0,L|151:327,1,110,4|8,0:0|0:0,0:0:0:0:
153,216,22328,2,0,L|276:213,1,110,2|8,0:0|0:0,0:0:0:0:
367,178,22998,2,0,P|356:107|359:60,2,110,2|8|2,0:0|0:0|0:0,0:0:0:0:
394,225,23836,1,0,0:0:0:0:
394,225,24004,1,8,0:0:0:0:
284,220,24339,6,0,L|170:220,1,110,4|8,0:0|0:0,0:0:0:0:
64,206,25009,2,0,L|61:146,1,55,0|0,0:0|0:0,0:0:0:0:
88,101,25344,2,0,L|90:44,1,55,8|0,0:0|0:0,0:0:0:0:
130,8,25680,2,0,P|195:18|248:8,1,110,4|8,0:0|0:0,0:0:0:0:
341,49,26350,1,2,0:0:0:0:
284,143,26685,1,8,0:0:0:0:
348,232,27020,6,0,P|401:233|464:228,1,110,2|8,0:0|0:0,0:0:0:0:
446,119,27691,2,0,P|393:118|330:122,1,110,2|8,0:0|0:0,0:0:0:0:
285,142,28194,1,0,0:0:0:0:
237,169,28361,2,0,P|190:178|126:175,1,110,8|8,0:3|0:3,0:0:0:0:
121,65,29032,2,0,P|168:56|232:59,1,110,8|8,0:3|0:3,0:0:0:0:
332,98,29702,6,0,B|390:113|390:113|494:92,2,165,4|4|8,0:3|0:3|0:0,0:0:0:0:
222,110,31043,6,0,P|216:168|227:226,1,110,4|0,0:0|0:0,0:0:0:0:
179,318,31713,2,0,P|119:308|59:318,1,110,8|0,0:0|0:0,0:0:0:0:
43,207,32384,2,0,B|57:122|57:122|36:41,2,165,8|8|8,0:0|0:0|0:0,0:0:0:0:
44,316,33724,6,0,L|116:318,1,55,2|0,0:0|0:0,0:0:0:0:
206,339,34227,2,0,L|276:338,1,55,8|8,0:0|0:0,0:0:0:0:
369,317,34730,1,0,0:0:0:0:
369,317,34898,1,8,0:0:0:0:
369,317,35065,2,0,P|358:260|373:186,1,110,8|8,0:0|0:0,0:0:0:0:
390,160,35568,2,0,P|320:162|280:153,1,110,8|2,0:0|0:0,0:0:0:0:
175,26,36406,5,4,0:0:0:0:
106,111,36741,2,0,P|100:169|105:222,1,110,8|8,0:0|0:0,0:0:0:0:
131,328,37411,1,8,0:0:0:0:
235,364,37747,2,0,B|294:351|294:351|353:366,1,110,8|8,0:3|0:3,0:0:0:0:
441,315,38417,2,0,L|439:258,1,55,8|8,0:3|0:3,0:0:0:0:
423,207,38752,1,8,0:3:0:0:
467,106,39087,5,6,0:3:0:0:
467,106,40763,1,2,0:3:0:0:
467,106,40931,2,0,B|384:96|384:128|294:103,1,165,8|8,0:0|0:0,0:0:0:0:
200,65,41769,2,0,P|140:55|78:64,1,110,4|8,0:0|0:0,0:0:0:0:
39,79,42272,1,0,0:0:0:0:
12,126,42439,2,0,P|18:185|11:241,1,110,0|8,0:0|0:0,0:0:0:0:
4,289,42942,1,0,0:0:0:0:
48,322,43110,6,0,B|128:311|128:311|178:324,2,110,0|8|0,0:0|0:0|0:0,0:0:0:0:
106,229,44115,2,0,L|176:228,1,55,8|0,0:0|0:0,0:0:0:0:
216,233,44451,2,0,P|211:171|221:120,1,110,2|8,0:0|0:0,0:0:0:0:
246,76,44953,1,0,0:0:0:0:
300,83,45121,2,0,L|374:82,2,55,8|8|8,0:0|0:0|0:0,0:0:0:0:
204,27,45791,6,0,L|136:26,1,55,4|0,0:3|0:0,0:0:0:0:
93,31,46127,1,0,0:0:0:0:
51,67,46294,2,0,P|74:134|48:237,1,165,4|8,0:3|0:3,0:0:0:0:
76,332,47132,1,4,0:0:0:0:
181,301,47467,2,0,B|238:283|285:318|285:318|352:283|408:301,1,220,8|8,0:0|0:0,0:0:0:0:
499,315,48473,6,0,B|471:266|507:189|507:189|463:177|421:193|421:193|388:144|421:52,1,330,8|8,0:0|0:3,0:0:0:0:
330,14,49814,1,4,0:0:0:0:
229,62,50149,2,0,P|163:57|105:59,2,110,8|8|8,0:0|0:0|0:0,0:0:0:0:
282,157,51154,6,0,B|274:226|274:226|290:326,2,165,4|4|8,0:3|0:3|0:0,0:0:0:0:
369,89,52495,2,0,P|436:80|479:91,2,110,0|0|0,0:0|0:0|0:0,0:0:0:0:
282,157,53501,1,0,0:0:0:0:
182,204,53836,6,0,P|113:211|70:200,2,110,4|0|0,0:0|0:0|0:0,0:0:0:0:
282,157,54842,1,0,0:0:0:0:
390,171,55177,2,0,L|394:291,1,110,2|2,0:0|0:0,0:0:0:0:
298,336,55847,2,0,L|183:338,1,110,2|2,0:0|0:0,0:0:0:0:
93,280,56518,2,0,L|91:167,1,110,2|2,0:0|0:0,0:0:0:0:
182,108,57188,2,0,L|307:107,1,110,2|2,0:0|0:0,0:0:0:0:
397,137,57858,6,0,B|434:145|473:132|473:132|485:187|463:231|463:231|412:278|335:231|335:231|356:275|334:311,1,385,4|0,0:3|0:0,0:0:0:0:
318,346,59199,2,0,L|251:341,2,55,2|2|2,0:3|0:3|0:3,0:0:0:0:
21,212,60540,6,0,L|21:91,1,110,4|2,0:0|0:0,0:0:0:0:
75,6,61210,1,8,0:0:0:0:
168,65,61546,1,2,0:0:0:0:
267,18,61881,2,0,P|322:7|381:15,1,110,8|2,0:0|0:0,0:0:0:0:
431,107,62551,1,8,0:0:0:0:
374,201,62886,1,2,0:0:0:0:
291,128,63222,6,0,B|173:131,2,110,4|8|4,0:3|0:3|0:3,0:0:0:0:
374,201,64227,1,8,0:3:0:0:
298,280,64562,2,0,L|169:284,1,110,4|2,0:3|0:3,0:0:0:0:
94,225,65233,2,0,L|94:162,1,55,2|8,0:3|0:3,0:0:0:0:
114,118,65568,2,0,L|115:55,1,55,8|8,0:3|0:3,0:0:0:0:
145,17,65903,6,0,P|210:29|269:15,1,110,4|2,0:0|0:0,0:0:0:0:
361,5,66573,2,0,P|423:-1|477:5,1,110,8|2,0:0|0:0,0:0:0:0:
491,111,67244,1,12,0:0:0:0:
405,179,67579,1,2,0:0:0:0:
470,267,67914,1,8,0:0:0:0:
382,334,68249,1,2,0:0:0:0:
284,281,68585,6,0,P|228:273|161:279,1,110,4|8,0:3|0:3,0:0:0:0:
67,301,69255,2,0,P|56:244|60:187,1,110,4|8,0:3|0:3,0:0:0:0:
103,92,69925,2,0,L|174:91,1,55,4|0,0:0|0:0,0:0:0:0:
211,106,70261,2,0,L|274:104,1,55,4|0,0:0|0:0,0:0:0:0:
320,111,70596,2,0,L|392:109,2,55,8|8|8,0:3|0:3|0:3,0:0:0:0:
262,204,71266,6,0,P|251:267|257:322,1,110,4|2,0:0|0:0,0:0:0:0:
357,353,71937,1,8,0:0:0:0:
463,323,72272,1,2,0:0:0:0:
490,216,72607,2,0,P|485:171|490:100,1,110,8|2,0:0|0:0,0:0:0:0:
421,19,73277,1,8,0:0:0:0:
321,65,73613,1,2,0:0:0:0:
218,26,73948,6,0,L|93:26,1,110,4|8,0:3|0:3,0:0:0:0:
106,135,74618,2,0,L|226:134,1,110,4|8,0:3|0:3,0:0:0:0:
302,202,75289,2,0,L|411:199,1,110,4|8,0:3|0:3,0:0:0:0:
437,306,75959,2,0,L|370:306,1,55,2|0,0:0|0:0,0:0:0:0:
328,318,76294,2,0,L|266:318,1,55,2|0,0:0|0:0,0:0:0:0:
224,343,76629,6,0,P|230:283|217:231,1,110,4|2,0:3|0:0,0:0:0:0:
164,138,77300,2,0,P|143:89|135:23,1,110,8|2,0:0|0:0,0:0:0:0:
244,21,77970,1,6,0:0:0:0:
335,82,78305,1,12,0:0:0:0:
427,21,78641,1,6,0:0:0:0:
483,115,78976,1,8,0:0:0:0:
408,196,79311,6,0,L|405:326,1,110,4|0,0:3|0:0,0:0:0:0:
300,338,79981,2,0,L|180:338,1,110,0|0,0:0|0:0,0:0:0:0:
172,229,80652,2,0,P|182:171|178:115,1,110,8|8,0:3|0:3,0:0:0:0:
164,67,81154,1,2,0:3:0:0:
197,23,81322,2,0,L|263:23,2,55,0|0|8,0:0|0:0|0:0,0:0:0:0:
110,90,81992,5,12,0:0:0:0:
73,193,82328,1,8,0:3:0:0:
131,286,82663,1,8,0:3:0:0:
240,287,82998,1,8,0:3:0:0:
303,197,83333,2,0,L|421:198,2,110,4|8|8,0:3|0:3|0:3,0:0:0:0:
240,287,84339,1,8,0:3:0:0:
194,187,84674,6,0,L|200:75,2,110,8|8|8,0:0|0:0|0:0,0:0:0:0:
240,287,85680,1,8,0:0:0:0:
336,339,86015,2,0,P|390:349|448:339,1,110,8|8,0:3|0:3,0:0:0:0:
465,289,86518,1,0,0:0:0:0:
483,237,86685,2,0,P|470:186|473:110,1,110,0|8,0:0|0:0,0:0:0:0:
474,18,87356,5,12,0:0:0:0:
368,48,87691,1,8,0:3:0:0:
263,13,88026,1,8,0:3:0:0:
167,67,88361,1,8,0:3:0:0:
210,167,88696,2,0,L|209:294,2,110,4|2|2,0:3|0:3|0:3,0:0:0:0:
167,67,89702,1,2,0:3:0:0:
273,92,90037,6,0,L|385:89,2,110,2|2|2,0:0|0:0|0:0,0:0:0:0:
167,67,91043,1,0,0:0:0:0:
167,67,91210,1,0,0:0:0:0:
256,192,91378,12,0,95400,0:0:0:0:
