osu file format v14

[General]
AudioFilename: audio.mp3
AudioLeadIn: 0
PreviewTime: 59786
Countdown: 0
SampleSet: Soft
StackLeniency: 0.4
Mode: 0
LetterboxInBreaks: 0
WidescreenStoryboard: 0

[Editor]
Bookmarks: 19468,28361,40763,41769,52495,57858,59199,59870,79311,80652,81657,81992,87356,88696,90037,91378,95400
DistanceSpacing: 0.9
BeatDivisor: 4
GridSize: 4
TimelineZoom: 3.999998

[Metadata]
Title:MY Mai*TONIGHT
TitleUnicode:MY舞☆TONIGHT
Artist:Aqours
ArtistUnicode:Aqours
Creator:My Angel Kanan
Version:Kotori's Insane
Source:ラブライブ!サンシャイン!!
Tags:Odore Love Live Sunshine School Idol Project Festival Insert song Kanan Matsuura 松浦果南 Nanaka Suwa 諏訪ななか Mari Ohara 小原鞠莉 Aina Suzuki 鈴木愛奈 Dia Kurosawa 黒澤ダイヤ Chika Takami 高海千歌 Inami Anju 伊波杏樹 Riko Sakurauchi 桜内梨子 Rikako Aida 逢田梨香子 You Watanabe 渡辺曜 Shuka Saito 斉藤朱夏 Yoshiko Tsushima 津島善子 Aika Kobayashi 小林愛香 Hanamaru Kunikida 国木田花丸 Kanako Takatsuki 高槻かなこ Ruby Kurosawa 黒澤ルビィ Ai Furihata 降幡愛 Kotori-Chan Akitoshi newton- sdafsf
BeatmapID:1464035
BeatmapSetID:684916

[Difficulty]
HPDrainRate:5.5
CircleSize:4.3
OverallDifficulty:7
ApproachRate:9
SliderMultiplier:1.5
SliderTickRate:1

[Events]
//Background and Video events
0,0,"A new BG.jpg",0,0
//Break Periods
//Storyboard Layer 0 (Background)
//Storyboard Layer 1 (Fail)
//Storyboard Layer 2 (Pass)
//Storyboard Layer 3 (Foreground)
//Storyboard Sound Samples

[TimingPoints]
100,810.810810810811,4,2,1,40,1,0
5775,-50,4,2,1,40,0,0
6586,-50,4,2,1,70,0,0
7397,-50,4,2,1,40,0,0
8208,-50,4,2,1,70,0,0
9018,-50,4,2,1,40,0,0
11451,-50,4,2,1,55,0,0
11856,-50,4,2,1,40,0,0
12262,-50,4,2,1,45,0,0
12667,-50,4,2,1,50,0,0
13072,-50,4,2,1,70,0,0
13478,-50,4,2,1,40,0,0
15099,857.142857142857,4,2,1,40,1,0
15099,-50,4,2,1,40,0,0
16357,571.428571428571,4,2,1,40,1,0
16357,-200,4,2,1,40,0,0
16928,685.714285714286,4,2,1,5,1,0
19468,372.670807453416,4,2,15,60,1,0
19647,335.195530726257,4,2,15,70,1,0
20317,335.195530726257,4,2,2,80,1,0
29032,-100,4,2,1,80,0,0
29702,-76.9230769230769,4,2,2,80,0,0
30708,-100,4,2,5,50,0,0
37579,-100,4,2,1,50,0,0
37914,-100,4,2,1,55,0,0
38082,-100,4,2,1,60,0,0
38249,-100,4,2,1,65,0,0
38417,-100,4,2,1,70,0,0
38585,-100,4,2,1,75,0,0
38752,-100,4,2,1,80,0,0
38920,-100,4,2,1,85,0,0
39087,-66.6666666666667,4,2,5,80,0,0
40763,-66.6666666666667,4,2,2,80,0,0
40931,-66.6666666666667,4,2,15,60,0,0
41769,-100,4,2,5,70,0,0
45121,-100,4,2,15,70,0,0
45791,-83.3333333333333,4,2,2,70,0,0
46797,-100,4,2,1,50,0,0
47132,-100,4,2,5,70,0,0
49143,-100,4,2,1,50,0,0
49814,-100,4,2,5,50,0,0
51154,-100,4,2,2,50,0,0
52495,-100,4,2,20,70,0,0
52830,-100,4,2,20,80,0,0
53166,-100,4,2,20,90,0,0
53501,-100,4,2,20,100,0,0
53836,-100,4,2,20,70,0,0
54171,-100,4,2,20,80,0,0
54506,-100,4,2,20,90,0,0
54842,-100,4,2,20,100,0,0
55177,-83.3333333333333,4,2,2,65,0,0
55512,-83.3333333333333,4,2,2,70,0,0
55847,-83.3333333333333,4,2,2,75,0,0
56182,-83.3333333333333,4,2,2,80,0,0
56518,-83.3333333333333,4,2,2,85,0,0
56853,-83.3333333333333,4,2,2,90,0,0
57188,-83.3333333333333,4,2,2,95,0,0
57523,-83.3333333333333,4,2,2,100,0,0
57858,-90.9090909090909,4,2,2,100,0,0
59115,-90.9090909090909,4,2,1,5,0,0
59199,-90.9090909090909,4,2,2,70,0,0
59870,-100,4,2,2,70,0,0
60121,-100,4,2,1,5,0,0
60205,-100,4,2,2,70,0,0
60456,-100,4,2,1,5,0,0
60540,-90.9090909090909,4,2,5,80,0,1
60875,-90.9090909090909,4,2,2,80,0,1
61462,-90.9090909090909,4,2,2,5,0,1
61546,-90.9090909090909,4,2,2,80,0,1
61797,-90.9090909090909,4,2,2,5,0,1
61881,-90.9090909090909,4,2,2,80,0,1
65400,-90.9090909090909,4,2,1,80,0,1
65903,-90.9090909090909,4,2,5,80,0,1
66238,-90.9090909090909,4,2,2,80,0,1
69925,-90.9090909090909,4,2,1,80,0,1
71266,-90.9090909090909,4,2,5,80,0,1
71601,-90.9090909090909,4,2,2,80,0,1
72188,-90.9090909090909,4,2,2,5,0,1
72272,-90.9090909090909,4,2,2,80,0,1
72523,-90.9090909090909,4,2,2,5,0,1
72607,-90.9090909090909,4,2,2,80,0,1
81322,-90.9090909090909,4,2,2,80,0,1
81657,-90.9090909090909,4,2,5,80,0,0
81992,-90.9090909090909,4,2,5,80,0,1
82328,-90.9090909090909,4,2,2,80,0,1
86015,-90.9090909090909,4,2,1,80,0,1
87020,-90.9090909090909,4,2,5,80,0,1
87691,-90.9090909090909,4,2,2,80,0,1
91378,-100,4,2,1,80,0,0
95400,-100,4,2,1,5,0,0

[Colours]
Combo1 : 214,148,201
Combo2 : 242,233,113
Combo3 : 117,228,238
Combo4 : 133,98,238

[HitObjects]
188,96,5775,6,0,P|256:69|324:96,2,150,8|8|4,0:3|0:3|0:0,0:0:0:0:
324,288,7397,2,0,P|256:315|188:288,2,150,8|8|4,0:3|0:3|0:0,0:0:0:0:
190,42,9018,6,0,B|190:78|156:106|156:106|190:134|190:170,1,150,8|2,0:3|0:0,0:0:0:0:
256,248,9829,1,8,0:3:0:0:
323,169,10235,1,2,0:0:0:0:
322,42,10640,1,8,0:3:0:0:
190,42,11045,1,2,0:0:0:0:
190,169,11451,2,0,B|256:204|256:204|322:169,1,150,12|12,0:3|0:3,0:0:0:0:
256,76,12262,5,8,0:3:0:0:
256,200,12667,1,8,0:3:0:0:
324,280,13072,2,0,P|255:252|187:279,1,150,4|8,0:0|0:3,0:0:0:0:
128,204,13883,5,0,0:0:0:0:
208,152,14289,1,8,0:3:0:0:
256,76,14694,1,0,0:0:0:0:
304,152,15099,1,8,0:3:0:0:
384,204,15527,1,0,0:0:0:0:
432,284,15956,1,8,0:3:0:0:
256,192,16357,12,0,19156,0:0:0:0:
163,280,19468,6,0,L|123:252,1,37.5
191,308,19647,1,8,0:0:0:0:
191,308,19730,1,8,0:0:0:0:
191,308,19814,1,8,0:0:0:0:
191,308,19898,1,8,0:0:0:0:
191,308,19982,1,8,0:0:0:0:
191,308,20065,1,8,0:0:0:0:
191,308,20149,1,8,0:0:0:0:
191,308,20233,1,8,0:0:0:0:
191,308,20317,6,0,P|255:276|320:308,1,150,4|8,0:0|0:0,0:0:0:0:
404,348,20819,1,0,0:0:0:0:
480,252,20987,2,0,B|457:246|445:239|445:239|433:246|410:252,1,75
272,196,21322,2,0,B|295:190|307:183|307:183|319:190|342:196,1,75,8|0,0:0|0:0,0:0:0:0:
327,77,21657,2,0,B|256:101|256:101|185:77,1,150,4|8,0:0|0:0,0:0:0:0:
256,20,22160,1,0,0:0:0:0:
327,77,22328,6,0,B|327:114|327:114|356:138,1,75,2|0,0:0|0:0,0:0:0:0:
185,77,22663,2,0,B|184:114|184:114|155:138,1,75,8|0,0:0|0:0,0:0:0:0:
328,212,22998,2,0,B|360:212|360:232|400:232,1,75,2|0,0:0|0:0,0:0:0:0:
184,212,23333,2,0,B|152:212|152:232|112:232,1,75,8|0,0:0|0:0,0:0:0:0:
328,288,23668,2,0,B|337:299|337:299|337:345|337:345|328:356,1,75,2|0,0:0|0:0,0:0:0:0:
184,288,24004,2,0,B|175:299|175:299|175:345|175:345|184:356,1,75,8|0,0:0|0:0,0:0:0:0:
256,120,24339,2,0,B|256:182|256:182|252:190|252:190|260:190|260:190|256:198|256:198|256:260,1,150,4|8,0:0|0:0,0:0:0:0:
256,260,24842,5,0,0:0:0:0:
333,169,25009,2,0,P|361:192|398:199,1,75
179,169,25344,2,0,P|150:192|113:199,1,75,8|0,0:0|0:0,0:0:0:0:
192,63,25680,2,0,B|237:55|256:28|256:28|275:55|320:63,1,150,4|8,0:0|0:0,0:0:0:0:
412,112,26182,1,0,0:0:0:0:
468,197,26350,6,0,B|483:230|483:230|468:265,1,75,2|0,0:0|0:0,0:0:0:0:
392,238,26685,2,0,B|376:271|376:271|392:306,1,75,8|0,0:0|0:0,0:0:0:0:
305,179,27020,2,0,B|317:157|317:157|324:152|324:152|318:148|318:148|325:143|325:143|338:121,1,75,2|0,0:0|0:0,0:0:0:0:
207,179,27356,2,0,B|194:157|194:157|187:152|187:152|193:148|193:148|186:143|186:143|174:121,1,75,8|0,0:0|0:0,0:0:0:0:
120,238,27691,2,0,B|135:271|135:271|120:306,1,75,2|0,0:0|0:0,0:0:0:0:
44,197,28026,2,0,B|28:230|28:230|44:265,1,75,8|0,0:0|0:0,0:0:0:0:
136,64,28361,5,8,0:3:0:0:
256,190,28529,1,2,0:3:0:0:
376,64,28696,1,8,0:3:0:0:
256,200,28864,1,2,0:3:0:0:
136,74,29032,1,8,0:3:0:0:
128,81,29115,1,8,0:3:0:0:
121,88,29199,1,8,0:3:0:0:
113,96,29283,1,8,0:3:0:0:
106,103,29367,1,8,0:3:0:0:
98,111,29450,1,8,0:3:0:0:
91,118,29534,1,8,0:3:0:0:
84,125,29618,1,8,0:3:0:0:
78,133,29702,6,0,P|114:220|202:257,1,194.999991073609,4|0,0:3|0:0,0:0:0:0:
434,132,30205,2,0,P|397:220|309:257,1,194.999991073609,4|0,0:3|0:0,0:0:0:0:
256,168,30708,1,8,0:0:0:0:
164,112,30875,1,8,0:0:0:0:
256,64,31043,6,0,B|312:64|312:64|348:84|348:84|404:84,1,150,4|0,0:0|0:0,0:0:0:0:
488,56,31546,1,8,0:0:0:0:
476,144,31713,2,0,L|413:206,1,75,8|0,0:0|0:0,0:0:0:0:
321,323,32216,1,8,0:0:0:0:
321,323,32384,2,0,P|256:291|191:323,1,150,8|0,0:0|0:0,0:0:0:0:
89,277,32886,2,0,B|129:265|143:228|143:228|129:193|89:181,1,150,8|0,0:0|0:0,0:0:0:0:
30,112,33389,5,8,0:0:0:0:
109,70,33557,1,8,0:0:0:0:
186,113,33724,2,0,B|248:113|248:113|256:110|256:110|256:118|256:118|264:113|264:113|326:113,1,150,2|0,0:0|0:0,0:0:0:0:
403,70,34227,1,8,0:0:0:0:
452,145,34395,2,0,B|412:157|398:192|398:192|412:229|452:241,1,150,8|0,0:0|0:0,0:0:0:0:
400,314,34897,1,8,0:0:0:0:
400,314,35065,2,0,B|328:335|328:335|256:314,1,150,8|8,0:0|0:0,0:0:0:0:
220,226,35568,2,0,P|256:235|292:226,1,75,8|0,0:0|0:0,0:0:0:0:
321,127,35903,2,0,P|256:95|191:127,1,150,2|0,0:0|0:0,0:0:0:0:
108,192,36406,6,0,P|117:228|108:264,1,75,4|0,0:0|0:0,0:0:0:0:
131,343,36741,2,0,P|167:352|203:343,1,75,8|0,0:0|0:0,0:0:0:0:
220,262,37076,2,0,P|256:253|292:262,1,75,8|0,0:0|0:0,0:0:0:0:
360,341,37411,1,8,0:0:0:0:
416,256,37579,6,8,B|432:264|432:264|456:256,2,37.5,8|8|8,0:3|0:3|0:3,0:3:0:0:
376,116,37914,1,8,0:3:0:0:
376,116,38082,1,8,0:3:0:0:
255,191,38249,1,8,0:3:0:0:
255,191,38417,1,8,0:3:0:0:
136,116,38585,1,8,0:3:0:0:
136,116,38753,1,8,0:3:0:0:
255,83,38920,1,8,0:3:0:0:
255,83,39087,6,0,B|279:139|231:147|255:191,1,112.500004291535,6|0,0:3|0:0,0:0:0:0:
108,132,40763,5,2,0:3:0:0:
192,100,40931,5,8,0:0:0:0:
206,103,41014,1,8,0:0:0:0:
220,107,41098,1,8,0:0:0:0:
233,114,41182,1,8,0:0:0:0:
245,122,41266,1,8,0:0:0:0:
254,133,41349,1,8,0:0:0:0:
264,125,41433,1,8,0:0:0:0:
275,116,41517,1,8,0:0:0:0:
288,109,41601,1,8,0:0:0:0:
302,104,41685,1,8,0:0:0:0:
316,100,41769,6,0,B|380:61|380:61|444:100,1,150,4|8,0:0|0:0,0:0:0:0:
384,187,42272,1,0,0:0:0:0:
384,187,42439,2,0,B|320:226|320:226|256:187,1,150,0|8,0:0|0:0,0:0:0:0:
188,116,42942,1,0,0:0:0:0:
108,56,43110,2,0,P|76:120|108:185,1,150,0|8,0:0|0:0,0:0:0:0:
168,264,43613,5,0,0:0:0:0:
256,322,43780,1,0,0:0:0:0:
344,264,43948,1,0,0:0:0:0:
344,264,44032,1,0,0:0:0:0:
344,264,44115,1,8,0:0:0:0:
256,206,44283,1,0,0:0:0:0:
168,264,44451,6,0,B|156:303|119:317|119:317|82:303|70:264,1,150,2|8,0:0|0:0,0:0:0:0:
68,168,44953,1,0,0:0:0:0:
136,96,45121,1,8,0:0:0:0:
136,96,45205,1,8,0:0:0:0:
136,96,45289,1,8,0:0:0:0:
136,96,45372,1,8,0:0:0:0:
136,96,45456,1,8,0:0:0:0:
136,96,45540,1,8,0:0:0:0:
136,96,45624,1,8,0:0:0:0:
136,96,45708,1,8,0:0:0:0:
136,96,45791,6,0,B|204:184|204:184|184:252,1,179.999994506836,4|0,0:3|0:0,0:0:0:0:
376,96,46294,2,0,B|308:184|308:184|327:249,1,179.999994506836,4|0,0:3|0:0,0:0:0:0:
256,320,46797,6,0,L|256:376,2,50,8|8|8,0:3|0:3|0:3,0:0:0:0:
220,256,47132,2,0,P|256:265|292:256,1,75,4|0,0:0|0:0,0:0:0:0:
326,164,47467,2,0,B|264:164|264:164|256:161|256:161|256:169|256:169|248:164|248:164|186:164,2,150,8|8|8,0:0|0:0|0:0,0:0:0:0:
395,94,48305,1,0,0:0:0:0:
395,94,48473,2,0,B|428:76|428:76|461:94,1,75,8|0,0:0|0:0,0:0:0:0:
494,185,48808,1,8,0:0:0:0:
419,248,48976,1,8,0:0:0:0:
361,161,49143,2,0,L|396:90,3,75,8|8|8|8,0:3|0:3|0:3|0:3,0:0:0:0:
292,55,49814,6,0,P|255:64|219:55,1,75,4|0,0:0|0:0,0:0:0:0:
158,131,50149,2,0,P|94:164|30:131,2,150,8|8|8,0:0|0:0|0:0,0:0:0:0:
256,92,50987,1,8,0:0:0:0:
289,191,51154,2,0,B|256:209|256:209|223:191,1,75,4|0,0:3|0:0,0:0:0:0:
352,133,51490,1,0,0:0:0:0:
323,229,51657,2,0,B|256:263|256:263|189:229,1,150,4|0,0:3|0:0,0:0:0:0:
52,136,52160,2,0,B|85:118|85:118|118:136,1,75,8|8,0:0|0:0,0:0:0:0:
189,229,52495,5,0,0:0:0:0:
189,229,52663,1,0,0:0:0:0:
323,229,52830,1,0,0:0:0:0:
323,229,52998,1,0,0:0:0:0:
144,332,53166,1,0,0:0:0:0:
144,332,53334,1,0,0:0:0:0:
368,332,53501,1,0,0:0:0:0:
368,332,53669,1,0,0:0:0:0:
291,164,53836,6,0,B|267:157|256:150|256:150|244:158|221:163,1,75,4|0,0:0|0:0,0:0:0:0:
152,90,54171,1,0,0:0:0:0:
152,90,54339,1,0,0:0:0:0:
256,36,54506,1,0,0:0:0:0:
256,36,54674,1,0,0:0:0:0:
360,90,54842,1,0,0:0:0:0:
360,90,55010,1,0,0:0:0:0:
456,210,55177,6,0,P|416:192|376:210,1,89.9999972534181,2|0,0:0|0:0,0:0:0:0:
416,316,55512,2,0,P|376:334|336:316,1,89.9999972534181,2|0,0:0|0:0,0:0:0:0:
376,209,55847,6,0,P|336:191|296:209,1,89.9999972534181,2|0,0:0|0:0,0:0:0:0:
336,316,56182,2,0,P|296:334|256:316,1,89.9999972534181,2|0,0:0|0:0,0:0:0:0:
296,208,56518,6,0,P|256:190|216:208,1,89.9999972534181,2|0,0:0|0:0,0:0:0:0:
256,316,56853,2,0,P|216:334|176:316,1,89.9999972534181,2|0,0:0|0:0,0:0:0:0:
216,207,57188,6,0,P|176:189|136:207,1,89.9999972534181,2|0,0:0|0:0,0:0:0:0:
176,316,57523,2,0,P|136:334|96:316,1,89.9999972534181,2|0,0:0|0:0,0:0:0:0:
108,80,57858,6,0,B|152:120|220:88|220:88|340:120|337:216|256:265|175:216|172:120|292:88|292:88|360:120|404:80,1,618.750018882752,4|0,0:3|0:0,0:0:0:0:
404,80,59199,5,2,0:3:0:0:
409,85,59367,1,2,0:3:0:0:
414,90,59534,1,2,0:3:0:0:
363,262,59870,2,0,B|299:262|299:262|267:258|255:242,1,112.5,8|0,0:0|0:0,0:0:0:0:
149,262,60205,2,0,B|213:262|213:262|245:258|256:242,1,112.5,8|0,0:0|0:0,0:0:0:0:
332,139,60540,2,0,B|281:137|256:112|256:112|231:137|180:139,1,165.000005035401,4|2,0:0|0:0,0:0:0:0:
87,176,61043,5,0,0:0:0:0:
27,270,61210,2,0,B|83:296|83:296|139:270,1,123.75000377655,8|0,0:0|0:0,0:0:0:0:
144,232,61546,2,0,B|200:206|200:206|256:232,1,123.75000377655,2|0,0:0|0:0,0:0:0:0:
257,269,61881,2,0,B|329:309|329:309|401:269,1,165.000005035401,8|2,0:0|0:0,0:0:0:0:
460,192,62384,1,0,0:0:0:0:
426,99,62551,2,0,P|389:83|352:99,1,82.5000025177003,8|0,0:0|0:0,0:0:0:0:
256,185,62886,2,0,P|293:201|330:185,1,82.5000025177003,2|0,0:0|0:0,0:0:0:0:
196,64,63222,6,0,B|196:120|196:120|172:144|172:144|172:224,1,165.000005035401,4|8,0:3|0:3,0:0:0:0:
256,280,63724,1,8,0:3:0:0:
316,64,63892,2,0,B|316:120|316:120|340:144|340:144|340:224,1,165.000005035401,4|8,0:3|0:3,0:0:0:0:
256,280,64395,1,8,0:3:0:0:
185,184,64562,2,0,P|256:148|327:184,1,165.000005035401,4|2,0:3|0:3,0:0:0:0:
388,261,65065,1,8,0:3:0:0:
452,184,65233,1,2,0:3:0:0:
388,92,65400,1,8,0:3:0:0:
381,87,65484,1,8,0:3:0:0:
374,82,65568,1,8,0:3:0:0:
366,77,65652,1,8,0:3:0:0:
358,73,65735,1,8,0:3:0:0:
350,69,65819,1,8,0:3:0:0:
341,67,65903,6,0,B|284:67|284:67|253:89|253:89|184:89,1,165.000005035401,4|2,0:0|0:0,0:0:0:0:
99,145,66406,1,0,0:0:0:0:
66,236,66573,2,0,B|79:254|98:261|98:261|117:254|130:236,1,82.5000025177003,8|0,0:0|0:0,0:0:0:0:
224,182,66909,2,0,B|237:164|256:157|256:157|275:164|288:182,1,82.5000025177003,2|0,0:0|0:0,0:0:0:0:
305,303,67244,2,0,B|272:294|256:358|256:358|240:294|207:303,1,165.000005035401,12|2,0:0|0:0,0:0:0:0:
256,208,67747,1,0,0:0:0:0:
305,303,67914,2,0,B|329:335|329:335|373:335,1,82.5000025177003,8|0,0:0|0:0,0:0:0:0:
207,303,68249,2,0,B|183:335|183:335|139:335,1,82.5000025177003,2|0,0:0|0:0,0:0:0:0:
152,208,68585,6,0,B|204:120|204:120|172:60,1,165.000005035401,4|8,0:3|0:3,0:0:0:0:
256,16,69087,1,8,0:3:0:0:
360,208,69255,2,0,B|308:120|308:120|340:60,1,165.000005035401,4|8,0:3|0:3,0:0:0:0:
256,16,69758,1,8,0:3:0:0:
203,121,69925,2,0,L|181:158,2,41.2500012588501,4|0|0,0:0|0:0|0:0,0:0:0:0:
338,173,70261,2,0,L|360:210,2,41.2500012588501,4|0|0,0:0|0:0|0:0,0:0:0:0:
206,267,70596,1,8,0:3:0:0:
201,273,70680,1,8,0:3:0:0:
196,279,70763,1,8,0:3:0:0:
190,285,70847,1,8,0:3:0:0:
183,290,70931,1,8,0:3:0:0:
176,295,71015,1,8,0:3:0:0:
169,300,71099,1,8,0:3:0:0:
162,304,71182,1,8,0:3:0:0:
154,307,71266,6,0,P|78:282|53:206,1,165.000005035401,4|2,0:0|0:0,0:0:0:0:
104,120,71769,5,0,0:0:0:0:
203,94,71937,2,0,P|256:121|309:94,1,123.75000377655,8|0,0:0|0:0,0:0:0:0:
309,62,72272,2,0,P|255:34|202:61,1,123.75000377655,2|0,0:0|0:0,0:0:0:0:
256,124,72607,2,0,B|256:193|256:193|260:201|260:201|251:201|251:201|256:209|256:209|256:278,1,165.000005035401,8|2,0:0|0:0,0:0:0:0:
256,277,73110,1,0,0:0:0:0:
341,204,73277,6,0,B|362:194|380:194|380:194|381:176|390:154,1,82.5000025177003,8|0,0:0|0:0,0:0:0:0:
171,204,73613,2,0,B|149:194|131:194|131:194|130:176|121:154,1,82.5000025177003,2|0,0:0|0:0,0:0:0:0:
321,86,73948,6,0,P|256:129|191:86,1,165.000005035401,4|8,0:3|0:3,0:0:0:0:
256,44,74451,1,8,0:3:0:0:
316,160,74618,2,0,B|318:211|343:236|343:236|318:261|316:312,1,165.000005035401,4|8,0:3|0:3,0:0:0:0:
256,372,75121,1,8,0:3:0:0:
196,160,75289,2,0,B|194:211|169:236|169:236|194:261|196:312,1,165.000005035401,4|8,0:3|0:3,0:0:0:0:
256,372,75791,1,8,0:3:0:0:
320,260,75959,6,0,L|379:319,1,82.5000025177003,2|0,0:0|0:0,0:0:0:0:
192,260,76294,2,0,L|132:319,1,82.5000025177003,2|0,0:0|0:0,0:0:0:0:
32,144,76629,2,0,B|104:104|104:104|176:144,1,165.000005035401,4|2,0:3|0:0,0:0:0:0:
256,212,77132,1,0,0:0:0:0:
336,144,77300,2,0,B|357:136|370:123|370:123|384:135|406:144,1,82.5000025177003,8|0,0:0|0:0,0:0:0:0:
421,251,77635,2,0,B|442:243|455:230|455:230|469:242|491:251,1,82.5000025177003,2|0,0:0|0:0,0:0:0:0:
321,296,77970,2,0,P|256:339|191:296,2,165.000005035401,6|12|6,0:0|0:0|0:0,0:0:0:0:
292,222,78808,1,8,0:0:0:0:
292,222,78976,2,0,P|256:239|220:222,1,82.5000025177003,8|0,0:0|0:0,0:0:0:0:
136,75,79311,6,0,B|169:78|200:48|200:48|310:106|386:191|256:259|126:191|202:106|312:48|312:48|343:78|376:75,1,577.500017623902,4|0,0:3|0:0,0:0:0:0:
419,134,80652,5,8,0:3:0:0:
470,237,80819,1,2,0:3:0:0:
460,153,80987,5,8,0:3:0:0:
510,255,81154,1,2,0:3:0:0:
368,312,81657,6,0,L|320:245,1,82.5000025177003,8|0,0:0|0:0,0:0:0:0:
144,312,81992,2,0,L|192:245,1,82.5000025177003,12|0,0:0|0:0,0:0:0:0:
352,64,82328,1,8,0:3:0:0:
256,192,82495,1,2,0:3:0:0:
256,36,82663,5,8,0:3:0:0:
256,192,82830,1,2,0:3:0:0:
160,64,82998,5,8,0:3:0:0:
256,192,83165,1,2,0:3:0:0:
24,192,83333,2,0,L|112:192,1,82.5000025177003,4|2,0:3|0:3,0:0:0:0:
256,192,83668,1,8,0:3:0:0:
160,320,83835,1,2,0:3:0:0:
256,192,84003,5,8,0:3:0:0:
256,348,84170,1,2,0:3:0:0:
256,192,84338,5,8,0:3:0:0:
352,320,84505,1,2,0:3:0:0:
340,120,84674,2,0,B|349:98|361:84|361:84|348:71|340:50,1,82.5000025177003,8|0,0:0|0:0,0:0:0:0:
172,120,85009,2,0,B|163:98|151:84|151:84|164:71|172:50,1,82.5000025177003,8|0,0:0|0:0,0:0:0:0:
331,226,85344,2,0,P|367:243|403:226,1,82.5000025177003,8|0,0:0|0:0,0:0:0:0:
181,226,85680,2,0,P|145:243|109:226,1,82.5000025177003,8|0,0:0|0:0,0:0:0:0:
172,120,86015,5,8,0:3:0:0:
340,120,86182,1,8,0:3:0:0:
181,127,86350,1,8,0:3:0:0:
330,127,86517,1,8,0:3:0:0:
368,312,87020,6,0,B|332:288|332:288|316:248,1,82.5000025177003,8|0,0:0|0:0,0:0:0:0:
144,312,87356,2,0,B|180:288|180:288|194:251,1,82.5000025177003,12|0,0:0|0:0,0:0:0:0:
292,62,87691,1,8,0:3:0:0:
336,214,87858,1,2,0:3:0:0:
344,62,88026,1,8,0:3:0:0:
388,214,88193,1,2,0:3:0:0:
396,62,88361,1,8,0:3:0:0:
440,214,88528,1,2,0:3:0:0:
292,62,88696,6,0,P|256:79|220:62,1,82.5000025177003,4|8,0:3|0:3,0:0:0:0:
72,214,89032,1,2,0:3:0:0:
116,62,89199,1,8,0:3:0:0:
124,214,89367,1,2,0:3:0:0:
168,62,89534,1,8,0:3:0:0:
176,214,89702,1,2,0:3:0:0:
220,62,89869,1,8,0:3:0:0:
336,214,90037,6,0,B|349:232|368:239|368:239|387:232|400:214,1,82.5000025177003,2|0,0:0|0:0,0:0:0:0:
176,214,90372,2,0,B|163:232|144:239|144:239|125:232|112:214,1,82.5000025177003,2|0,0:0|0:0,0:0:0:0:
366,316,90708,2,0,B|379:334|398:341|398:341|417:334|430:316,1,82.5000025177003,2|0,0:0|0:0,0:0:0:0:
256,156,91043,1,2,0:0:0:0:
256,344,91210,1,4,0:3:0:0:
256,192,91378,12,0,95400,0:0:0:0:
