osu file format v14

[General]
AudioFilename: audio.mp3
AudioLeadIn: 0
PreviewTime: 59786
Countdown: 0
SampleSet: Soft
StackLeniency: 0.7
Mode: 0
LetterboxInBreaks: 0
WidescreenStoryboard: 0

[Editor]
DistanceSpacing: 1
BeatDivisor: 2
GridSize: 32
TimelineZoom: 1

[Metadata]
Title:MY Mai*TONIGHT
TitleUnicode:MY舞☆TONIGHT
Artist:Aqours
ArtistUnicode:Aqours
Creator:My Angel Kanan
Version:Easy
Source:ラブライブ!サンシャイン!!
Tags:Odore Love Live Sunshine School Idol Project Festival Insert song Kanan Matsuura 松浦果南 Nanaka Suwa 諏訪ななか Mari Ohara 小原鞠莉 Aina Suzuki 鈴木愛奈 Dia Kurosawa 黒澤ダイヤ Chika Takami 高海千歌 Inami Anju 伊波杏樹 Riko Sakurauchi 桜内梨子 Rikako Aida 逢田梨香子 You Watanabe 渡辺曜 Shuka Saito 斉藤朱夏 Yoshiko Tsushima 津島善子 Aika Kobayashi 小林愛香 Hanamaru Kunikida 国木田花丸 Kanako Takatsuki 高槻かなこ Ruby Kurosawa 黒澤ルビィ Ai Furihata 降幡愛 Kotori-Chan Akitoshi newton- sdafsf
BeatmapID:1449499
BeatmapSetID:684916

[Difficulty]
HPDrainRate:2.5
CircleSize:3
OverallDifficulty:3
ApproachRate:3.5
SliderMultiplier:0.9
SliderTickRate:1

[Events]
//Background and Video events
0,0,"A new BG.jpg",0,0
//Break Periods
2,16557,18877
//Storyboard Layer 0 (Background)
//Storyboard Layer 1 (Fail)
//Storyboard Layer 2 (Pass)
//Storyboard Layer 3 (Foreground)
//Storyboard Sound Samples

[TimingPoints]
100,810.810810810811,4,2,1,40,1,0
5775,-50,4,2,1,40,0,0
6586,-50,4,2,1,70,0,0
7397,-50,4,2,1,40,0,0
8208,-50,4,2,1,70,0,0
9018,-50,4,2,1,40,0,0
11451,-50,4,2,1,55,0,0
11856,-50,4,2,1,40,0,0
12262,-50,4,2,1,45,0,0
12667,-50,4,2,1,50,0,0
13072,-50,4,2,1,70,0,0
13478,-50,4,2,1,40,0,0
15099,857.142857142857,4,2,1,40,1,0
15099,-50,4,2,1,40,0,0
16357,571.428571428571,4,2,1,40,1,0
16357,-50,4,2,1,40,0,0
16928,685.714285714286,4,2,1,5,1,0
19468,372.670807453416,4,2,15,60,1,0
19647,335.195530726257,4,2,15,70,1,0
20317,335.195530726257,4,2,2,80,1,0
29032,-100,4,2,1,80,0,0
29702,-100,4,2,2,80,0,0
30708,-100,4,2,5,50,0,0
37579,-100,4,2,1,50,0,0
37914,-100,4,2,1,55,0,0
38082,-100,4,2,1,60,0,0
38249,-100,4,2,1,65,0,0
38417,-100,4,2,1,70,0,0
38585,-100,4,2,1,75,0,0
38752,-100,4,2,1,80,0,0
38920,-100,4,2,1,85,0,0
39087,-100,4,2,5,80,0,0
40763,-100,4,2,2,80,0,0
40931,-100,4,2,15,60,0,0
41769,-100,4,2,5,70,0,0
45121,-100,4,2,15,70,0,0
45791,-100,4,2,2,70,0,0
46797,-100,4,2,1,50,0,0
47132,-100,4,2,5,70,0,0
49143,-100,4,2,1,50,0,0
49814,-100,4,2,5,50,0,0
51154,-100,4,2,2,50,0,0
52495,-100,4,2,20,70,0,0
52830,-100,4,2,20,80,0,0
53166,-100,4,2,20,90,0,0
53501,-100,4,2,20,100,0,0
53836,-100,4,2,20,70,0,0
54171,-100,4,2,20,80,0,0
54506,-100,4,2,20,90,0,0
54842,-100,4,2,20,100,0,0
55177,-100,4,2,2,65,0,0
55512,-100,4,2,2,70,0,0
55847,-100,4,2,2,75,0,0
56182,-100,4,2,2,80,0,0
56518,-100,4,2,2,85,0,0
56853,-100,4,2,2,90,0,0
57188,-100,4,2,2,95,0,0
57523,-100,4,2,2,100,0,0
57858,-100,4,2,2,100,0,0
59115,-100,4,2,1,5,0,0
59199,-100,4,2,2,70,0,0
59870,-100,4,2,2,70,0,0
60121,-100,4,2,1,5,0,0
60205,-100,4,2,2,70,0,0
60456,-100,4,2,1,5,0,0
60540,-100,4,2,5,80,0,1
60875,-100,4,2,2,80,0,1
61462,-100,4,2,2,5,0,1
61546,-100,4,2,2,80,0,1
61797,-100,4,2,2,5,0,1
61881,-100,4,2,2,80,0,1
65400,-100,4,2,1,80,0,1
65903,-100,4,2,5,80,0,1
66238,-100,4,2,2,80,0,1
69925,-100,4,2,1,80,0,1
71266,-100,4,2,5,80,0,1
71601,-100,4,2,2,80,0,1
72188,-100,4,2,2,5,0,1
72272,-100,4,2,2,80,0,1
72523,-100,4,2,2,5,0,1
72607,-100,4,2,2,80,0,1
81657,-100,4,2,5,80,0,0
81992,-100,4,2,5,80,0,1
82328,-100,4,2,2,80,0,1
86015,-100,4,2,1,80,0,1
87020,-100,4,2,5,80,0,1
87691,-100,4,2,2,80,0,1
91378,-100,4,2,1,80,0,0
95400,-100,4,2,1,5,0,0

[Colours]
Combo1 : 214,148,201
Combo2 : 242,233,113
Combo3 : 117,228,238
Combo4 : 133,98,238

[HitObjects]
57,39,5775,5,8,0:3:0:0:
114,108,6181,1,8,0:3:0:0:
79,191,6586,2,0,P|60:291|83:375,1,180,4|8,0:0|0:3,0:0:0:0:
166,345,7802,1,8,0:3:0:0:
255,330,8208,2,0,P|306:337|361:328,1,90,4|0,0:0|0:0,0:0:0:0:
428,293,9018,2,0,P|421:238|423:197,1,90,8|2,0:3|0:0,0:0:0:0:
449,117,9829,6,0,B|265:126|265:126,2,180,8|8|12,0:3|0:3|0:3,0:0:0:0:
288,35,12262,1,8,0:3:0:0:
199,19,12667,1,8,0:3:0:0:
116,55,13072,2,0,P|121:111|118:161,1,90,4|8,0:0|0:3,0:0:0:0:
90,229,13883,2,0,P|75:292|75:345,1,90,0|8,0:0|0:3,0:0:0:0:
154,356,14694,1,0,0:0:0:0:
230,318,15100,6,0,B|323:298|323:298|414:310,1,180,8|0,0:3|0:0,0:0:0:0:
488,342,16357,5,0,0:0:0:0:
393,55,20317,6,0,P|413:142|385:245,1,180,4|0,0:0|0:0,0:0:0:0:
333,296,21322,1,8,0:0:0:0:
259,243,21657,2,0,B|201:260|201:260|133:249|133:249|74:271,1,180,4|2,0:0|0:0,0:0:0:0:
29,195,22663,1,8,0:0:0:0:
83,123,22998,6,0,L|83:28,2,90,2|8|2,0:0|0:0|0:0,0:0:0:0:
165,159,24004,1,8,0:0:0:0:
247,123,24339,2,0,P|301:116|352:126,1,90,4|8,0:0|0:0,0:0:0:0:
422,144,25009,1,0,0:0:0:0:
394,229,25344,1,8,0:0:0:0:
427,312,25680,6,0,L|236:311,1,180,4|2,0:0|0:0,0:0:0:0:
173,258,26685,1,8,0:0:0:0:
246,206,27020,2,0,B|324:194|324:194|385:213|428:202,1,180,2|2,0:0|0:0,0:0:0:0:
477,130,28026,1,8,0:0:0:0:
389,110,28361,6,0,L|387:11,1,90,8|8,0:3|0:3,0:0:0:0:
297,15,29032,2,0,L|190:15,1,90,8|8,0:3|0:3,0:0:0:0:
130,62,29702,2,0,B|126:113|126:113|141:155|141:155|139:198,2,135,4|4|8,0:3|0:3|0:0,0:0:0:0:
210,101,31043,6,0,P|254:97|310:101,1,90,4|0,0:0|0:0,0:0:0:0:
375,147,31713,2,0,P|434:153|480:148,1,90,8|0,0:0|0:0,0:0:0:0:
502,232,32384,2,0,B|466:261|461:286|461:286|422:279|394:287,2,135,8|8|8,0:0|0:0|0:0,0:0:0:0:
464,150,33724,6,0,L|360:148,1,90,2|0,0:0|0:0,0:0:0:0:
284,155,34395,2,0,L|186:154,1,90,8|0,0:0|0:0,0:0:0:0:
126,94,35065,2,0,B|86:82|64:58|64:58|-7:59,2,135,8|8|0,0:0|0:0|0:0,0:0:0:0:
88,175,36406,5,4,0:0:0:0:
123,257,36741,2,0,L|124:368,1,90,8|8,0:0|0:0,0:0:0:0:
212,362,37411,1,8,0:0:0:0:
299,341,37747,2,0,P|290:283|299:239,1,90,8|8,0:3|0:3,0:0:0:0:
328,169,38417,2,0,P|333:116|330:72,1,90,8|8,0:3|0:3,0:0:0:0:
261,22,39087,1,6,0:3:0:0:
261,22,40931,2,0,B|224:64|288:64|256:160,1,135,8|8,0:0|0:0,0:0:0:0:
241,238,41769,6,0,P|178:233|147:237,1,90,4|8,0:0|0:0,0:0:0:0:
93,167,42439,2,0,P|99:115|92:70,1,90,0|8,0:0|0:0,0:0:0:0:
163,20,43110,2,0,B|214:51|256:29|256:29|295:49|348:18,1,180
419,38,44115,1,8,0:0:0:0:
379,118,44451,6,0,P|387:160|382:211,1,90,2|8,0:0|0:0,0:0:0:0:
317,268,45121,2,0,P|270:262|221:269,1,90,8|8,0:0|0:0,0:0:0:0:
147,306,45791,2,0,B|159:263|134:234|134:234|158:187|146:166,2,135,4|4|8,0:3|0:3|0:3,0:0:0:0:
225,350,47132,5,4,0:0:0:0:
304,308,47467,2,0,B|363:309|400:284|400:284|437:318|477:311,1,180,8|8,0:0|0:0,0:0:0:0:
461,222,48473,2,0,B|441:189|451:137|451:137|391:155|354:126,1,180,8|8,0:0|0:3,0:0:0:0:
204,219,49814,6,0,B|142:232|90:163|90:163|128:89|202:75,1,270
279,64,51154,2,0,B|329:52|376:58|376:58|412:43,2,135,4|4|8,0:3|0:3|0:0,0:0:0:0:
249,149,52495,2,0,B|158:174|160:129|70:153,1,180
3,212,53501,1,0,0:0:0:0:
15,293,53836,6,0,B|84:282|120:299|120:299|142:265|122:230,1,180,4|0,0:0|0:0,0:0:0:0:
71,153,54842,1,0,0:0:0:0:
105,69,55177,2,0,P|162:57|202:64,1,90,2|2,0:0|0:0,0:0:0:0:
268,112,55847,2,0,P|322:120|358:117,1,90,2|2,0:0|0:0,0:0:0:0:
435,72,56518,5,2,0:0:0:0:
487,145,56853,1,2,0:0:0:0:
441,222,57188,2,0,L|442:326,1,90,2|2,0:0|0:0,0:0:0:0:
358,345,57858,2,0,B|308:320|254:348|254:348|214:371|155:362|155:362|194:270|148:185,1,360,4|2,0:3|0:3,0:0:0:0:
161,216,60540,6,0,P|163:179|156:124,1,90,4|2,0:0|0:0,0:0:0:0:
127,41,61210,1,8,0:0:0:0:
209,5,61546,1,2,0:0:0:0:
278,62,61881,2,0,L|379:62,1,90,8|2,0:0|0:0,0:0:0:0:
437,119,62551,2,0,P|427:170|432:215,1,90,8|2,0:0|0:0,0:0:0:0:
419,297,63222,6,0,B|348:288|348:288|296:307|232:290,1,180,4|4,0:3|0:3,0:0:0:0:
174,232,64227,1,8,0:3:0:0:
244,176,64562,2,0,P|240:128|248:71,1,90,4|2,0:3|0:3,0:0:0:0:
185,18,65233,1,2,0:3:0:0:
101,50,65568,1,8,0:3:0:0:
41,117,65903,6,0,L|42:220,1,90,4|2,0:0|0:0,0:0:0:0:
87,284,66573,2,0,L|86:380,1,90,8|2,0:0|0:0,0:0:0:0:
174,354,67244,2,0,P|262:333|361:360,1,180,12|8,0:0|0:0,0:0:0:0:
423,304,68249,1,2,0:0:0:0:
472,228,68585,6,0,P|466:178|470:133,1,90,4|8,0:3|0:3,0:0:0:0:
443,52,69255,2,0,P|391:60|352:52,1,90,4|8,0:3|0:3,0:0:0:0:
267,31,69925,1,4,0:0:0:0:
203,94,70261,1,4,0:0:0:0:
239,176,70596,2,0,L|240:275,1,90,8|8,0:3|0:3,0:0:0:0:
166,317,71266,6,0,P|114:311|74:314,1,90,4|2,0:0|0:0,0:0:0:0:
32,234,71937,1,8,0:0:0:0:
19,144,72272,1,2,0:0:0:0:
29,54,72607,2,0,P|73:48|125:53,1,90,8|2,0:0|0:0,0:0:0:0:
201,85,73277,2,0,P|251:94|311:85,1,90,8|2,0:0|0:0,0:0:0:0:
379,79,73948,6,0,P|364:170|392:261,1,180,4|4,0:3|0:3,0:0:0:0:
353,334,74953,1,8,0:3:0:0:
282,277,75289,2,0,P|266:229|265:183,1,90,4|8,0:3|0:3,0:0:0:0:
287,103,75959,1,2,0:0:0:0:
230,32,76294,1,2,0:0:0:0:
147,68,76629,6,0,L|45:68,1,90,4|2,0:3|0:0,0:0:0:0:
27,153,77300,2,0,L|27:246,1,90,8|2,0:0|0:0,0:0:0:0:
78,316,77970,2,0,B|154:293|154:293|201:311|259:302,1,180,6|6,0:0|0:0,0:0:0:0:
332,260,78976,1,8,0:0:0:0:
309,172,79311,6,0,B|328:143|331:105|331:105|282:115|252:92|252:92|217:153|222:218,1,270,4|0,0:3|0:0,0:0:0:0:
227,293,80652,1,8,0:3:0:0:
288,358,80987,2,0,P|342:368|385:360,1,90,8|0,0:3|0:0,0:0:0:0:
452,314,81657,1,0,0:0:0:0:
402,239,81992,6,0,P|392:190|395:145,1,90,12|8,0:0|0:3,0:0:0:0:
345,74,82663,2,0,P|301:80|241:75,2,90,8|8|4,0:3|0:3|0:3,0:0:0:0:
394,150,83668,2,0,P|392:195|402:239,1,90,8|8,0:3|0:3,0:0:0:0:
351,314,84339,1,8,0:3:0:0:
270,273,84674,6,0,P|219:266|172:272,1,90,8|8,0:0|0:0,0:0:0:0:
94,295,85344,2,0,P|46:302|-2:293,1,90,8|8,0:0|0:0,0:0:0:0:
49,216,86015,2,0,L|45:33,1,180,8|0,0:3|0:0,0:0:0:0:
133,20,87020,1,8,0:0:0:0:
211,64,87356,6,0,L|321:64,1,90,12|8,0:0|0:3,0:0:0:0:
386,92,88026,2,0,P|377:137|382:184,2,90,8|8|4,0:3|0:3|0:3,0:0:0:0:
301,64,89032,1,2,0:3:0:0:
216,34,89367,2,0,P|173:30|125:35,1,90,2|2,0:3|0:3,0:0:0:0:
51,83,90037,5,2,0:0:0:0:
87,165,90372,1,2,0:0:0:0:
50,247,90708,2,0,L|48:348,1,90,2|2,0:0|0:0,0:0:0:0:
256,192,91378,12,0,95400,0:0:0:0:
