osu file format v14

[General]
AudioFilename: audio.mp3
AudioLeadIn: 0
PreviewTime: 59786
Countdown: 0
SampleSet: Soft
StackLeniency: 0.7
Mode: 0
LetterboxInBreaks: 0
WidescreenStoryboard: 0

[Editor]
DistanceSpacing: 1.5
BeatDivisor: 4
GridSize: 32
TimelineZoom: 1

[Metadata]
Title:MY Mai*TONIGHT
TitleUnicode:MY舞☆TONIGHT
Artist:Aqours
ArtistUnicode:Aqours
Creator:My Angel Kanan
Version:Akitoshi's Hard
Source:ラブライブ!サンシャイン!!
Tags:Odore Love Live Sunshine School Idol Project Festival Insert song Kanan Matsuura 松浦果南 Nanaka Suwa 諏訪ななか Mari Ohara 小原鞠莉 Aina Suzuki 鈴木愛奈 Dia Kurosawa 黒澤ダイヤ Chika Takami 高海千歌 Inami Anju 伊波杏樹 Riko Sakurauchi 桜内梨子 Rikako Aida 逢田梨香子 You Watanabe 渡辺曜 Shuka Saito 斉藤朱夏 Yoshiko Tsushima 津島善子 Aika Kobayashi 小林愛香 Hanamaru Kunikida 国木田花丸 Kanako Takatsuki 高槻かなこ Ruby Kurosawa 黒澤ルビィ Ai Furihata 降幡愛 Kotori-Chan Akitoshi newton- sdafsf
BeatmapID:1452251
BeatmapSetID:684916

[Difficulty]
HPDrainRate:5
CircleSize:4
OverallDifficulty:6
ApproachRate:7.5
SliderMultiplier:1.3
SliderTickRate:1

[Events]
//Background and Video events
0,0,"A new BG.jpg",0,0
//Break Periods
//Storyboard Layer 0 (Background)
//Storyboard Layer 1 (Fail)
//Storyboard Layer 2 (Pass)
//Storyboard Layer 3 (Foreground)
//Storyboard Sound Samples

[TimingPoints]
100,810.810810810811,4,2,1,40,1,0
6586,-50,4,2,1,70,0,0
7397,-50,4,2,1,40,0,0
8208,-50,4,2,1,70,0,0
9018,-50,4,2,1,40,0,0
11451,-50,4,2,1,55,0,0
11856,-50,4,2,1,40,0,0
12262,-50,4,2,1,45,0,0
12667,-50,4,2,1,50,0,0
13072,-50,4,2,1,70,0,0
13478,-50,4,2,1,40,0,0
15099,857.142857142857,4,2,1,40,1,0
15099,-50,4,2,1,40,0,0
16357,571.428571428571,4,2,1,40,1,0
16928,685.714285714286,4,2,1,5,1,0
19468,372.670807453416,4,2,15,60,1,0
19647,335.195530726257,4,2,15,70,1,0
20317,335.195530726257,4,2,2,80,1,0
29032,-100,4,2,1,80,0,0
29702,-100,4,2,2,80,0,0
29786,-100,4,2,5,50,0,0
31043,-125,4,2,5,50,0,0
37579,-125,4,2,1,50,0,0
37914,-125,4,2,1,55,0,0
38082,-125,4,2,1,60,0,0
38249,-125,4,2,1,65,0,0
38417,-125,4,2,1,70,0,0
38585,-125,4,2,1,75,0,0
38752,-125,4,2,1,80,0,0
38920,-125,4,2,1,85,0,0
39087,-125,4,2,5,80,0,0
40763,-125,4,2,2,80,0,0
40931,-125,4,2,15,60,0,0
41769,-100,4,2,5,70,0,0
45121,-100,4,2,15,70,0,0
45791,-100,4,2,2,70,0,0
46797,-100,4,2,1,50,0,0
47132,-105.263157894737,4,2,5,70,0,0
49143,-105.263157894737,4,2,1,50,0,0
49814,-105.263157894737,4,2,5,50,0,0
51154,-105.263157894737,4,2,2,50,0,0
52495,-105.263157894737,4,2,20,70,0,0
52830,-105.263157894737,4,2,20,80,0,0
53166,-105.263157894737,4,2,20,90,0,0
53501,-105.263157894737,4,2,20,100,0,0
53836,-105.263157894737,4,2,20,70,0,0
54171,-105.263157894737,4,2,20,80,0,0
54506,-105.263157894737,4,2,20,90,0,0
54842,-105.263157894737,4,2,20,100,0,0
55177,-100,4,2,2,65,0,0
55512,-100,4,2,2,70,0,0
55847,-100,4,2,2,75,0,0
56182,-100,4,2,2,80,0,0
56518,-100,4,2,2,85,0,0
56853,-100,4,2,2,90,0,0
57188,-100,4,2,2,95,0,0
57523,-100,4,2,2,100,0,0
59115,-100,4,2,1,5,0,0
59199,-100,4,2,2,70,0,0
60121,-100,4,2,1,5,0,0
60205,-100,4,2,2,70,0,0
60456,-100,4,2,1,5,0,0
60540,-90.9090909090909,4,2,5,80,0,1
60875,-90.9090909090909,4,2,2,80,0,1
61462,-90.9090909090909,4,2,2,5,0,1
61546,-90.9090909090909,4,2,2,80,0,1
61797,-90.9090909090909,4,2,2,5,0,1
61881,-90.9090909090909,4,2,2,80,0,1
65400,-90.9090909090909,4,2,1,80,0,1
65903,-90.9090909090909,4,2,5,80,0,1
66238,-90.9090909090909,4,2,2,80,0,1
69925,-90.9090909090909,4,2,1,80,0,1
71266,-90.9090909090909,4,2,5,80,0,1
71601,-90.9090909090909,4,2,2,80,0,1
72188,-90.9090909090909,4,2,2,5,0,1
72272,-90.9090909090909,4,2,2,80,0,1
72523,-90.9090909090909,4,2,2,5,0,1
72607,-90.9090909090909,4,2,2,80,0,1
81657,-90.9090909090909,4,2,5,80,0,0
81992,-90.9090909090909,4,2,5,80,0,1
82328,-90.9090909090909,4,2,2,80,0,1
86015,-90.9090909090909,4,2,1,80,0,1
87020,-90.9090909090909,4,2,5,80,0,1
87691,-90.9090909090909,4,2,2,80,0,1
91210,-100,4,2,2,80,0,0
91378,-100,4,2,1,80,0,0
95400,-100,4,2,1,5,0,0

[Colours]
Combo1 : 214,148,201
Combo2 : 242,233,113
Combo3 : 117,228,238
Combo4 : 133,98,238

[HitObjects]
164,43,6586,6,0,P|67:37|10:193,1,260,4|8,0:0|0:3,0:0:0:0:
153,197,7802,1,8,0:3:0:0:
164,43,8208,2,0,P|261:37|318:193,1,260,4|8,0:0|0:3,0:0:0:0:
221,281,9424,1,2,0:0:0:0:
365,339,9829,6,0,L|497:329,1,130,8|2,0:3|0:0,0:0:0:0:
457,177,10640,2,0,L|325:167,1,130,8|2,0:3|0:0,0:0:0:0:
171,155,11451,1,12,0:3:0:0:
150,309,11856,1,12,0:3:0:0:
0,263,12262,1,8,0:3:0:0:
21,109,12667,1,8,0:3:0:0:
171,155,13072,6,0,P|242:137|347:269,1,260,4|0,0:0|0:0,0:0:0:0:
211,343,14289,1,8,0:3:0:0:
57,317,14694,2,0,L|42:178,1,130,0|8,0:0|0:3,0:0:0:0:
166,92,15527,2,0,L|151:231,1,130,0|8,0:0|0:3,0:0:0:0:
256,192,16357,12,0,19647,0:0:0:0:
281,73,20317,6,0,P|236:60|160:108,1,130,4|8,0:0|0:0,0:0:0:0:
113,163,20819,1,0,0:0:0:0:
113,163,20987,2,0,L|29:174,1,65,0|0,0:0|0:0,0:0:0:0:
15,249,21322,2,0,L|99:260,1,65,8|0,0:0|0:0,0:0:0:0:
164,261,21657,6,0,P|216:225|304:230,2,130,4|8|2,0:0|0:0|0:0,0:0:0:0:
194,345,22495,1,0,0:0:0:0:
194,345,22663,2,0,L|266:354,1,65,8|0,0:0|0:0,0:0:0:0:
342,365,22998,6,0,L|413:356,1,65,2|0,0:0|0:0,0:0:0:0:
473,305,23333,2,0,P|489:248|460:171,1,130,8|2,0:0|0:0,0:0:0:0:
403,138,23836,1,0,0:0:0:0:
403,138,24004,2,0,L|317:129,1,65,8|0,0:0|0:0,0:0:0:0:
253,124,24339,6,0,L|266:204,2,65,4|0|8,0:0|0:0|0:0,0:0:0:0:
193,64,24842,1,0,0:0:0:0:
193,64,25009,2,0,P|156:69|110:79,1,65,0|0,0:0|0:0,0:0:0:0:
104,155,25344,2,0,P|135:161|168:165,1,65,8|0,0:0|0:0,0:0:0:0:
263,188,25680,6,0,P|280:289|280:334,1,130,4|8,0:0|0:0,0:0:0:0:
368,323,26182,1,0,0:0:0:0:
368,323,26350,2,0,P|370:290|376:258,1,65,2|0,0:0|0:0,0:0:0:0:
441,204,26685,2,0,P|438:171|432:139,1,65,8|0,0:0|0:0,0:0:0:0:
403,59,27020,6,0,P|339:54|262:45,1,130,2|8,0:0|0:0,0:0:0:0:
196,25,27523,1,0,0:0:0:0:
196,25,27691,2,0,P|164:27|125:32,1,65,2|0,0:0|0:0,0:0:0:0:
103,111,28026,2,0,P|135:114|167:117,1,65,8|0,0:0|0:0,0:0:0:0:
252,165,28361,6,0,P|271:212|249:300,2,130,8|8|8,0:3|0:3|0:3,0:0:0:0:
284,88,29199,1,8,0:3:0:0:
284,88,29367,2,0,L|355:82,1,65,8|8,0:3|0:3,0:0:0:0:
431,134,29702,6,0,L|502:140,2,65,4|0|0,0:3|0:0|0:0,0:0:0:0:
376,199,30205,2,0,P|309:184|230:214,1,130,4|0,0:3|0:0,0:0:0:0:
182,249,30708,1,8,0:0:0:0:
98,256,30875,1,8,0:0:0:0:
28,208,31043,6,0,L|35:96,2,104,4|0|8,0:0|0:0|0:0,0:0:0:0:
75,334,32048,1,0,0:0:0:0:
210,324,32384,2,0,P|263:340|321:327,2,104,8|0|0,0:0|0:0|0:0,0:0:0:0:
142,206,33389,2,0,L|147:141,1,52,8|8,0:0|0:0,0:0:0:0:
178,83,33724,6,0,P|231:67|289:80,2,104,2|0|8,0:0|0:0|0:0,0:0:0:0:
65,157,34730,1,0,0:0:0:0:
166,246,35065,2,0,L|290:256,1,104,8|8,0:0|0:0,0:0:0:0:
369,353,35735,1,0,0:0:0:0:
369,353,35903,2,0,L|493:343,1,104,2|0,0:0|0:0,0:0:0:0:
510,276,36406,6,0,P|519:224|509:171,2,104,4|8|8,0:0|0:0|0:0,0:0:0:0:
383,229,37411,2,0,L|376:156,1,52,8|8,0:0|0:3,0:0:0:0:
355,101,37747,6,0,P|296:90|244:108,1,104,8|8,0:3|0:3,0:0:0:0:
195,152,38249,1,8,0:3:0:0:
195,152,38417,2,0,L|129:147,1,52,8|8,0:3|0:3,0:0:0:0:
84,96,38752,2,0,L|18:101,1,52,8|8,0:3|0:3,0:0:0:0:
128,27,39087,5,6,0:3:0:0:
128,27,40763,1,2,0:3:0:0:
193,87,40931,2,0,B|240:70|240:70|298:80,1,104,8|8,0:0|0:0,0:0:0:0:
252,157,41434,1,8,0:0:0:0:
252,157,41601,1,8,0:0:0:0:
187,230,41769,6,0,P|195:301|209:377,1,130,4|8,0:0|0:0,0:0:0:0:
293,377,42272,1,0,0:0:0:0:
293,377,42439,2,0,P|298:344|302:312,1,65,0|0,0:0|0:0,0:0:0:0:
366,257,42775,2,0,P|360:224|356:192,1,65,8|0,0:0|0:0,0:0:0:0:
419,135,43110,6,0,P|339:147|293:115,1,130,0|8,0:0|0:0,0:0:0:0:
240,62,43613,2,0,P|160:50|114:82,1,130,0|0,0:0|0:0,0:0:0:0:
73,143,44115,2,0,L|4:139,1,65,8|0,0:0|0:0,0:0:0:0:
113,218,44451,6,0,B|161:212|161:212|192:224|192:224|256:218,1,130,2|8,0:0|0:0,0:0:0:0:
305,166,44953,1,0,0:0:0:0:
305,166,45121,2,0,L|376:174,1,65,8|8,0:0|0:0,0:0:0:0:
435,226,45456,2,0,L|506:218,1,65,8|8,0:0|0:0,0:0:0:0:
400,302,45791,6,0,P|344:329|268:318,1,130,4|0,0:3|0:0,0:0:0:0:
199,291,46294,2,0,P|130:296|58:304,1,130,4|0,0:3|0:0,0:0:0:0:
5,248,46797,2,0,P|-1:217|15:151,1,86.6666666666667,8|8,0:3|0:3,0:0:0:0:
70,114,47132,6,0,B|136:105|136:105|188:126|188:126|254:116,1,185.249995053291,4|0,0:0|0:0,0:0:0:0:
304,56,47803,2,0,P|278:74|362:107,1,185.249995053291,8|0,0:0|0:0,0:0:0:0:
385,43,48473,6,0,L|459:49,2,61.7499983510972,8|0|8,0:0|0:0|0:0,0:0:0:0:
227,13,49143,2,0,L|38:33,1,185.249995053291,8|8,0:3|0:3,0:0:0:0:
4,104,49814,6,0,P|26:156|141:159,1,185.249995053291,4|0,0:0|0:0,0:0:0:0:
209,117,50484,2,0,P|157:139|154:254,1,185.249995053291,8|8,0:0|0:0,0:0:0:0:
213,307,51154,6,0,L|204:377,2,61.7499983510972,4|0|0,0:3|0:0|0:0,0:0:0:0:
276,257,51657,2,0,P|343:245|409:271,1,123.499996702194,4|0,0:3|0:0,0:0:0:0:
456,322,52160,1,8,0:0:0:0:
456,322,52328,1,8,0:0:0:0:
509,246,52495,6,0,L|500:116,1,123.499996702194,0|0,0:0|0:0,0:0:0:0:
453,57,52998,1,0,0:0:0:0:
453,57,53166,2,0,L|383:53,1,61.7499983510972,0|0,0:0|0:0,0:0:0:0:
316,23,53501,2,0,L|246:27,1,61.7499983510972,0|0,0:0|0:0,0:0:0:0:
195,97,53836,6,0,P|178:146|202:222,1,123.499996702194,4|0,0:0|0:0,0:0:0:0:
256,274,54339,1,0,0:0:0:0:
256,274,54506,2,0,L|245:348,1,61.7499983510972,0|0,0:0|0:0,0:0:0:0:
168,355,54842,2,0,L|158:293,1,61.7499983510972,0|0,0:0|0:0,0:0:0:0:
71,249,55177,6,0,L|89:95,1,130,2|2,0:0|0:0,0:0:0:0:
135,50,55680,1,0,0:0:0:0:
135,50,55847,2,0,P|189:53|227:70,1,65,2|0,0:0|0:0,0:0:0:0:
264,110,56182,2,0,P|318:107|356:90,1,65,2|0,0:0|0:0,0:0:0:0:
417,62,56518,6,0,P|430:110|440:203,2,130,2|2|2,0:0|0:0|0:0,0:0:0:0:
342,22,57356,1,0,0:0:0:0:
264,54,57523,2,0,L|188:48,1,65,2|0,0:0|0:0,0:0:0:0:
102,64,57858,6,0,P|77:112|105:193,1,130,4|0,0:3|0:0,0:0:0:0:
162,253,58361,2,0,P|114:228|33:256,1,130,0|0,0:0|0:0,0:0:0:0:
60,342,58864,2,0,P|88:349|140:341,1,65,0|0,0:0|0:0,0:0:0:0:
219,326,59199,5,2,0:3:0:0:
258,236,59367,1,2,0:3:0:0:
162,253,59534,1,2,0:3:0:0:
348,313,59870,6,0,L|430:303,1,65,8|0,0:0|0:0,0:0:0:0:
445,226,60205,2,0,L|363:216,1,65,8|0,0:0|0:0,0:0:0:0:
314,133,60540,6,0,P|269:107|165:123,1,143.000004364014,4|2,0:0|0:0,0:0:0:0:
104,167,61043,1,0,0:0:0:0:
104,167,61210,2,0,L|21:173,1,71.5000021820069,8|0,0:0|0:0,0:0:0:0:
0,260,61546,2,0,L|83:266,1,71.5000021820069,2|0,0:0|0:0,0:0:0:0:
151,313,61881,6,0,P|200:275|288:275,1,143.000004364014,8|2,0:0|0:0,0:0:0:0:
370,309,62384,1,0,0:0:0:0:
370,309,62551,2,0,L|382:233,1,71.5000021820069,8|0,0:0|0:0,0:0:0:0:
457,185,62886,2,0,L|445:109,1,71.5000021820069,2|0,0:0|0:0,0:0:0:0:
369,37,63222,6,0,B|327:56|327:56|218:43,1,143.000004364014,4|8,0:3|0:3,0:0:0:0:
141,19,63724,1,8,0:3:0:0:
53,81,63892,2,0,P|45:120|53:157,1,71.5000021820069,4|0,0:3|0:0,0:0:0:0:
136,191,64227,2,0,P|144:230|136:267,1,71.5000021820069,8|8,0:3|0:3,0:0:0:0:
92,357,64562,6,0,P|159:344|266:330,1,143.000004364014,4|2,0:3|0:3,0:0:0:0:
324,315,65065,1,8,0:3:0:0:
388,247,65233,2,0,P|393:208|382:168,1,71.5000021820069,2|8,0:3|0:3,0:0:0:0:
329,103,65568,1,8,0:3:0:0:
236,96,65735,1,8,0:3:0:0:
167,159,65903,6,0,P|84:169|33:142,2,143.000004364014,4|2|8,0:0|0:0|0:0,0:0:0:0:
236,96,66741,1,0,0:0:0:0:
296,25,66909,2,0,L|370:32,1,71.5000021820069,2|0,0:0|0:0,0:0:0:0:
446,80,67244,6,0,L|460:227,2,143.000004364014,12|2|8,0:0|0:0|0:0,0:0:0:0:
367,31,68082,1,0,0:0:0:0:
285,74,68249,2,0,P|272:110|278:159,1,71.5000021820069,2|0,0:0|0:0,0:0:0:0:
336,230,68585,6,0,P|295:200|181:216,1,143.000004364014,4|8,0:3|0:3,0:0:0:0:
152,276,69087,1,8,0:3:0:0:
196,358,69255,2,0,L|289:361,1,71.5000021820069,4|0,0:3|0:0,0:0:0:0:
360,361,69590,1,8,0:3:0:0:
442,316,69758,1,8,0:3:0:0:
470,227,69925,6,0,L|462:138,1,71.5000021820069,4|0,0:0|0:0,0:0:0:0:
375,124,70261,2,0,L|367:213,1,71.5000021820069,4|0,0:0|0:0,0:0:0:0:
330,295,70596,1,8,0:3:0:0:
224,277,70763,1,8,0:3:0:0:
205,170,70932,2,0,L|294:162,1,71.5000021820069,8|8,0:3|0:3,0:0:0:0:
375,124,71266,6,0,P|375:66|294:6,1,143.000004364014,4|2,0:0|0:0,0:0:0:0:
228,20,71769,1,0,0:0:0:0:
228,20,71937,2,0,L|222:103,1,71.5000021820069,8|0,0:0|0:0,0:0:0:0:
143,140,72272,2,0,L|149:223,1,71.5000021820069,2|0,0:0|0:0,0:0:0:0:
153,304,72607,6,0,P|87:322|14:291,1,143.000004364014,8|2,0:0|0:0,0:0:0:0:
4,209,73110,1,0,0:0:0:0:
4,209,73278,2,0,L|10:126,1,71.5000021820069,8|0,0:0|0:0,0:0:0:0:
89,89,73613,2,0,L|83:6,1,71.5000021820069,2|0,0:0|0:0,0:0:0:0:
190,31,73948,6,0,B|232:56|232:56|329:43,1,143.000004364014,4|8,0:3|0:3,0:0:0:0:
415,19,74451,1,8,0:3:0:0:
496,88,74618,2,0,P|506:125|512:172,1,71.5000021820069,4|0,0:3|0:0,0:0:0:0:
421,190,74953,2,0,P|411:227|405:274,1,71.5000021820069,8|8,0:3|0:3,0:0:0:0:
325,331,75289,6,0,P|278:309|234:221,1,143.000004364014,4|8,0:3|0:3,0:0:0:0:
249,140,75791,1,8,0:3:0:0:
285,54,75959,2,0,L|192:42,1,71.5000021820069,2|0,0:0|0:0,0:0:0:0:
121,40,76294,1,2,0:0:0:0:
54,104,76462,1,0,0:0:0:0:
93,187,76629,6,0,L|84:331,2,143.000004364014,4|2|8,0:3|0:0|0:0,0:0:0:0:
158,120,77467,1,0,0:0:0:0:
249,140,77635,2,0,P|287:146|326:136,1,71.5000021820069,2|0,0:0|0:0,0:0:0:0:
404,103,77970,6,0,L|413:247,2,143.000004364014,6|12|6,0:0|0:0|0:0,0:0:0:0:
356,22,78808,1,8,0:0:0:0:
271,62,78976,2,0,P|236:70|180:54,1,71.5000021820069,8|0,0:0|0:0,0:0:0:0:
101,25,79311,6,0,L|89:104,1,71.5000021820069,4|0,0:3|0:0,0:0:0:0:
14,150,79646,2,0,L|26:229,1,71.5000021820069,0|0,0:0|0:0,0:0:0:0:
79,296,79981,1,0,0:0:0:0:
171,310,80149,1,0,0:0:0:0:
252,264,80317,2,0,P|307:269|325:279,1,71.5000021820069,0|0,0:0|0:0,0:0:0:0:
385,209,80652,6,0,P|440:204|458:194,1,71.5000021820069,8|2,0:3|0:3,0:0:0:0:
404,117,80987,1,8,0:3:0:0:
345,44,81154,2,0,P|272:50|193:56,1,143.000004364014,2|0,0:3|0:0,0:0:0:0:
167,141,81657,2,0,P|203:144|243:147,1,71.5000021820069,8|0,0:0|0:0,0:0:0:0:
299,234,81992,6,0,B|308:270|308:270|300:305,1,71.5000021820069,12|0,0:0|0:0,0:0:0:0:
245,379,82328,1,8,0:3:0:0:
172,321,82495,2,0,B|124:310|76:337|76:337|27:309,1,143.000004364014,2|2,0:3|0:3,0:0:0:0:
4,228,82998,2,0,L|14:154,1,71.5000021820069,8|2,0:3|0:3,0:0:0:0:
99,121,83333,6,0,L|109:195,1,71.5000021820069,4|2,0:3|0:3,0:0:0:0:
191,234,83668,1,8,0:3:0:0:
266,178,83836,2,0,P|330:176|398:232,1,143.000004364014,2|0,0:3|0:0,0:0:0:0:
470,270,84339,2,0,P|484:226|478:189,1,71.5000021820069,8|0,0:3|0:0,0:0:0:0:
391,312,84674,6,0,P|445:357|513:347,2,143.000004364014,8|8|8,0:0|0:0|0:0,0:0:0:0:
323,258,85512,1,0,0:0:0:0:
323,258,85680,2,0,L|233:265,1,71.5000021820069,8|0,0:0|0:0,0:0:0:0:
365,175,86015,6,0,L|455:182,1,71.5000021820069,8|8,0:3|0:3,0:0:0:0:
506,119,86350,1,8,0:3:0:0:
459,38,86518,2,0,P|399:14|311:39,1,143.000004364014,8|0,0:3|0:0,0:0:0:0:
245,78,87020,2,0,P|231:45|224:5,1,71.5000021820069,8|0,0:0|0:0,0:0:0:0:
327,118,87356,6,0,P|320:153|306:185,1,71.5000021820069,12|0,0:0|0:0,0:0:0:0:
235,245,87691,1,8,0:3:0:0:
155,197,87858,2,0,B|101:178|50:184|50:184|7:215,1,143.000004364014,2|2,0:3|0:3,0:0:0:0:
22,298,88361,2,0,P|62:309|98:309,1,71.5000021820069,8|2,0:3|0:3,0:0:0:0:
181,283,88696,6,0,P|221:272|257:272,1,71.5000021820069,4|8,0:3|0:3,0:0:0:0:
337,308,89032,1,2,0:3:0:0:
422,272,89199,2,0,L|411:111,1,143.000004364014,8|8,0:3|0:3,0:0:0:0:
326,93,89702,2,0,L|320:173,1,71.5000021820069,2|8,0:3|0:3,0:0:0:0:
253,228,90037,6,0,P|204:238|120:197,1,143.000004364014,2|2,0:0|0:0,0:0:0:0:
65,126,90540,1,0,0:0:0:0:
117,48,90708,2,0,L|193:42,1,71.5000021820069,2|0,0:0|0:0,0:0:0:0:
280,29,91043,1,2,0:0:0:0:
236,128,91210,5,4,0:3:0:0:
256,192,91378,12,0,95400,0:0:0:0:
