osu file format v14

[General]
AudioFilename: audio.mp3
AudioLeadIn: 0
PreviewTime: 60099
Countdown: 0
SampleSet: None
StackLeniency: 0.4
Mode: 0
LetterboxInBreaks: 0
WidescreenStoryboard: 0

[Editor]
Bookmarks: 31306,47395,60803,92982,103708,169406
DistanceSpacing: 1
BeatDivisor: 4
GridSize: 8
TimelineZoom: 2.4

[Metadata]
Title:MY Mai*TONIGHT
TitleUnicode:MY 舞☆TONIGHT
Artist:Aqours
ArtistUnicode:アクア
Creator:HibikiDesu
Version:Dance
Source:ラブライブ!サンシャイン!!
Tags:idol anime full size love live sunshine!!
BeatmapID:1821087
BeatmapSetID:871588

[Difficulty]
HPDrainRate:6
CircleSize:4
OverallDifficulty:8.5
ApproachRate:9.5
SliderMultiplier:1.4
SliderTickRate:1

[Events]
//Background and Video events
0,0,"Love Live.jpg",0,0
//Break Periods
//Storyboard Layer 0 (Background)
//Storyboard Layer 1 (Fail)
//Storyboard Layer 2 (Pass)
//Storyboard Layer 3 (Foreground)
//Storyboard Sound Samples

[TimingPoints]
5258,405.405405405405,4,2,1,45,1,0
6068,-133.333333333333,4,2,2,45,0,0
15798,428.571428571429,4,2,1,45,1,0
15798,-133.333333333333,4,2,1,45,0,0
16655,3265.30612244898,4,2,1,45,1,0
16655,-100,4,2,1,45,0,0
19103,-100,4,2,1,30,0,0
19792,335.195530726257,4,2,1,45,1,0
19959,335.195530726257,4,2,1,45,1,0
20630,335.195530726257,4,2,1,45,1,0
20630,-66.6666666666667,4,2,1,60,0,1
25490,-66.6666666666667,4,2,1,30,0,1
25574,-66.6666666666667,4,2,1,35,0,1
25657,-66.6666666666667,4,2,1,40,0,1
25741,-66.6666666666667,4,2,1,45,0,1
25825,-66.6666666666667,4,2,1,50,0,1
25909,-66.6666666666667,4,2,1,55,0,1
25993,-66.6666666666667,4,2,1,60,0,1
30853,-66.6666666666667,4,2,1,45,0,1
31021,-66.6666666666667,4,2,1,30,0,1
31188,-66.6666666666667,4,2,1,15,0,1
31356,-100,4,2,2,45,0,0
37054,-100,4,2,1,45,0,0
38395,-100,4,2,1,15,0,0
38730,-100,4,2,1,30,0,0
39065,-100,4,2,1,45,0,0
39400,-100,4,2,1,60,0,0
41076,-100,4,2,1,45,0,0
42082,-83.3333333333333,4,2,1,45,0,0
47445,-125,4,2,1,45,0,0
52808,-125,4,2,1,30,0,0
53479,-125,4,2,1,38,0,0
54149,-125,4,2,1,45,0,0
54819,-125,4,2,1,50,0,0
55825,-111.111111111111,4,2,1,50,0,0
56160,-100,4,2,1,50,0,0
56495,-90.9090909090909,4,2,1,50,0,0
56831,-90.9090909090909,4,2,1,55,0,0
57333,-90.9090909090909,4,2,1,60,0,0
58171,-83.3333333333333,4,2,1,75,0,1
59512,-83.3333333333333,4,2,1,80,0,1
59847,-83.3333333333333,4,2,1,60,0,0
60853,-66.6666666666667,4,2,1,80,0,1
81970,-133.333333333333,4,2,1,80,0,1
82305,-66.6666666666667,4,2,1,80,0,1
92361,-400,4,2,1,80,0,1
93032,-83.3333333333333,4,2,1,80,0,0
93367,-83.3333333333333,4,2,1,75,0,0
93702,-83.3333333333333,4,2,1,65,0,0
94037,-83.3333333333333,4,2,1,55,0,0
94373,-83.3333333333333,4,2,1,45,0,0
94708,-83.3333333333333,4,2,1,35,0,0
95043,-83.3333333333333,4,2,1,25,0,0
95378,-83.3333333333333,4,2,1,15,0,0
95713,-83.3333333333333,4,2,1,5,0,0

[HitObjects]
136,90,6068,6,0,P|179:57|235:54,1,105.000004005432
215,158,6879,6,0,P|126:194|41:129,1,210.000008010865,6|0,0:0|0:0,0:0:0:0:
136,90,8095,1,0,0:0:0:0:
215,158,8501,6,0,P|201:253|102:294,1,210.000008010865,2|0,0:0|0:0,0:0:0:0:
116,192,9717,1,0,0:0:0:0:
215,158,10122,6,0,P|265:178|295:225,1,105.000004005432,2|0,0:0|0:0,0:0:0:0:
195,260,10933,2,0,P|144:239|114:192,1,105.000004005432,2|0,0:0|0:0,0:0:0:0:
215,158,11744,6,0,P|265:178|295:225,1,105.000004005432,2|0,0:0|0:0,0:0:0:0:
274,329,12555,1,0,0:0:0:0:
174,362,12960,1,0,0:0:0:0:
95,293,13366,6,0,P|108:197|207:156,1,210.000008010865,6|0,0:0|0:0,0:0:0:0:
195,260,14582,1,0,0:0:0:0:
295,227,14987,6,0,P|320:179|313:124,1,105.000004005432,2|0,0:0|0:0,0:0:0:0:
215,158,15798,2,0,P|189:205|196:260,1,105.000004005432,2|0,0:0|0:0,0:0:0:0:
295,227,16655,6,0,B|320:179|320:179|313:124,1,105,2|0,0:0|0:0,0:0:0:0:
313,128,19792,6,0,L|264:142,1,35,2|2,0:0|0:0,0:0:0:0:
119,185,19959,5,8,0:0:0:0:
124,201,20042,1,8,0:0:0:0:
129,218,20126,1,8,0:0:0:0:
134,235,20210,1,8,0:0:0:0:
139,252,20294,5,8,0:0:0:0:
164,206,20377,1,8,0:0:0:0:
209,179,20461,1,8,0:0:0:0:
260,177,20545,1,8,0:0:0:0:
307,201,20629,5,12,0:0:0:0:
307,201,20965,1,8,0:0:0:0:
231,44,21132,1,2,0:0:0:0:
164,206,21300,2,0,P|179:262|208:302,1,105.000004005432,2|2,0:0|0:0,0:0:0:0:
307,201,21635,2,0,P|291:144|263:105,1,105.000004005432,8|0,0:0|0:0,0:0:0:0:
164,206,21970,5,2,0:0:0:0:
164,206,22305,1,8,0:0:0:0:
340,199,22473,1,2,0:0:0:0:
155,123,22641,2,0,P|104:149|83:194,1,105.000004005432,2|2,0:0|0:0,0:0:0:0:
232,157,22976,2,0,P|235:99|208:58,1,105.000004005432,8|0,0:0|0:0,0:0:0:0:
164,206,23311,6,0,L|174:313,1,105.000004005432,2|0,0:0|0:0,0:0:0:0:
309,191,23646,2,0,L|298:83,1,105.000004005432,8|2,0:0|0:0,0:0:0:0:
155,123,23981,1,2,0:0:0:0:
155,123,24065,1,0,0:0:0:0:
155,123,24149,1,2,0:0:0:0:
241,240,24317,2,0,P|289:272|345:266,1,105.000004005432,8|0,0:0|0:0,0:0:0:0:
299,107,24652,5,10,0:0:0:0:
309,191,24819,1,0,0:0:0:0:
367,58,24987,1,8,0:0:0:0:
232,157,25155,1,2,0:0:0:0:
386,225,25322,1,8,0:0:0:0:
299,107,25490,6,0,L|236:79,1,52.5000020027161,10|8,0:0|0:0,0:0:0:0:
242,241,25657,1,8,0:0:0:0:
280,265,25740,1,8,0:0:0:0:
323,271,25824,1,8,0:0:0:0:
363,255,25908,1,8,0:0:0:0:
386,225,25992,5,10,0:0:0:0:
386,225,26328,5,8,0:0:0:0:
289,23,26495,1,2,0:0:0:0:
232,157,26663,2,0,P|280:189|336:183,1,105.000004005432,2|2,0:0|0:0,0:0:0:0:
222,73,26998,1,8,0:0:0:0:
242,241,27166,1,0,0:0:0:0:
242,241,27250,1,0,0:0:0:0:
242,241,27333,6,0,L|256:355,1,105.000004005432,12|2,0:0|0:0,0:0:0:0:
386,225,27669,2,0,L|400:111,1,105.000004005432,8|2,0:0|0:0,0:0:0:0:
155,123,28004,1,8,0:0:0:0:
319,275,28171,2,0,L|313:221,1,52.5000020027161,10|8,0:0|0:0,0:0:0:0:
289,23,28339,5,8,0:0:0:0:
305,63,28422,1,8,0:0:0:0:
299,106,28506,1,8,0:0:0:0:
272,140,28590,1,8,0:0:0:0:
232,157,28674,5,8,0:0:0:0:
145,39,28842,1,2,0:0:0:0:
164,206,29009,5,8,0:0:0:0:
145,39,29177,1,2,0:0:0:0:
95,254,29345,5,8,0:0:0:0:
79,212,29428,1,8,0:0:0:0:
86,169,29512,1,8,0:0:0:0:
115,135,29596,1,8,0:0:0:0:
155,121,29680,1,8,0:0:0:0:
173,289,29847,1,2,0:0:0:0:
173,289,29931,1,2,0:0:0:0:
173,289,30015,5,10,0:0:0:0:
222,73,30183,1,2,0:0:0:0:
237,114,30267,1,2,0:0:0:0:
231,155,30351,1,2,0:0:0:0:
145,39,30518,1,8,0:0:0:0:
98,185,30685,5,0,0:0:0:0:
96,211,30768,1,0,0:0:0:0:
96,237,30852,1,0,0:0:0:0:
100,263,30936,1,0,0:0:0:0:
109,288,31020,1,0,0:0:0:0:
123,310,31103,1,0,0:0:0:0:
144,324,31187,1,0,0:0:0:0:
167,313,31272,1,0,0:0:0:0:
171,288,31356,5,14,0:0:0:0:
185,207,31691,1,8,0:0:0:0:
195,125,32026,1,8,0:0:0:0:
205,43,32361,1,8,0:0:0:0:
118,157,32529,1,2,0:0:0:0:
272,93,32697,6,0,B|284:128|263:160|263:160|242:191|255:226,1,140,10|8,0:0|0:0,0:0:0:0:
349,61,33199,1,0,0:0:0:0:
195,125,33367,1,8,0:0:0:0:
185,207,33702,5,8,0:0:0:0:
128,76,33870,1,0,0:0:0:0:
108,238,34037,1,14,0:0:0:0:
174,288,34373,1,8,0:0:0:0:
240,338,34708,1,8,0:0:0:0:
316,305,35043,1,8,0:0:0:0:
185,207,35211,1,2,0:0:0:0:
163,369,35378,6,0,B|199:371|225:342|225:342|249:314|287:318,1,140,10|8,0:0|0:0,0:0:0:0:
382,355,35881,1,0,0:0:0:0:
404,192,36048,1,8,0:0:0:0:
316,305,36216,2,0,B|291:337|291:337|246:267|262:174,1,210,6|6,0:0|0:0,0:0:0:0:
338,142,37054,5,0,0:0:0:0:
404,192,37389,1,0,0:0:0:0:
393,274,37724,1,0,0:0:0:0:
185,207,37892,1,2,0:0:0:0:
185,207,37976,1,2,0:0:0:0:
185,207,38060,5,2,0:0:0:0:
185,207,38395,1,8,0:0:0:0:
261,173,38562,1,8,0:0:0:0:
118,159,38730,1,8,0:0:0:0:
252,255,38898,1,8,0:0:0:0:
204,43,39065,1,8,0:0:0:0:
36,273,39233,1,8,0:0:0:0:
396,270,39400,1,8,0:0:0:0:
396,270,41076,5,0,0:0:0:0:
118,159,41244,1,8,0:0:0:0:
396,270,41579,5,8,0:0:0:0:
396,270,41663,1,8,0:0:0:0:
396,270,41747,1,8,0:0:0:0:
252,255,41914,1,8,0:0:0:0:
252,255,41998,1,8,0:0:0:0:
252,255,42082,6,0,B|257:210|297:187|297:187|336:165|342:121,1,167.999994873047,14|8,0:0|0:0,0:0:0:0:
267,53,42585,1,0,0:0:0:0:
171,82,42752,1,2,0:0:0:0:
97,13,42920,1,2,0:0:0:0:
148,179,43088,2,0,P|194:180|237:156,1,83.9999974365235,8|0,0:0|0:0,0:0:0:0:
75,111,43423,6,0,L|54:208,1,83.9999974365235,2|0,0:0|0:0,0:0:0:0:
125,277,43758,1,8,0:0:0:0:
171,82,43926,2,0,P|148:41|106:16,1,83.9999974365235,0|2,0:0|0:0,0:0:0:0:
148,179,44261,1,2,0:0:0:0:
148,179,44345,1,0,0:0:0:0:
148,179,44428,2,0,P|194:180|237:156,1,83.9999974365235,8|0,0:0|0:0,0:0:0:0:
171,82,44764,5,14,0:0:0:0:
52,208,44931,1,2,0:0:0:0:
97,13,45099,1,10,0:0:0:0:
148,179,45266,1,0,0:0:0:0:
2,43,45434,5,8,0:0:0:0:
14,84,45518,1,8,0:0:0:0:
27,126,45602,1,8,0:0:0:0:
39,167,45686,1,8,0:0:0:0:
52,208,45769,2,0,L|66:254,1,41.9999987182618,8|8,0:0|0:0,0:0:0:0:
220,247,45937,1,8,0:0:0:0:
171,82,46104,6,0,P|197:170|146:180,1,167.999994873047,14|2,0:0|0:0,0:0:0:0:
74,111,46607,1,8,0:0:0:0:
268,53,46775,6,0,P|305:48|347:64,2,55.9999982910157,2|2|2,0:0|0:0|0:0,0:0:0:0:
171,82,47110,2,0,P|136:96|108:131,2,55.9999982910157,2|2|2,0:0|0:0|0:0,0:0:0:0:
342,122,47445,6,0,P|393:150|415:202,1,112,6|0,0:0|0:0,0:0:0:0:
331,207,47948,1,2,0:0:0:0:
264,153,48116,1,8,0:0:0:0:
420,91,48451,1,0,0:0:0:0:
431,6,48618,1,0,0:0:0:0:
409,176,48786,5,2,0:0:0:0:
274,71,48954,1,8,0:0:0:0:
398,257,49289,5,2,0:0:0:0:
420,91,49456,1,8,0:0:0:0:
331,207,49624,1,2,0:0:0:0:
342,122,49792,1,2,0:0:0:0:
409,176,49959,1,2,0:0:0:0:
353,37,50127,5,6,0:0:0:0:
353,37,50462,1,0,0:0:0:0:
263,155,50630,1,2,0:0:0:0:
399,259,50797,1,8,0:0:0:0:
342,122,50965,1,0,0:0:0:0:
251,240,51132,1,0,0:0:0:0:
409,176,51300,1,2,0:0:0:0:
409,176,51384,1,2,0:0:0:0:
409,176,51467,6,0,L|361:169,1,28,2|2,0:0|0:0,0:0:0:0:
263,155,51635,2,0,L|279:195,1,28,8|2,0:0|0:0,0:0:0:0:
323,292,51803,1,2,0:0:0:0:
342,122,51970,1,2,0:0:0:0:
342,122,52305,1,2,0:0:0:0:
342,122,52389,1,2,0:0:0:0:
342,122,52473,1,8,0:0:0:0:
251,240,52641,1,2,0:0:0:0:
395,344,52808,5,6,0:0:0:0:
399,259,52976,1,2,0:0:0:0:
323,292,53143,1,10,0:0:0:0:
395,344,53311,1,2,0:0:0:0:
327,207,53479,5,2,0:0:0:0:
247,325,53646,1,2,0:0:0:0:
184,190,53814,1,10,0:0:0:0:
327,207,53981,1,2,0:0:0:0:
175,273,54149,5,6,0:0:0:0:
193,107,54317,1,2,0:0:0:0:
41,173,54484,1,10,0:0:0:0:
175,273,54652,1,2,0:0:0:0:
121,55,54819,5,2,0:0:0:0:
121,55,54903,1,2,0:0:0:0:
121,55,54987,1,2,0:0:0:0:
32,256,55155,1,10,0:0:0:0:
32,256,55238,1,2,0:0:0:0:
32,256,55322,1,2,0:0:0:0:
265,159,55490,6,0,P|238:151|212:132,1,56,12|0,0:0|0:0,0:0:0:0:
337,129,55825,6,0,P|357:109|388:95,1,62.9999980773926,8|0,0:0|0:0,0:0:0:0:
327,207,56160,6,0,P|334:238|330:275,1,70,8|0,0:0|0:0,0:0:0:0:
265,159,56495,6,0,P|231:148|198:125,1,77.0000023498536,8|0,0:0|0:0,0:0:0:0:
409,176,56831,5,8,0:0:0:0:
421,217,56914,1,8,0:0:0:0:
423,261,56998,1,8,0:0:0:0:
414,304,57082,1,8,0:0:0:0:
395,343,57166,1,8,0:0:0:0:
327,207,57333,5,8,0:0:0:0:
324,162,57416,1,8,0:0:0:0:
343,122,57500,1,8,0:0:0:0:
380,97,57584,1,8,0:0:0:0:
424,92,57668,1,8,0:0:0:0:
465,110,57751,1,8,0:0:0:0:
492,146,57836,6,0,L|442:165,1,38.5000011749268,2|2,0:0|0:0,0:0:0:0:
327,207,58004,2,0,L|382:232,1,38.5000011749268,2|2,0:0|0:0,0:0:0:0:
487,281,58171,5,8,0:0:0:0:
396,31,58339,1,0,0:0:0:0:
323,287,58507,1,0,0:0:0:0:
492,146,58674,5,8,0:0:0:0:
199,155,58842,1,0,0:0:0:0:
442,318,59010,1,0,0:0:0:0:
396,31,59177,5,8,0:0:0:0:
252,318,59345,1,0,0:0:0:0:
200,2,59512,1,8,0:0:0:0:
428,228,59680,1,8,0:0:0:0:
111,180,59847,1,8,0:0:0:0:
396,31,60183,5,2,0:0:0:0:
200,2,60350,1,2,0:0:0:0:
200,2,60434,1,2,0:0:0:0:
200,2,60518,1,2,0:0:0:0:
396,31,60853,6,0,L|506:47,1,105.000004005432,6|0,0:0|0:0,0:0:0:0:
349,108,61188,2,0,P|303:190|366:274,1,210.000008010865,8|2,0:0|0:0,0:0:0:0:
392,187,61691,1,2,0:0:0:0:
211,181,61859,1,8,0:0:0:0:
345,263,62026,1,0,0:0:0:0:
439,111,62194,6,0,L|497:15,1,105.000004005432,6|0,0:0|0:0,0:0:0:0:
349,108,62529,2,0,P|259:108|221:4,1,210.000008010865,8|2,0:0|0:0,0:0:0:0:
306,29,63032,1,2,0:0:0:0:
211,181,63199,1,8,0:0:0:0:
349,108,63367,1,0,0:0:0:0:
345,263,63535,6,0,L|342:373,1,105.000004005432,6|0,0:0|0:0,0:0:0:0:
211,181,63870,2,0,L|208:70,1,105.000004005432,8|0,0:0|0:0,0:0:0:0:
392,187,64205,6,0,P|426:232|431:283,1,105.000004005432,6|0,0:0|0:0,0:0:0:0:
164,257,64540,2,0,P|130:212|125:161,1,105.000004005432,8|0,0:0|0:0,0:0:0:0:
349,108,64875,5,12,0:0:0:0:
345,263,65043,1,0,0:0:0:0:
211,181,65211,5,8,0:0:0:0:
439,111,65378,1,0,0:0:0:0:
388,342,65546,5,8,0:0:0:0:
301,184,65713,1,2,0:0:0:0:
301,149,65796,1,2,0:0:0:0:
316,117,65880,1,8,0:0:0:0:
342,95,65964,1,8,0:0:0:0:
375,86,66048,1,2,0:0:0:0:
410,91,66131,1,2,0:0:0:0:
439,111,66216,5,12,0:0:0:0:
439,111,66551,2,0,P|427:62|388:26,1,105.000004005432,8|0,0:0|0:0,0:0:0:0:
259,105,66886,1,2,0:0:0:0:
392,187,67054,1,2,0:0:0:0:
306,29,67222,1,8,0:0:0:0:
212,181,67389,1,0,0:0:0:0:
395,31,67557,5,6,0:0:0:0:
169,102,67724,1,0,0:0:0:0:
439,111,67892,1,8,0:0:0:0:
216,26,68060,1,0,0:0:0:0:
392,187,68227,5,2,0:0:0:0:
122,178,68395,1,2,0:0:0:0:
349,108,68562,1,8,0:0:0:0:
126,23,68730,1,0,0:0:0:0:
212,181,68898,6,0,L|268:284,1,105.000004005432,6|0,0:0|0:0,0:0:0:0:
349,108,69233,5,8,0:0:0:0:
122,178,69400,1,0,0:0:0:0:
435,266,69568,6,0,P|474:224|481:173,1,105.000004005432,6|0,0:0|0:0,0:0:0:0:
259,105,69903,5,8,0:0:0:0:
299,340,70071,1,0,0:0:0:0:
439,111,70238,5,12,0:0:0:0:
122,178,70406,1,0,0:0:0:0:
482,190,70574,5,8,0:0:0:0:
169,102,70741,1,0,0:0:0:0:
299,340,70909,5,8,0:0:0:0:
326,318,70992,1,8,0:0:0:0:
349,291,71076,1,8,0:0:0:0:
363,260,71160,1,8,0:0:0:0:
370,225,71244,1,8,0:0:0:0:
377,191,71327,1,8,0:0:0:0:
391,159,71411,1,8,0:0:0:0:
413,132,71495,1,8,0:0:0:0:
439,111,71579,6,0,P|474:154|479:205,1,105.000004005432,6|0,0:0|0:0,0:0:0:0:
349,108,71914,2,0,P|403:27|507:51,1,210.000008010865,8|2,0:0|0:0,0:0:0:0:
482,190,72417,5,2,0:0:0:0:
259,105,72585,1,8,0:0:0:0:
486,35,72752,1,0,0:0:0:0:
435,266,72920,6,0,L|411:376,1,105.000004005432,6|0,0:0|0:0,0:0:0:0:
393,188,73255,2,0,P|339:106|235:130,1,210.000008010865,8|2,0:0|0:0,0:0:0:0:
257,262,73758,5,2,0:0:0:0:
482,190,73926,1,8,0:0:0:0:
259,105,74093,1,0,0:0:0:0:
300,341,74261,6,0,P|349:356|402:337,1,105.000004005432,6|0,0:0|0:0,0:0:0:0:
302,184,74596,2,0,L|191:180,1,105.000004005432,8|0,0:0|0:0,0:0:0:0:
118,333,74931,2,0,L|229:329,1,105.000004005432,6|0,0:0|0:0,0:0:0:0:
393,188,75266,2,0,P|381:138|338:101,1,105.000004005432,8|0,0:0|0:0,0:0:0:0:
302,184,75518,1,0,0:0:0:0:
302,184,75602,5,12,0:0:0:0:
478,345,75769,1,0,0:0:0:0:
257,262,75937,5,8,0:0:0:0:
482,190,76104,1,0,0:0:0:0:
300,341,76272,5,8,0:0:0:0:
349,108,76440,1,2,0:0:0:0:
314,141,76523,1,2,0:0:0:0:
301,186,76607,1,8,0:0:0:0:
313,233,76691,1,8,0:0:0:0:
346,267,76775,1,2,0:0:0:0:
392,279,76858,1,2,0:0:0:0:
435,266,76942,5,12,0:0:0:0:
435,266,77278,2,0,P|420:315|375:350,1,105.000004005432,8|0,0:0|0:0,0:0:0:0:
257,262,77613,1,2,0:0:0:0:
392,187,77780,1,2,0:0:0:0:
300,341,77948,1,8,0:0:0:0:
214,183,78116,1,0,0:0:0:0:
435,266,78283,5,6,0:0:0:0:
210,338,78451,1,0,0:0:0:0:
478,345,78618,1,8,0:0:0:0:
257,262,78786,1,0,0:0:0:0:
482,190,78954,5,6,0:0:0:0:
300,341,79121,1,2,0:0:0:0:
349,108,79289,1,8,0:0:0:0:
478,345,79456,1,0,0:0:0:0:
478,345,79540,1,0,0:0:0:0:
478,345,79624,5,12,0:0:0:0:
257,262,79792,1,0,0:0:0:0:
482,190,79959,1,8,0:0:0:0:
300,341,80126,1,0,0:0:0:0:
260,106,80294,5,8,0:0:0:0:
292,140,80377,1,8,0:0:0:0:
304,186,80461,1,8,0:0:0:0:
290,232,80545,1,8,0:0:0:0:
257,262,80630,6,0,L|193:261,1,52.5000020027161,2|2,0:0|0:0,0:0:0:0:
214,183,80797,2,0,L|150:182,1,52.5000020027161,2|2,0:0|0:0,0:0:0:0:
171,104,80965,5,8,0:0:0:0:
120,335,81132,1,2,0:0:0:0:
298,179,81300,1,2,0:0:0:0:
63,201,81467,1,8,0:0:0:0:
267,322,81803,5,2,0:0:0:0:
267,322,81886,1,2,0:0:0:0:
267,322,81970,2,0,B|303:342|303:342|358:342,1,78.7500030040742,8|0,0:0|0:0,0:0:0:0:
361,314,82305,5,12,0:0:0:0:
122,212,82473,1,2,0:0:0:0:
416,204,82641,5,8,0:0:0:0:
175,300,82809,1,2,0:0:0:0:
277,61,82976,5,8,0:0:0:0:
375,303,83143,1,2,0:0:0:0:
363,114,83311,5,8,0:0:0:0:
261,354,83478,1,2,0:0:0:0:
163,112,83646,5,12,0:0:0:0:
405,214,83814,1,2,0:0:0:0:
133,201,83981,5,8,0:0:0:0:
376,102,84149,1,2,0:0:0:0:
276,344,84317,5,8,0:0:0:0:
177,102,84484,1,2,0:0:0:0:
162,313,84652,5,8,0:0:0:0:
263,72,84819,1,2,0:0:0:0:
362,313,84987,6,0,P|342:264|313:222,1,105.000004005432,12|2,0:0|0:0,0:0:0:0:
177,102,85322,5,8,0:0:0:0:
162,313,85490,1,2,0:0:0:0:
299,152,85657,6,0,B|334:110|334:110|380:92,1,105.000004005432,12|2,0:0|0:0,0:0:0:0:
361,314,85993,5,8,0:0:0:0:
122,212,86160,1,2,0:0:0:0:
376,102,86328,6,0,L|315:107,1,52.5000020027161,6|2,0:0|0:0,0:0:0:0:
229,213,86495,2,0,L|289:218,1,52.5000020027161,8|10,0:0|0:0,0:0:0:0:
177,102,86663,2,0,L|116:107,1,52.5000020027161,2|2,0:0|0:0,0:0:0:0:
162,313,86831,1,8,0:0:0:0:
361,314,87166,5,2,0:0:0:0:
361,314,87250,1,2,0:0:0:0:
361,314,87333,1,8,0:0:0:0:
133,50,87669,5,12,0:0:0:0:
417,171,87837,1,2,0:0:0:0:
68,180,88005,5,8,0:0:0:0:
354,66,88171,1,2,0:0:0:0:
233,350,88340,5,8,0:0:0:0:
117,63,88507,1,2,0:0:0:0:
131,287,88675,5,8,0:0:0:0:
252,2,88842,1,2,0:0:0:0:
368,289,89010,5,12,0:0:0:0:
81,168,89178,1,2,0:0:0:0:
404,184,89345,5,8,0:0:0:0:
116,301,89512,1,2,0:0:0:0:
234,14,89681,5,8,0:0:0:0:
352,301,89848,1,2,0:0:0:0:
369,51,90016,5,8,0:0:0:0:
250,337,90183,1,2,0:0:0:0:
133,50,90350,5,12,0:0:0:0:
172,358,90518,1,2,0:0:0:0:
322,86,90685,1,2,0:0:0:0:
83,309,90853,5,8,0:0:0:0:
233,37,91021,1,2,0:0:0:0:
272,345,91188,1,2,0:0:0:0:
59,118,91356,1,8,0:0:0:0:
364,177,91523,1,12,0:0:0:0:
60,119,91859,5,8,0:0:0:0:
60,119,91942,1,8,0:0:0:0:
60,119,92026,1,8,0:0:0:0:
273,346,92194,6,0,L|265:283,1,52.5000020027161,2|2,0:0|0:0,0:0:0:0:
233,37,92361,1,8,0:0:0:0:
210,73,92444,1,8,0:0:0:0:
197,113,92528,1,2,0:0:0:0:
194,155,92612,1,2,0:0:0:0:
201,197,92696,1,8,0:0:0:0:
208,239,92779,1,8,0:0:0:0:
206,282,92863,1,8,0:0:0:0:
193,322,92947,1,8,0:0:0:0:
172,358,93032,5,6,0:0:0:0:
256,192,93116,12,0,95546,0:0:0:0:
