osu file format v14

[General]
AudioFilename: audio.mp3
AudioLeadIn: 0
PreviewTime: 59791
Countdown: 0
SampleSet: Soft
StackLeniency: 0.7
Mode: 0
LetterboxInBreaks: 0
WidescreenStoryboard: 1

[Editor]
DistanceSpacing: 1
BeatDivisor: 4
GridSize: 4
TimelineZoom: 1.6

[Metadata]
Title:MY Mai*TONIGHT
TitleUnicode:MY舞☆TONIGHT
Artist:Aqours
ArtistUnicode:Aqours
Creator:Doormat
Version:Normal
Source:ラブライブ!サンシャイン!!
Tags:Little CloudSplash16 Meg iMage-- Gaia love live sunshine school idol project festival season two 2 insert song tv size inami anju 伊波杏樹 takami chika 高海千歌 aida rikako 逢田梨香子 sakurauchi riko 桜内梨子 suwa nanaka 諏訪ななか matsuura kanan 松浦果南 komiya arisa 小宮有紗 kurosawa dia 黒澤ダイヤ saito shuka 斉藤朱夏 watanabe you 渡辺曜 kobayashi aika 小林愛香 tsushima yoshiko 津島善子 yohane ヨハネ takatsuki kanako 高槻かなこ kunikida hanamaru 国木田花丸 suzuki aina 鈴木愛奈 ohara mari 小原鞠莉 furihata ai 降幡愛 kurosawa ruby 黒澤ルビィ
BeatmapID:1478163
BeatmapSetID:684717

[Difficulty]
HPDrainRate:4
CircleSize:3.5
OverallDifficulty:5
ApproachRate:5
SliderMultiplier:1.1
SliderTickRate:1

[Events]
//Background and Video events
0,0,"kurosawa.jpg",0,0
Video,0,"video.avi"
//Break Periods
2,16554,18452
//Storyboard Layer 0 (Background)
//Storyboard Layer 1 (Fail)
//Storyboard Layer 2 (Pass)
//Storyboard Layer 3 (Foreground)
//Storyboard Sound Samples

[TimingPoints]
6579,810.810810810811,4,2,2,40,1,0
6579,-50,4,2,2,40,0,0
15497,857.142857142857,4,2,2,40,1,0
15497,-50,4,2,2,40,0,0
16354,571.428571428571,4,2,2,40,1,0
16925,685.714285714286,4,2,2,40,1,0
18982,335.195530726257,4,2,1,5,1,0
19484,-100,4,2,1,60,0,0
20322,335.195530726257,4,2,1,80,1,0
31048,-100,4,2,2,50,0,0
36411,-100,4,2,1,50,0,0
36746,-100,4,2,2,50,0,0
37752,-100,4,2,2,60,0,0
38087,-100,4,2,2,62,0,0
38422,-100,4,2,2,65,0,0
38757,-100,4,2,2,67,0,0
39092,-100,4,2,2,70,0,0
40768,-100,4,2,1,70,0,0
41774,-100,4,2,1,70,0,0
47137,-100,4,2,1,60,0,0
52500,-100,4,2,1,70,0,0
55517,-100,4,2,1,72,0,0
55852,-100,4,2,1,75,0,0
56187,-100,4,2,1,77,0,0
56523,-100,4,2,1,80,0,0
56858,-100,4,2,1,82,0,0
57193,-100,4,2,1,85,0,0
57528,-100,4,2,1,87,0,0
57863,-100,4,2,1,90,0,0
59875,-100,4,2,2,90,0,0
60545,-100,4,2,1,90,0,1
71187,-100,4,2,1,90,0,0
71271,-100,4,2,1,90,0,1
81914,-100,4,2,1,90,0,0
81997,-100,4,2,1,90,0,1
87277,-100,4,2,1,90,0,0
87361,-100,4,2,1,90,0,1
91215,-100,4,2,1,90,0,0
95405,-100,4,2,1,10,0,0

[Colours]
Combo1 : 190,180,240
Combo2 : 255,74,74
Combo3 : 190,200,240
Combo4 : 250,192,250

[HitObjects]
400,148,5768,5,0,0:0:0:0:
320,224,6173,1,0,0:0:0:0:
245,139,6579,2,0,P|177:96|60:176,1,220,6|0,0:0|0:0,0:0:0:0:
41,267,7795,1,0,0:0:0:0:
112,352,8200,2,0,L|223:331,1,110,2|0,0:0|0:0,0:0:0:0:
316,276,9011,1,0,0:0:0:0:
408,336,9416,1,0,0:0:0:0:
480,252,9822,6,0,P|466:198|462:143,1,110,2|0,0:0|0:0,0:0:0:0:
352,140,10633,2,0,P|348:194|334:248,1,110,2|0,0:0|0:0,0:0:0:0:
224,248,11443,2,0,P|210:194|206:139,1,110,2|0,0:0|0:0,0:0:0:0:
240,36,12254,1,2,0:0:0:0:
136,2,12660,1,0,0:0:0:0:
102,104,13065,6,0,P|91:209|178:268,1,220,2|0,0:0|0:0,0:0:0:0:
264,196,14281,1,0,0:0:0:0:
356,256,14687,2,0,L|352:376,1,110,2|0,0:0|0:0,0:0:0:0:
456,352,15497,2,0,L|460:232,1,110,4|0,0:3|0:0,0:0:0:0:
396,152,16354,1,6,0:0:0:0:
88,68,19652,6,0,L|82:122,1,55,8|8,3:2|3:2,0:0:0:0:
100,176,19987,2,0,L|94:230,1,55,8|8,3:2|3:2,0:0:0:0:
48,264,20322,2,0,P|104:248|168:280,1,110,6|8,0:0|0:0,0:0:0:0:
236,336,20992,2,0,L|300:320,1,55,0|2,0:0|0:0,0:0:0:0:
340,304,21327,1,8,0:0:0:0:
284,208,21662,2,0,P|269:144|289:99,1,110,2|8,0:0|0:0,0:0:0:0:
368,32,22333,2,0,L|432:40,1,55,2|2,0:0|0:0,0:0:0:0:
476,48,22668,1,8,0:0:0:0:
512,152,23003,5,2,0:0:0:0:
424,218,23338,1,8,0:0:0:0:
333,155,23673,2,0,L|336:84,1,55,2|2,0:0|0:0,0:0:0:0:
336,44,24009,1,8,0:0:0:0:
232,76,24344,2,0,P|176:96|116:72,1,110,2|8,0:0|0:0,0:0:0:0:
84,52,24847,1,2,0:0:0:0:
84,52,25014,2,0,L|76:116,1,55,2|0,0:0|3:0,0:0:0:0:
32,140,25349,2,0,L|24:204,1,55,8|8,3:2|3:2,0:0:0:0:
48,244,25685,6,0,P|96:236|164:232,1,110,6|8,0:0|0:0,0:0:0:0:
256,276,26355,2,0,L|324:252,1,55,2|2,0:0|0:0,0:0:0:0:
360,236,26690,1,8,0:0:0:0:
404,136,27025,1,6,0:0:0:0:
322,63,27361,1,8,0:0:0:0:
227,118,27696,2,0,L|152:108,1,55,2|0,0:0|3:0,0:0:0:0:
128,144,28031,2,0,L|53:134,1,55,8|0,3:2|3:0,0:0:0:0:
32,100,28366,6,0,P|32:180|20:228,1,110,6|8,0:0|0:0,0:0:0:0:
8,260,28869,1,2,0:0:0:0:
8,260,29037,2,0,L|76:268,1,55,0|0,3:0|3:0,0:0:0:0:
104,304,29372,2,0,L|158:297,1,55,0|0,3:0|3:0,0:0:0:0:
204,328,29707,2,0,P|199:274|229:229,1,110,4|0,3:2|3:0,0:0:0:0:
284,220,30210,2,0,P|324:255|334:308,1,110,4|0,3:2|0:0,0:0:0:0:
321,360,30713,1,4,0:3:0:0:
428,384,31048,6,0,L|432:272,1,110,4|0,3:2|0:0,0:0:0:0:
436,220,31551,1,0,0:0:0:0:
436,220,31718,1,0,0:0:0:0:
344,160,32053,2,0,L|272:176,1,55,0|0,0:0|3:0,0:0:0:0:
247,208,32389,2,0,P|241:153|211:108,1,110,0|0,3:0|0:0,0:0:0:0:
164,84,32891,1,0,0:0:0:0:
164,84,33059,2,0,P|118:114|64:120,1,110,0|0,0:0|0:0,0:0:0:0:
12,108,33562,1,0,3:0:0:0:
12,108,33729,5,4,3:2:0:0:
4,220,34065,2,0,L|20:272,1,55,0|0,0:0|0:0,0:0:0:0:
11,328,34400,2,0,P|57:299|110:309,1,110,0|0,0:0|0:0,0:0:0:0:
156,340,34903,1,0,3:0:0:0:
156,340,35070,2,0,P|208:349|254:321,1,110,0|0,3:0|0:0,0:0:0:0:
288,276,35573,1,0,0:0:0:0:
196,212,35908,2,0,P|156:164|192:68,1,165,4|4,0:0|0:0,0:0:0:0:
268,0,36746,5,0,0:0:0:0:
363,57,37082,1,0,0:0:0:0:
338,165,37416,2,0,P|332:208|336:240,1,55,0|4,0:0|0:3,0:0:0:0:
352,272,37752,1,0,3:0:0:0:
280,356,38087,2,0,L|225:348,1,55,8|8,3:2|3:2,0:0:0:0:
176,372,38422,2,0,L|132:338,1,55,8|8,3:2|3:2,0:0:0:0:
77,333,38757,2,0,L|56:282,1,55,8|8,3:2|3:2,0:0:0:0:
76,232,39092,5,8,3:2:0:0:
76,232,40936,2,0,B|116:208|156:232|156:232|192:256|241:232,1,165,12|0,0:0|3:0,0:0:0:0:
276,204,41606,1,0,3:0:0:0:
276,204,41774,6,0,P|272:248|276:320,1,110,6|8,0:0|0:0,0:0:0:0:
296,364,42277,1,0,0:0:0:0:
296,364,42444,2,0,P|344:360|364:352,1,55,2|0,0:0|0:0,0:0:0:0:
388,316,42780,2,0,P|415:315|442:322,1,55,8|0,0:0|0:0,0:0:0:0:
480,360,43115,2,0,L|492:232,1,110,2|8,0:0|0:0,0:0:0:0:
508,196,43618,2,0,P|456:216|400:184,1,110,0|0,0:0|0:0,0:0:0:0:
372,156,44120,1,8,0:0:0:0:
272,200,44456,6,0,L|288:332,1,110,6|8,0:0|0:0,0:0:0:0:
320,352,44958,1,0,0:0:0:0:
320,352,45126,2,0,P|269:332|217:345,1,110,0|0,3:0|3:0,0:0:0:0:
176,380,45629,1,0,3:0:0:0:
176,380,45796,2,0,P|168:326|130:287,1,110,6|8,0:0|0:0,0:0:0:0:
80,268,46299,2,0,P|32:208|76:120,1,165,6|4,0:0|0:3,0:0:0:0:
156,80,47137,5,6,0:0:0:0:
252,136,47472,2,0,L|248:192,1,55,0|0,0:0|0:0,0:0:0:0:
216,236,47808,2,0,P|276:220|336:248,1,110,8|0,0:0|0:0,0:0:0:0:
384,324,48478,2,0,L|438:320,2,55,2|0|0,0:0|0:0|0:0,0:0:0:0:
348,364,48981,2,0,L|238:373,1,110,0|8,0:0|0:3,0:0:0:0:
184,364,49484,1,8,0:3:0:0:
203,256,49819,6,0,P|207:228|199:202,1,55,6|0,0:0|0:0,0:0:0:0:
156,168,50154,2,0,P|148:141|151:114,1,55,0|0,0:0|0:0,0:0:0:0:
176,64,50489,2,0,P|227:47|279:63,1,110,8|0,0:0|3:0,0:0:0:0:
376,112,51159,2,0,L|436:96,2,55,6|2|2,0:0|0:0|0:0,0:0:0:0:
344,156,51662,2,0,P|324:196|348:268,1,110,6|0,0:0|0:0,0:0:0:0:
380,292,52165,2,0,L|368:360,1,55,0|0,0:0|0:0,0:0:0:0:
332,384,52500,5,4,0:0:0:0:
236,328,52835,1,2,0:0:0:0:
236,328,53003,2,0,L|112:344,1,110,2|2,0:0|0:0,0:0:0:0:
76,364,53506,2,0,P|84:312|80:288,1,55,2|2,0:0|0:0,0:0:0:0:
60,260,53841,1,4,0:0:0:0:
120,168,54176,1,2,0:0:0:0:
120,168,54344,2,0,L|244:184,1,110,2|2,0:0|0:0,0:0:0:0:
280,204,54847,2,0,P|272:152|276:128,1,55,2|2,0:0|0:0,0:0:0:0:
284,96,55182,5,6,0:0:0:0:
388,128,55517,1,8,0:0:0:0:
467,53,55852,1,8,0:0:0:0:
363,21,56187,1,8,0:0:0:0:
284,96,56523,1,12,0:0:0:0:
309,201,56858,1,8,3:2:0:0:
413,231,57193,1,8,3:2:0:0:
388,128,57528,1,8,3:2:0:0:
283,96,57863,6,0,L|160:104,1,110,6|2,0:0|0:0,0:0:0:0:
124,76,58366,2,0,P|123:130|95:176,1,110,6|2,0:0|0:0,0:0:0:0:
44,192,58869,1,2,0:0:0:0:
96,288,59204,2,0,L|88:356,2,55,0|0|0,1:0|1:0|1:0,0:0:0:0:
195,240,59875,2,0,P|222:232|249:232,1,55,0|0,0:0|0:0,0:0:0:0:
304,220,60210,2,0,P|323:239|337:262,1,55,0|0,0:0|0:0,0:0:0:0:
327,316,60545,6,0,P|368:279|421:266,1,110,6|8,0:0|0:0,0:0:0:0:
487,180,61215,2,0,P|494:153|495:125,1,55,2|2,0:0|0:0,0:0:0:0:
492,72,61551,2,0,P|472:52|449:38,1,55,8|0,0:0|0:0,0:0:0:0:
396,28,61886,2,0,P|364:48|280:32,1,110,2|8,0:0|0:0,0:0:0:0:
184,32,62556,2,0,L|173:85,1,55,2|2,0:0|0:0,0:0:0:0:
132,124,62891,2,0,L|149:176,1,55,8|0,0:0|0:0,0:0:0:0:
200,200,63227,5,6,0:0:0:0:
296,144,63562,1,8,0:0:0:0:
378,217,63897,1,6,0:0:0:0:
333,318,64232,2,0,L|268:328,1,55,8|0,0:0|0:0,0:0:0:0:
244,368,64567,2,0,P|207:340|135:334,1,110,6|8,0:0|0:0,0:0:0:0:
96,356,65070,1,0,0:0:0:0:
96,356,65238,2,0,L|85:302,1,55,2|0,3:2|3:0,0:0:0:0:
40,272,65573,2,0,L|50:218,1,55,8|0,3:2|3:0,0:0:0:0:
24,168,65908,6,0,P|76:188|136:160,1,110,6|8,0:0|0:0,0:0:0:0:
200,92,66578,2,0,L|264:100,1,55,2|2,0:0|0:0,0:0:0:0:
296,136,66914,2,0,L|350:129,1,55,8|0,0:0|0:0,0:0:0:0:
392,92,67249,1,2,0:0:0:0:
464,176,67584,1,8,0:0:0:0:
406,269,67919,2,0,P|391:293|382:319,1,55,2|2,0:0|0:0,0:0:0:0:
372,372,68254,2,0,P|345:363|318:361,1,55,8|0,0:0|0:0,0:0:0:0:
264,372,68590,6,0,P|208:380|148:352,1,110,6|8,0:0|0:0,0:0:0:0:
152,252,69260,2,0,P|204:229|269:241,1,110,6|8,0:0|0:0,0:0:0:0:
308,256,69763,1,0,3:0:0:0:
308,256,69930,2,0,P|286:206|291:152,1,110,2|8,3:2|3:2,0:0:0:0:
332,48,70601,2,0,L|277:41,1,55,8|8,3:2|3:2,0:0:0:0:
240,0,70936,2,0,L|196:34,1,55,8|8,3:2|3:2,0:0:0:0:
141,31,71271,6,0,P|168:71|152:151,1,110,6|8,0:0|0:0,0:0:0:0:
84,207,71942,2,0,P|79:234|84:261,1,55,2|2,0:0|0:0,0:0:0:0:
128,296,72277,2,0,P|153:286|174:268,1,55,8|0,0:0|0:0,0:0:0:0:
212,228,72612,2,0,P|248:268|312:288,1,110,2|8,0:0|0:0,0:0:0:0:
403,248,73282,2,0,P|413:222|415:195,1,55,2|2,0:0|0:0,0:0:0:0:
396,144,73618,2,0,P|376:125|363:100,1,55,8|0,0:0|0:0,0:0:0:0:
340,52,73953,5,6,0:0:0:0:
248,112,74288,1,8,0:0:0:0:
150,62,74623,1,6,0:0:0:0:
58,121,74958,2,0,L|68:192,1,55,8|0,0:0|0:0,0:0:0:0:
36,224,75294,2,0,P|96:204|148:228,1,110,6|8,0:0|0:0,0:0:0:0:
176,256,75796,1,0,0:0:0:0:
176,256,75964,2,0,L|229:241,1,55,2|0,0:0|3:0,0:0:0:0:
276,212,76299,2,0,L|329:226,1,55,8|0,3:2|3:0,0:0:0:0:
372,260,76634,6,0,P|364:204|392:148,1,110,6|8,0:0|0:0,0:0:0:0:
456,72,77305,2,0,L|510:78,2,55,2|2|8,0:0|0:0|0:0,0:0:0:0:
371,0,77975,1,6,0:0:0:0:
299,84,78310,1,8,0:0:0:0:
214,12,78646,2,0,L|160:22,1,55,6|0,0:0|0:0,0:0:0:0:
108,8,78981,2,0,L|66:44,1,55,8|0,0:0|0:0,0:0:0:0:
12,44,79316,6,0,P|44:80|44:164,1,110,6|8,0:0|0:0,0:0:0:0:
44,247,79986,2,0,P|53:273|71:294,1,55,2|0,3:2|3:0,0:0:0:0:
124,308,80322,2,0,P|144:289|170:280,1,55,8|0,3:2|3:0,0:0:0:0:
224,288,80657,2,0,L|216:368,2,55,6|2|2,0:0|0:0|0:0,0:0:0:0:
264,252,81159,2,0,L|250:125,1,110,6|0,0:0|0:0,0:0:0:0:
244,88,81662,1,8,0:0:0:0:
351,103,81997,6,0,P|405:109|453:82,1,110,12|8,0:0|0:0,0:0:0:0:
496,48,82500,1,0,0:0:0:0:
496,47,82668,2,0,P|498:75|506:101,1,55,8|0,0:0|0:0,0:0:0:0:
512,156,83003,2,0,P|509:183|501:209,1,55,8|0,0:0|0:0,0:0:0:0:
468,252,83338,1,12,0:0:0:0:
372,196,83673,2,0,L|312:208,1,55,8|0,0:0|0:0,0:0:0:0:
288,252,84009,2,0,L|237:218,1,55,8|0,0:0|0:0,0:0:0:0:
189,232,84345,2,0,L|177:171,1,55,8|0,0:0|0:0,0:0:0:0:
200,128,84679,5,12,0:0:0:0:
108,68,85014,1,8,0:0:0:0:
10,117,85349,1,12,0:0:0:0:
4,226,85685,1,8,0:0:0:0:
96,286,86020,2,0,P|100:328|92:356,2,55,12|2|10,0:0|0:0|0:0,0:0:0:0:
120,236,86523,2,0,P|160:212|236:236,1,110,6|0,0:0|0:0,0:0:0:0:
256,264,87025,1,8,0:0:0:0:
360,228,87361,6,0,P|347:280|365:332,1,110,12|8,0:0|0:0,0:0:0:0:
420,345,87863,1,0,0:0:0:0:
419,345,88031,2,0,P|439:325|450:300,1,55,8|0,0:0|0:0,0:0:0:0:
456,245,88366,2,0,P|452:217|459:191,1,55,8|0,0:0|0:0,0:0:0:0:
476,139,88701,1,12,0:0:0:0:
408,52,89037,2,0,L|354:41,1,55,8|0,0:0|0:0,0:0:0:0:
312,5,89372,2,0,L|266:35,1,55,8|0,0:0|3:0,0:0:0:0:
210,39,89707,2,0,L|199:92,1,55,8|0,3:2|3:0,0:0:0:0:
232,137,90042,6,0,P|172:117|116:145,1,110,12|8,0:0|0:0,0:0:0:0:
40,193,90713,2,0,L|30:138,2,55,0|0|0,3:0|3:0|3:0,0:0:0:0:
80,229,91215,1,6,3:2:0:0:
256,192,91383,12,0,95405,0:0:0:0:
