osu file format v14

[General]
AudioFilename: audio.mp3
AudioLeadIn: 0
PreviewTime: 59791
Countdown: 0
SampleSet: Soft
StackLeniency: 0.5
Mode: 0
LetterboxInBreaks: 0
WidescreenStoryboard: 0

[Editor]
DistanceSpacing: 1.1
BeatDivisor: 4
GridSize: 4
TimelineZoom: 1.6

[Metadata]
Title:MY Mai*TONIGHT
TitleUnicode:MY舞☆TONIGHT
Artist:Aqours
ArtistUnicode:Aqours
Creator:Doormat
Version:Meg's Extra
Source:ラブライブ!サンシャイン!!
Tags:Little CloudSplash16 Meg iMage-- Gaia love live sunshine school idol project festival season two 2 insert song tv size inami anju 伊波杏樹 takami chika 高海千歌 aida rikako 逢田梨香子 sakurauchi riko 桜内梨子 suwa nanaka 諏訪ななか matsuura kanan 松浦果南 komiya arisa 小宮有紗 kurosawa dia 黒澤ダイヤ saito shuka 斉藤朱夏 watanabe you 渡辺曜 kobayashi aika 小林愛香 tsushima yoshiko 津島善子 yohane ヨハネ takatsuki kanako 高槻かなこ kunikida hanamaru 国木田花丸 suzuki aina 鈴木愛奈 ohara mari 小原鞠莉 furihata ai 降幡愛 kurosawa ruby 黒澤ルビィ
BeatmapID:1451020
BeatmapSetID:684717

[Difficulty]
HPDrainRate:6
CircleSize:4
OverallDifficulty:8
ApproachRate:9.2
SliderMultiplier:1.7
SliderTickRate:1

[Events]
//Background and Video events
0,0,"kurosawa.jpg",0,0
Video,0,"video.avi"
//Break Periods
//Storyboard Layer 0 (Background)
//Storyboard Layer 1 (Fail)
//Storyboard Layer 2 (Pass)
//Storyboard Layer 3 (Foreground)
//Storyboard Sound Samples

[TimingPoints]
6579,810.810810810811,4,2,2,40,1,0
6579,-100,4,2,2,40,0,0
6781,-100,4,2,10,40,0,0
8200,-100,4,2,2,40,0,0
8403,-100,4,2,10,40,0,0
9822,-100,4,2,2,40,0,0
10024,-100,4,2,10,40,0,0
10633,-100,4,2,2,40,0,0
10835,-100,4,2,10,40,0,0
11443,-100,4,2,2,40,0,0
11646,-100,4,2,10,40,0,0
12254,-100,4,2,2,40,0,0
12457,-100,4,2,10,40,0,0
13065,-100,4,2,2,40,0,0
13268,-100,4,2,10,40,0,0
14687,-100,4,2,2,40,0,0
14889,-100,4,2,10,40,0,0
15497,857.142857142857,4,2,2,40,1,0
15497,-100,4,2,2,40,0,0
15711,-100,4,2,10,40,0,0
16354,571.428571428571,4,2,2,40,1,0
16925,685.714285714286,4,2,9,40,1,0
18982,335.195530726257,4,2,9,5,1,0
18982,-100,4,2,9,5,0,0
19484,-100,4,2,9,50,0,0
19652,-100,4,2,10,60,0,0
20322,335.195530726257,4,2,9,80,1,0
25182,-100,4,2,10,80,0,0
25685,-100,4,2,9,80,0,0
27863,-100,4,2,10,80,0,0
28366,-100,4,2,9,80,0,0
31048,-133.333333333333,4,2,9,50,0,0
37584,-133.333333333333,4,2,10,50,0,0
37752,-100,4,2,9,60,0,0
38087,-100,4,2,9,62,0,0
38422,-100,4,2,9,65,0,0
38757,-100,4,2,9,67,0,0
39092,-100,4,2,9,70,0,0
46467,-100,4,2,10,70,0,0
47137,-133.333333333333,4,2,9,60,0,0
51159,-100,4,2,9,60,0,0
52500,-133.333333333333,4,2,9,70,0,0
55182,-125,4,2,9,70,0,0
55517,-111.111111111111,4,2,9,72,0,0
55852,-100,4,2,9,75,0,0
56187,-90.9090909090909,4,2,9,77,0,0
56523,-83.3333333333333,4,2,9,80,0,0
56858,-76.9230769230769,4,2,9,82,0,0
57193,-71.4285714285714,4,2,9,85,0,0
57528,-66.6666666666667,4,2,9,87,0,0
57863,-100,4,2,9,90,0,0
60210,-66.6666666666667,4,2,11,90,0,0
60545,-83.3333333333333,4,2,9,90,0,1
70936,-66.6666666666667,4,2,11,90,0,1
71187,-100,4,2,9,90,0,0
71271,-83.3333333333333,4,2,9,90,0,1
81495,-66.6666666666667,4,2,11,90,0,1
81914,-100,4,2,9,90,0,0
81997,-76.9230769230769,4,2,9,90,0,1
86858,-66.6666666666667,4,2,11,90,0,1
87277,-100,4,2,9,90,0,0
87361,-76.9230769230769,4,2,9,90,0,1
91215,-100,4,2,9,90,0,0
92053,-100,4,2,9,70,0,0
92724,-100,4,2,9,50,0,0
93394,-100,4,2,9,40,0,0
94065,-100,4,2,9,30,0,0
94735,-100,4,2,9,20,0,0
95405,-100,4,2,9,10,0,0

[Colours]
Combo1 : 190,180,240
Combo2 : 255,74,74
Combo3 : 190,200,240
Combo4 : 250,192,250

[HitObjects]
28,88,5768,6,0,P|70:92|107:111,1,85
179,240,6579,6,0,L|187:155,1,85
333,240,7389,2,0,L|324:155,1,85
88,341,8200,2,0,L|170:319,1,85,2|0,0:0|0:0,0:0:0:0:
423,341,9011,2,0,L|341:319,1,85
187,155,9822,5,2,0:0:0:0:
324,155,10227,1,0,0:0:0:0:
200,71,10633,5,2,0:0:0:0:
311,239,11038,1,0,0:0:0:0:
279,40,11443,5,2,0:0:0:0:
231,269,11849,1,0,0:0:0:0:
344,92,12254,6,0,P|387:89|425:107,1,85,2|0,0:0|0:0,0:0:0:0:
479,315,13065,6,0,B|391:279|402:367|319:327,1,170,2|0,0:0|0:0,0:0:0:0:
137,222,14281,1,0,0:0:0:0:
235,186,14687,2,0,P|241:227|230:268,1,85,2|0,0:0|0:0,0:0:0:0:
117,356,15497,2,0,P|84:283|136:221,1,170,2|6,0:0|0:0,0:0:0:0:
256,192,16496,12,0,18982,0:0:0:0:
334,71,19484,6,0,L|344:113,1,42.5
384,188,19652,2,0,L|374:230,3,42.5,12|8|8|8,0:0|0:0|0:0|0:0,0:0:0:0:
334,305,19987,5,8,0:0:0:0:
285,327,20071,1,8,0:0:0:0:
234,321,20155,1,8,0:0:0:0:
195,286,20238,1,8,0:0:0:0:
181,234,20322,6,0,P|130:198|69:210,1,127.5,6|0,0:0|0:0,0:0:0:0:
20,267,20657,1,8,0:0:0:0:
89,71,20824,1,0,0:0:0:0:
89,71,20908,1,0,0:0:0:0:
89,71,20992,6,0,L|98:112,1,42.5,2|0,0:0|0:0,0:0:0:0:
181,234,21159,2,0,L|190:192,1,42.5,2|0,0:0|0:0,0:0:0:0:
240,69,21327,2,0,B|302:88|302:88|361:68,1,127.5,8|0,0:0|0:0,0:0:0:0:
451,16,21662,6,0,L|424:140,1,127.5,2|0,0:0|0:0,0:0:0:0:
460,218,21997,2,0,L|502:211,1,42.5,8|0,0:0|0:0,0:0:0:0:
343,301,22165,2,0,L|300:307,1,42.5
443,318,22333,5,2,0:0:0:0:
443,318,22416,1,0,0:0:0:0:
443,318,22500,2,0,L|449:360,1,42.5,2|0,0:0|0:0,0:0:0:0:
360,201,22668,1,8,0:0:0:0:
360,201,22752,1,0,0:0:0:0:
360,201,22835,2,0,L|353:158,1,42.5
300,307,23003,5,2,0:0:0:0:
257,300,23087,1,0,0:0:0:0:
215,294,23171,1,0,0:0:0:0:
173,287,23254,1,0,0:0:0:0:
131,281,23338,2,0,L|101:310,3,42.5,8|0|0|0,0:0|0:0|0:0|0:0,0:0:0:0:
21,260,23673,6,0,P|19:238|21:217,1,42.5,2|0,0:0|0:0,0:0:0:0:
49,125,23841,2,0,P|66:113|85:104,1,42.5,2|0,0:0|0:0,0:0:0:0:
179,82,24009,2,0,P|198:91|215:103,3,42.5,8|0|0|0,0:0|0:0|0:0|0:0,0:0:0:0:
240,223,24344,6,0,L|246:180,1,42.5,2|0,0:0|0:0,0:0:0:0:
305,62,24511,2,0,L|311:104,1,42.5,2|0,0:0|0:0,0:0:0:0:
332,271,24679,2,0,L|338:228,1,42.5,8|0,0:0|0:0,0:0:0:0:
397,110,24847,2,0,L|403:152,1,42.5
424,319,25014,5,2,0:0:0:0:
489,158,25182,1,8,0:0:0:0:
500,125,25266,1,8,0:0:0:0:
499,90,25349,1,8,0:0:0:0:
486,57,25433,1,8,0:0:0:0:
462,31,25517,1,8,0:0:0:0:
431,14,25601,1,8,0:0:0:0:
396,9,25685,6,0,L|270:34,1,127.5,6|0,0:0|0:0,0:0:0:0:
188,28,26020,1,8,0:0:0:0:
397,110,26187,1,0,0:0:0:0:
397,110,26271,1,0,0:0:0:0:
397,110,26355,6,0,L|383:150,1,42.5,2|0,0:0|0:0,0:0:0:0:
332,271,26523,2,0,L|318:230,1,42.5,2|0,0:0|0:0,0:0:0:0:
235,147,26690,2,0,P|175:130|124:165,1,127.5,8|0,0:0|0:0,0:0:0:0:
67,242,27025,6,0,L|89:367,1,127.5,6|0,0:0|0:0,0:0:0:0:
180,249,27361,2,0,L|187:207,3,42.5,8|0|0|0,0:0|0:0|0:0|0:0,0:0:0:0:
245,343,27696,1,2,0:0:0:0:
67,242,27863,5,8,0:0:0:0:
74,200,27947,1,8,0:0:0:0:
82,158,28031,1,8,0:0:0:0:
89,116,28115,1,8,0:0:0:0:
96,73,28199,2,0,P|77:66|56:62,1,42.5,8|0,0:0|0:0,0:0:0:0:
186,207,28366,6,0,L|312:189,1,127.5,6|0,0:0|0:0,0:0:0:0:
407,176,28701,1,8,0:0:0:0:
259,78,28869,1,0,0:0:0:0:
368,305,29037,2,0,L|371:263,1,42.5,2|0,0:0|0:0,0:0:0:0:
413,88,29204,1,2,0:0:0:0:
413,88,29288,1,2,0:0:0:0:
413,88,29372,2,0,L|453:100,1,42.5,8|0,0:0|0:0,0:0:0:0:
505,236,29539,2,0,L|464:248,1,42.5
290,358,29707,5,6,0:0:0:0:
270,320,29791,1,0,0:0:0:0:
235,297,29875,1,0,0:0:0:0:
193,292,29958,1,0,0:0:0:0:
154,307,30042,1,8,0:0:0:0:
10,210,30210,2,0,L|13:189,10,21.25,12|0|0|0|0|0|0|0|0|0|0,0:0|0:0|0:0|0:0|0:0|0:0|0:0|0:0|0:0|0:0|0:0,0:0:0:0:
19,237,30713,2,0,P|60:239|98:219,1,85,2|0,0:0|0:0,0:0:0:0:
201,90,31048,6,0,P|250:51|312:59,1,127.500004863739,4|0,3:2|3:0,0:0:0:0:
381,177,31551,1,0,0:0:0:0:
262,252,31718,2,0,L|272:125,1,127.500004863739,0|0,3:0|3:0,0:0:0:0:
222,349,32221,1,0,0:0:0:0:
365,290,32389,6,0,P|396:299|425:313,1,63.7500024318696,0|0,3:0|0:0,0:0:0:0:
509,257,32724,2,0,P|500:226|498:194,1,63.7500024318696,0|0,3:0|0:0,0:0:0:0:
408,150,33059,1,0,3:0:0:0:
408,150,33394,2,0,P|385:172|358:189,1,63.7500024318696,0|0,3:0|0:0,0:0:0:0:
262,252,33729,6,0,P|203:228|139:220,1,127.500004863739,2|0,3:0|3:0,0:0:0:0:
12,322,34232,1,0,0:0:0:0:
74,371,34400,2,0,P|92:311|60:258,1,127.500004863739,0|0,3:0|3:0,0:0:0:0:
45,109,34903,1,0,0:0:0:0:
160,139,35070,6,0,L|253:117,1,95.6250036478044,0|0,3:0|0:0,0:0:0:0:
247,102,35405,2,0,L|309:116,1,63.7500024318696,0|0,3:0|0:0,0:0:0:0:
402,137,35740,1,0,3:0:0:0:
172,46,35908,1,4,3:2:0:0:
172,46,36411,5,6,0:0:0:0:
60,258,36746,2,0,L|51:194,1,63.7500024318696,0|0,3:0|0:0,0:0:0:0:
190,278,37081,2,0,L|181:214,1,63.7500024318696,0|0,3:0|0:0,0:0:0:0:
320,298,37416,1,0,3:0:0:0:
312,132,37584,1,0,3:0:0:0:
310,124,37668,1,0,3:0:0:0:
309,116,37752,2,0,P|260:77|198:87,1,127.5,0|0,3:0|0:0,0:0:0:0:
172,126,38087,5,8,0:0:0:0:
190,278,38254,1,8,0:0:0:0:
88,144,38422,5,8,0:0:0:0:
274,260,38590,1,8,0:0:0:0:
41,216,38757,5,8,0:0:0:0:
320,187,38925,1,8,0:0:0:0:
60,369,39092,5,8,0:0:0:0:
301,34,40768,1,8,0:0:0:0:
437,64,40936,5,0,1:0:0:0:
456,84,41020,1,0,1:0:0:0:
468,109,41104,1,0,1:0:0:0:
471,137,41187,1,0,1:0:0:0:
466,165,41271,1,0,1:0:0:0:
452,190,41355,1,0,1:0:0:0:
430,208,41439,2,0,L|388:210,1,42.5,0|0,1:0|1:0,0:0:0:0:
273,125,41606,2,0,L|315:127,1,42.5,0|0,1:0|1:0,0:0:0:0:
496,241,41774,6,0,L|326:251,1,170,6|8,0:0|0:0,0:0:0:0:
221,325,42277,1,0,0:0:0:0:
235,118,42444,2,0,P|246:159|250:201,2,85,2|2|8,0:0|0:0|0:0,0:0:0:0:
117,35,42947,1,0,0:0:0:0:
20,196,43115,6,0,P|73:163|134:176,1,127.5,2|0,0:0|0:0,0:0:0:0:
165,212,43450,1,8,0:0:0:0:
315,127,43618,1,0,0:0:0:0:
315,127,43701,1,0,0:0:0:0:
315,127,43785,1,2,0:0:0:0:
405,254,43953,1,2,0:0:0:0:
405,254,44037,1,2,0:0:0:0:
405,254,44120,2,0,L|364:266,1,42.5,8|0,0:0|0:0,0:0:0:0:
261,337,44288,2,0,L|220:324,1,42.5
117,254,44456,6,0,P|94:174|132:100,1,170,6|8,0:0|0:0,0:0:0:0:
43,323,44958,1,0,0:0:0:0:
207,184,45126,1,8,0:0:0:0:
249,181,45210,1,8,0:0:0:0:
291,179,45294,1,8,0:0:0:0:
334,177,45377,1,8,0:0:0:0:
376,175,45461,2,0,L|418:173,1,42.5,8|8,0:0|0:0,0:0:0:0:
306,275,45629,2,0,L|264:277,1,42.5,8|8,0:0|0:0,0:0:0:0:
420,326,45796,5,4,3:2:0:0:
207,184,45964,1,0,0:0:0:0:
437,70,46132,1,2,0:0:0:0:
306,275,46299,2,0,L|300:232,1,42.5,6|0,0:0|0:0,0:0:0:0:
292,93,46467,6,0,P|316:79|344:73,2,56.6666666666667,8|8|8,3:0|3:0|3:0,0:0:0:0:
207,184,46802,2,0,P|179:178|154:164,2,56.6666666666667,4|4|4,3:0|3:0|3:0,0:0:0:0:
347,163,47137,5,4,3:2:0:0:
347,163,47472,2,0,P|391:209|408:270,2,127.500004863739,0|0|2,0:0|3:0|0:0,0:0:0:0:
166,102,48310,1,2,0:0:0:0:
166,102,48478,6,0,L|154:164,1,63.7500024318696,0|0,3:0|0:0,0:0:0:0:
203,318,48813,1,0,0:0:0:0:
300,317,48981,2,0,P|296:285|282:257,1,63.7500024318696,0|0,0:0|3:0,0:0:0:0:
126,235,49316,1,0,0:0:0:0:
126,235,49484,2,0,L|62:242,1,63.7500024318696,2|2,0:0|0:0,0:0:0:0:
133,24,49819,5,4,3:2:0:0:
166,102,49986,1,0,0:0:0:0:
235,151,50154,1,0,0:0:0:0:
320,157,50322,1,0,0:0:0:0:
396,119,50489,5,0,3:0:0:0:
269,221,50657,1,0,0:0:0:0:
301,382,50824,1,0,0:0:0:0:
428,280,50992,1,2,0:0:0:0:
428,280,51076,1,2,0:0:0:0:
428,280,51159,6,0,P|385:273|343:273,1,85,6|2,0:0|0:0,0:0:0:0:
114,335,51495,1,2,0:0:0:0:
235,151,51662,2,0,P|239:193|235:235,1,85,6|0,0:0|0:0,0:0:0:0:
134,43,51997,1,0,0:0:0:0:
134,43,52081,1,0,0:0:0:0:
134,43,52165,2,0,L|176:48,1,42.5,8|0,0:0|0:0,0:0:0:0:
301,118,52333,2,0,L|258:123,1,42.5,2|0,0:0|0:0,0:0:0:0:
95,207,52500,6,0,P|155:192|212:219,1,127.500004863739,6|2,0:0|0:0,0:0:0:0:
255,302,53003,1,0,0:0:0:0:
340,185,53171,1,8,0:0:0:0:
390,342,53338,1,8,0:0:0:0:
212,219,53506,1,8,0:0:0:0:
468,151,53673,1,8,0:0:0:0:
322,311,53841,6,0,L|339:184,1,127.500004863739,6|2,0:0|0:0,0:0:0:0:
336,93,54344,1,0,0:0:0:0:
468,151,54511,1,8,0:0:0:0:
310,205,54679,1,8,0:0:0:0:
446,20,54847,1,8,0:0:0:0:
490,282,55014,1,8,0:0:0:0:
336,93,55182,6,0,L|268:97,1,68,14|0,0:0|0:0,0:0:0:0:
151,157,55517,6,0,L|227:162,1,76.4999976654053,8|0,3:2|0:0,0:0:0:0:
394,199,55852,6,0,L|309:204,1,85,12|0,0:0|0:0,0:0:0:0:
92,262,56187,6,0,L|186:269,1,93.5000028533936,8|0,3:2|0:0,0:0:0:0:
450,304,56523,6,0,L|349:311,1,101.999996887207,12|0,0:0|0:0,0:0:0:0:
151,157,56858,6,0,L|206:160,2,55.2499974708558,8|0|0,3:2|0:0|0:0,0:0:0:0:
454,84,57193,6,0,L|335:92,1,118.999996368408,12|0,0:0|0:0,0:0:0:0:
106,43,57528,6,0,L|169:47,2,63.7500024318696,8|0|0,3:2|0:0|0:0,0:0:0:0:
349,311,57863,5,12,0:0:0:0:
118,199,58031,1,0,0:0:0:0:
439,87,58199,1,0,0:0:0:0:
163,311,58366,5,12,0:0:0:0:
394,199,58534,1,0,0:0:0:0:
73,87,58701,1,0,0:0:0:0:
256,192,58869,6,0,L|256:213,6,21.25,8|0|0|0|0|0|0,0:0|0:0|0:0|0:0|0:0|0:0|0:0,0:0:0:0:
256,170,59204,5,12,0:0:0:0:
73,297,59372,1,12,0:0:0:0:
439,297,59539,1,12,0:0:0:0:
439,297,59875,6,0,L|447:255,3,42.5,0|0|0|0,3:0|0:0|0:0|0:0,0:0:0:0:
501,197,60210,6,0,P|472:183|440:180,1,63.7500024318696,8|0,1:2|0:0,0:0:0:0:
288,293,60377,2,0,P|317:307|349:310,1,63.7500024318696
397,192,60545,6,0,L|413:39,1,152.999995330811,4|0,3:2|0:0,0:0:0:0:
484,30,60880,2,0,P|440:56|393:74,1,101.999996887207,8|0,0:0|0:0,0:0:0:0:
148,113,61215,2,0,P|218:90|278:132,1,152.999995330811,0|0,3:0|0:0,0:0:0:0:
304,201,61551,2,0,L|295:251,1,50.9999984436036,8|0,0:0|0:0,0:0:0:0:
401,125,61718,2,0,L|392:74,1,50.9999984436036
494,307,61886,6,0,B|441:289|441:289|347:310,1,152.999995330811,6|0,3:2|0:0,0:0:0:0:
274,380,62221,2,0,L|174:355,1,101.999996887207,8|0,0:0|0:0,0:0:0:0:
44,301,62556,2,0,P|40:276|41:251,1,50.9999984436036,0|0,3:0|0:0,0:0:0:0:
198,204,62724,1,0,0:0:0:0:
198,204,62808,1,0,0:0:0:0:
198,204,62891,2,0,P|178:220|155:232,1,50.9999984436036,8|0,0:0|0:0,0:0:0:0:
36,120,63059,2,0,P|59:129|81:142,1,50.9999984436036
254,277,63227,6,0,P|289:211|266:141,1,152.999995330811,4|0,3:2|0:0,0:0:0:0:
206,70,63562,2,0,P|271:105|341:82,1,152.999995330811,8|0,3:2|0:0,0:0:0:0:
413,21,63897,2,0,P|377:86|400:156,1,152.999995330811,4|0,3:2|0:0,0:0:0:0:
461,228,64232,2,0,P|395:192|325:215,1,152.999995330811,8|0,3:2|0:0,0:0:0:0:
253,277,64567,6,0,P|188:312|118:290,1,152.999995330811,4|0,3:2|0:0,0:0:0:0:
42,233,64903,2,0,L|50:131,1,101.999996887207,8|0,0:0|0:0,0:0:0:0:
201,19,65238,1,8,3:2:0:0:
203,44,65322,1,0,1:0:0:0:
205,69,65405,1,0,1:0:0:0:
207,95,65489,1,0,1:0:0:0:
209,120,65573,2,0,L|158:114,1,50.9999984436036,0|0,1:0|1:0,0:0:0:0:
325,214,65740,2,0,L|375:208,1,50.9999984436036,0|0,1:0|1:0,0:0:0:0:
209,308,65908,6,0,B|99:290|99:290|133:266,1,152.999995330811,4|0,3:2|0:0,0:0:0:0:
230,197,66243,2,0,L|240:298,1,101.999996887207,8|0,0:0|0:0,0:0:0:0:
395,374,66578,2,0,L|410:221,1,152.999995330811,0|0,3:0|0:0,0:0:0:0:
478,177,66914,1,8,0:0:0:0:
370,40,67081,1,0,0:0:0:0:
370,40,67165,1,0,0:0:0:0:
370,39,67249,6,0,B|322:52|298:92|298:92|281:69|251:52,1,152.999995330811,4|0,3:2|0:0,0:0:0:0:
125,146,67584,2,0,L|227:137,1,101.999996887207,8|0,0:0|0:0,0:0:0:0:
415,171,67919,1,0,3:0:0:0:
415,171,68003,1,0,0:0:0:0:
415,171,68087,2,0,L|409:221,1,50.9999984436036
251,52,68254,1,8,0:0:0:0:
251,52,68338,1,0,0:0:0:0:
251,52,68422,2,0,L|256:102,1,50.9999984436036
132,267,68590,6,0,P|81:258|31:248,1,101.999996887207,4|0,3:2|0:0,0:0:0:0:
243,359,68925,2,0,P|292:348|343:340,1,101.999996887207,8|0,3:2|0:0,0:0:0:0:
343,340,69176,1,0,0:0:0:0:
343,340,69260,1,4,3:2:0:0:
216,235,69428,1,0,0:0:0:0:
413,169,69595,1,8,3:2:0:0:
285,63,69763,1,0,0:0:0:0:
285,63,69847,1,0,0:0:0:0:
284,63,69930,5,12,3:2:0:0:
258,90,70014,1,0,0:0:0:0:
223,102,70098,1,0,0:0:0:0:
185,96,70182,1,0,0:0:0:0:
155,74,70266,1,8,3:2:0:0:
127,50,70349,1,0,0:0:0:0:
92,42,70433,1,0,0:0:0:0:
57,51,70517,1,0,0:0:0:0:
30,75,70601,1,8,3:2:0:0:
17,108,70685,1,0,0:0:0:0:
21,144,70768,1,0,0:0:0:0:
41,175,70852,1,0,0:0:0:0:
56,208,70936,6,0,P|62:240|62:272,1,63.7500024318696,8|0,1:2|0:0,0:0:0:0:
194,368,71104,2,0,P|194:336|199:304,1,63.7500024318696
309,199,71271,6,0,L|460:220,1,152.999995330811,4|0,3:2|0:0,0:0:0:0:
456,134,71606,2,0,P|408:150|380:191,1,101.999996887207,8|0,0:0|0:0,0:0:0:0:
316,376,71942,2,0,P|272:317|198:304,1,152.999995330811,0|0,3:0|0:0,0:0:0:0:
125,356,72277,2,0,P|114:333|111:307,1,50.9999984436036,8|0,0:0|0:0,0:0:0:0:
51,213,72444,2,0,P|59:189|75:169,1,50.9999984436036
100,56,72612,6,0,P|173:40|241:71,1,152.999995330811,4|0,3:2|0:0,0:0:0:0:
307,121,72947,2,0,P|256:122|212:148,1,101.999996887207,8|0,0:0|0:0,0:0:0:0:
111,307,73282,1,0,3:0:0:0:
136,311,73366,1,0,0:0:0:0:
161,316,73450,1,0,0:0:0:0:
186,321,73534,1,0,0:0:0:0:
211,326,73618,2,0,L|216:376,1,50.9999984436036,8|0,0:0|0:0,0:0:0:0:
340,259,73785,2,0,L|345:208,1,50.9999984436036
216,140,73953,6,0,P|180:78|219:16,1,152.999995330811,4|0,3:2|0:0,0:0:0:0:
234,144,74288,2,0,P|171:180|109:141,1,152.999995330811,8|0,3:2|0:0,0:0:0:0:
237,125,74623,2,0,P|273:187|234:249,1,152.999995330811,4|0,3:2|0:0,0:0:0:0:
219,122,74958,2,0,P|281:85|343:124,1,152.999995330811,8|0,3:2|0:0,0:0:0:0:
374,203,75294,6,0,P|435:242|498:205,1,152.999995330811,4|0,3:2|0:0,0:0:0:0:
505,123,75629,2,0,L|486:22,1,101.999996887207,8|0,0:0|0:0,0:0:0:0:
270,24,75964,1,8,3:2:0:0:
233,34,76048,1,0,1:0:0:0:
202,56,76132,1,0,1:0:0:0:
179,86,76215,1,0,1:0:0:0:
167,122,76299,1,0,1:0:0:0:
167,160,76383,1,0,1:0:0:0:
179,196,76467,1,0,1:0:0:0:
202,227,76551,1,0,1:0:0:0:
232,248,76634,6,0,P|271:184|249:113,1,152.999995330811,4|0,3:2|0:0,0:0:0:0:
179,86,76970,2,0,L|77:97,1,101.999996887207,8|0,0:0|0:0,0:0:0:0:
17,276,77305,2,0,L|67:270,1,50.9999984436036,0|0,3:0|0:0,0:0:0:0:
188,323,77472,5,0,0:0:0:0:
188,323,77556,1,0,0:0:0:0:
188,322,77640,2,0,P|220:257|182:194,1,152.999995330811,8|0,0:0|0:0,0:0:0:0:
98,191,77975,1,4,3:2:0:0:
339,224,78143,5,0,0:0:0:0:
339,224,78227,1,0,0:0:0:0:
339,223,78310,2,0,P|315:153|244:136,1,152.999995330811,8|0,0:0|0:0,0:0:0:0:
182,194,78646,1,4,3:2:0:0:
377,46,78813,5,0,0:0:0:0:
377,46,78897,1,0,0:0:0:0:
376,45,78981,2,0,P|310:12|247:50,1,152.999995330811,8|0,0:0|0:0,0:0:0:0:
244,136,79316,6,0,L|345:124,1,101.999996887207,4|0,3:2|0:0,0:0:0:0:
475,292,79651,2,0,L|373:303,1,101.999996887207,8|0,3:2|0:0,0:0:0:0:
115,346,79986,1,8,3:2:0:0:
127,297,80070,1,8,0:0:0:0:
162,261,80154,1,8,0:0:0:0:
211,247,80238,1,8,0:0:0:0:
260,260,80322,1,8,3:2:0:0:
77,97,80489,1,0,0:0:0:0:
244,136,80657,6,0,P|249:111|248:85,1,50.9999984436036,4|0,3:2|0:0,0:0:0:0:
162,261,80824,2,0,P|156:285|157:311,1,50.9999984436036,0|0,3:0|0:0,0:0:0:0:
140,157,80992,2,0,P|115:151|90:152,1,50.9999984436036,8|0,3:0|0:0,0:0:0:0:
265,239,81159,2,0,P|340:243|407:208,1,152.999995330811,4|0,3:2|0:0,0:0:0:0:
398,116,81495,6,0,P|385:146|378:177,1,63.7500024318696
466,345,81662,1,8,1:2:0:0:
466,345,81746,1,0,0:0:0:0:
466,345,81830,2,0,P|448:318|421:302,1,63.7500024318696
265,239,81997,5,12,3:2:0:0:
461,158,82165,1,0,0:0:0:0:
248,85,82333,1,8,3:2:0:0:
350,264,82500,1,0,0:0:0:0:
124,177,82668,1,8,3:2:0:0:
312,24,82835,1,0,0:0:0:0:
461,158,83003,2,0,L|351:146,1,110.499994941712,8|0,3:2|0:0,0:0:0:0:
180,312,83338,5,12,3:2:0:0:
350,264,83506,1,0,0:0:0:0:
124,177,83673,1,8,3:2:0:0:
321,104,83841,1,0,0:0:0:0:
434,283,84009,1,8,3:2:0:0:
414,320,84092,1,0,0:0:0:0:
381,343,84176,1,0,0:0:0:0:
340,348,84260,1,0,0:0:0:0:
302,333,84344,1,8,3:2:0:0:
244,136,84511,2,0,P|223:154|208:177,1,55.2499974708558
180,312,84679,6,0,P|134:281|80:270,1,110.499994941712,12|0,3:2|0:0,0:0:0:0:
346,237,85014,2,0,P|391:206|445:195,1,110.499994941712,8|0,3:2|0:0,0:0:0:0:
138,160,85349,2,0,P|92:129|38:118,1,110.499994941712,8|0,3:2|0:0,0:0:0:0:
387,85,85685,2,0,P|409:67|433:54,3,55.2499974708558,8|0|0|0,3:2|0:0|0:0|0:0,0:0:0:0:
298,161,86020,6,0,L|244:173,1,55.2499974708558,12|0,3:2|0:0,0:0:0:0:
138,160,86187,2,0,L|153:107,1,55.2499974708558,0|0,3:0|0:0,0:0:0:0:
218,22,86355,2,0,L|255:62,1,55.2499974708558,0|0,3:0|0:0,0:0:0:0:
330,178,86523,6,0,L|222:203,1,110.499994941712,12|0,3:2|0:0,0:0:0:0:
46,262,86858,6,0,P|78:268|108:279,1,63.7500024318696
252,356,87025,1,8,1:2:0:0:
252,356,87109,1,0,0:0:0:0:
252,356,87193,2,0,P|283:350|313:339,1,63.7500024318696
458,262,87361,5,12,3:2:0:0:
387,85,87528,1,0,0:0:0:0:
222,202,87696,1,8,3:2:0:0:
392,185,87863,1,0,0:0:0:0:
218,22,88031,1,8,3:2:0:0:
164,255,88199,1,0,0:0:0:0:
302,139,88366,2,0,L|290:29,1,110.499994941712,8|0,3:2|0:0,0:0:0:0:
346,237,88701,5,12,3:2:0:0:
138,160,88869,1,0,0:0:0:0:
290,29,89037,1,8,3:2:0:0:
222,202,89204,1,0,0:0:0:0:
87,68,89372,5,8,3:2:0:0:
55,93,89455,1,0,0:0:0:0:
36,129,89539,1,0,0:0:0:0:
33,170,89623,1,0,0:0:0:0:
45,209,89707,5,8,3:2:0:0:
15,253,89790,1,0,0:0:0:0:
22,306,89874,1,0,0:0:0:0:
63,341,89958,1,0,0:0:0:0:
117,338,90042,6,0,P|189:299|270:308,1,165.749992412568,12|0,3:2|0:0,0:0:0:0:
339,355,90377,1,8,3:2:0:0:
360,175,90545,1,8,0:0:0:0:
360,175,90629,1,8,0:0:0:0:
360,175,90713,6,0,L|306:190,1,55.2499974708558,12|0,3:2|0:0,0:0:0:0:
147,113,90880,2,0,L|200:128,1,55.2499974708558,8|0,3:2|0:0,0:0:0:0:
360,51,91048,2,0,L|306:66,1,55.2499974708558,8|0,3:2|0:0,0:0:0:0:
147,237,91215,1,12,0:0:0:0:
256,192,91299,12,0,95405,0:0:0:0:
