osu file format v14

[General]
AudioFilename: audio.mp3
AudioLeadIn: 0
PreviewTime: 59791
Countdown: 0
SampleSet: Soft
StackLeniency: 0.7
Mode: 0
LetterboxInBreaks: 0
WidescreenStoryboard: 1

[Editor]
DistanceSpacing: 0.9
BeatDivisor: 4
GridSize: 4
TimelineZoom: 1.6

[Metadata]
Title:MY Mai*TONIGHT
TitleUnicode:MY舞☆TONIGHT
Artist:Aqours
ArtistUnicode:Aqours
Creator:Doormat
Version:Little's Insane
Source:ラブライブ!サンシャイン!!
Tags:Little CloudSplash16 Meg iMage-- Gaia love live sunshine school idol project festival season two 2 insert song tv size inami anju 伊波杏樹 takami chika 高海千歌 aida rikako 逢田梨香子 sakurauchi riko 桜内梨子 suwa nanaka 諏訪ななか matsuura kanan 松浦果南 komiya arisa 小宮有紗 kurosawa dia 黒澤ダイヤ saito shuka 斉藤朱夏 watanabe you 渡辺曜 kobayashi aika 小林愛香 tsushima yoshiko 津島善子 yohane ヨハネ takatsuki kanako 高槻かなこ kunikida hanamaru 国木田花丸 suzuki aina 鈴木愛奈 ohara mari 小原鞠莉 furihata ai 降幡愛 kurosawa ruby 黒澤ルビィ
BeatmapID:1451019
BeatmapSetID:684717

[Difficulty]
HPDrainRate:6
CircleSize:4
OverallDifficulty:7.6
ApproachRate:9.2
SliderMultiplier:1.7
SliderTickRate:1

[Events]
//Background and Video events
0,0,"kurosawa.jpg",0,0
Video,0,"video.avi"
//Break Periods
//Storyboard Layer 0 (Background)
//Storyboard Layer 1 (Fail)
//Storyboard Layer 2 (Pass)
//Storyboard Layer 3 (Foreground)
//Storyboard Sound Samples

[TimingPoints]
6579,810.810810810811,4,2,16,50,1,0
15497,857.142857142857,4,2,16,60,1,0
16354,571.428571428571,4,2,16,60,1,0
16496,-100,4,2,16,40,0,0
16925,685.714285714286,4,2,16,40,1,0
18982,335.195530726257,4,2,16,40,1,0
19484,-100,4,2,17,70,0,0
19652,-100,4,2,16,70,0,0
20322,335.195530726257,4,2,17,70,1,0
25182,-100,4,2,16,70,0,0
25685,-100,4,2,17,70,0,0
27863,-100,4,2,16,70,0,0
28366,-100,4,2,17,70,0,0
31048,-125,4,2,16,50,0,0
35908,-166.666666666667,4,2,16,50,0,0
36411,-125,4,2,16,60,0,0
37752,-100,4,2,16,70,0,0
41774,-100,4,2,17,70,0,0
47137,-166.666666666667,4,2,16,75,0,0
51159,-100,4,2,17,75,0,0
52500,-100,4,2,17,60,0,0
53841,-100,4,2,17,70,0,0
59875,-100,4,2,16,70,0,0
60545,-100,4,2,17,80,0,1
70014,-100,4,2,16,70,0,1
70266,-100,4,2,17,80,0,1
70349,-100,4,2,16,70,0,1
71187,-100,4,2,16,70,0,0
71271,-100,4,2,17,80,0,1
79986,-100,4,2,16,70,0,1
81914,-100,4,2,16,70,0,0
81997,-100,4,2,17,70,0,1
87277,-100,4,2,17,70,0,0
87361,-100,4,2,17,70,0,1
90545,-100,4,2,16,70,0,1
91215,-100,4,2,17,70,0,0

[Colours]
Combo1 : 190,180,240
Combo2 : 255,74,74
Combo3 : 190,200,240
Combo4 : 250,192,250

[HitObjects]
152,247,6579,6,0,P|215:197|207:116,1,170,4|0,0:0|0:0,0:0:0:0:
140,164,7795,1,0,0:0:0:0:
236,228,8200,2,0,L|404:209,1,170,2|2,0:0|0:0,0:0:0:0:
332,316,9416,1,0,0:0:0:0:
251,144,9822,6,0,L|236:228,1,85,2|0,0:0|0:0,0:0:0:0:
88,160,10633,2,0,L|72:76,1,85,2|0,0:0|0:0,0:0:0:0:
251,144,11443,1,2,0:0:0:0:
251,144,12254,1,2,0:0:0:0:
88,160,12660,1,0,0:0:0:0:
304,208,13065,6,0,P|332:131|284:66,1,170,2|0,0:0|0:0,0:0:0:0:
88,160,14281,1,0,0:0:0:0:
251,144,14687,1,2,0:0:0:0:
76,68,15092,1,0,0:0:0:0:
212,304,15497,1,8,0:3:0:0:
200,28,15925,1,0,0:0:0:0:
56,264,16354,5,4,0:3:0:0:
256,192,16496,12,0,18982,0:0:0:0:
392,212,19484,6,0,L|400:260,1,42.5,2|2,0:0|0:0,0:0:0:0:
328,336,19652,5,8,0:0:0:0:
294,352,19735,1,8,0:0:0:0:
257,355,19819,1,8,0:0:0:0:
222,345,19903,1,8,0:0:0:0:
192,323,19987,1,8,0:0:0:0:
173,291,20070,1,8,0:0:0:0:
166,255,20154,1,8,0:0:0:0:
173,218,20238,1,8,0:0:0:0:
192,187,20322,6,0,L|275:167,1,85,6|0,0:0|0:0,0:0:0:0:
398,253,20657,2,0,L|418:81,1,170,8|2,0:0|0:0,0:0:0:0:
284,12,21159,1,2,0:0:0:0:
275,167,21327,2,0,L|357:146,1,85,8|0,0:0|0:0,0:0:0:0:
463,300,21662,6,0,P|390:335|324:288,1,170,2|8,0:0|0:0,0:0:0:0:
357,146,22165,1,0,0:0:0:0:
239,24,22333,1,2,0:0:0:0:
192,187,22500,1,2,0:0:0:0:
357,146,22668,2,0,L|274:125,1,85,8|0,0:0|0:0,0:0:0:0:
128,136,23003,6,0,P|112:175|117:217,1,85,2|0,0:0|0:0,0:0:0:0:
277,312,23338,2,0,P|293:273|288:232,1,85,8|0,0:0|0:0,0:0:0:0:
128,136,23673,1,2,0:0:0:0:
214,262,23841,1,2,0:0:0:0:
274,125,24009,1,8,0:0:0:0:
96,252,24176,1,2,0:0:0:0:
96,252,24260,1,2,0:0:0:0:
96,252,24344,6,0,L|0:240,1,85,2|2,0:0|0:0,0:0:0:0:
274,125,24679,2,0,L|370:113,1,85,8|2,0:0|0:0,0:0:0:0:
424,252,25014,1,2,0:0:0:0:
235,208,25182,1,8,0:0:0:0:
202,233,25265,1,8,0:0:0:0:
186,271,25349,1,8,0:0:0:0:
192,313,25433,1,8,0:0:0:0:
218,346,25517,1,8,0:0:0:0:
258,360,25600,1,8,0:0:0:0:
299,352,25685,6,0,L|315:269,1,85,6|0,0:0|0:0,0:0:0:0:
166,102,26020,2,0,L|185:270,1,170,8|2,0:0|0:0,0:0:0:0:
308,124,26523,1,2,0:0:0:0:
144,192,26690,2,0,L|61:176,1,85,8|0,0:0|0:0,0:0:0:0:
296,43,27025,6,0,P|312:82|308:124,1,85,6|0,0:0|0:0,0:0:0:0:
156,273,27361,2,0,P|140:234|144:193,1,85,8|2,0:0|0:0,0:0:0:0:
308,124,27696,1,2,0:0:0:0:
222,318,27863,1,8,0:0:0:0:
190,345,27946,1,8,0:0:0:0:
148,352,28030,1,8,0:0:0:0:
109,338,28114,1,8,0:0:0:0:
82,305,28198,1,8,0:0:0:0:
83,118,28366,6,0,L|166:102,1,85,6|2,0:0|0:0,0:0:0:0:
372,252,28701,1,8,0:0:0:0:
164,208,28869,1,2,0:0:0:0:
308,340,29037,1,8,0:0:0:0:
372,144,29204,1,2,0:0:0:0:
372,144,29288,1,2,0:0:0:0:
372,144,29372,1,8,0:0:0:0:
164,208,29539,1,2,0:0:0:0:
164,208,29623,1,2,0:0:0:0:
164,208,29707,5,12,0:0:0:0:
308,340,29875,2,0,P|324:301|320:260,1,85,2|8,0:0|0:0,0:0:0:0:
132,135,30210,2,0,P|84:200|119:274,1,170,6|2,0:0|0:0,0:0:0:0:
164,292,30629,1,2,0:0:0:0:
164,292,30713,1,8,0:0:0:0:
372,144,31048,6,0,P|375:110|376:76,1,68,4|0,3:2|0:0,0:0:0:0:
284,208,31383,2,0,P|280:241|279:275,1,68
199,139,31718,2,0,P|165:137|132:136,1,68
88,264,32053,1,0,0:0:0:0:
188,240,32221,1,0,0:0:0:0:
35,211,32389,6,0,P|13:272|48:328,1,136,0|0,3:0|0:0,0:0:0:0:
164,352,32891,1,0,0:0:0:0:
164,352,33059,2,0,P|197:346|231:342,1,68
352,360,33394,2,0,P|357:326|361:292,1,68
320,164,33729,6,0,P|256:147|203:186,1,136,4|0,3:2|0:0,0:0:0:0:
280,276,34232,1,0,0:0:0:0:
400,208,34400,2,0,P|405:174|409:140,1,68
396,20,34735,2,0,P|364:31|332:45,1,68
223,128,35070,6,0,P|157:116|89:109,1,136,0|0,3:0|0:0,0:0:0:0:
56,260,35573,1,0,0:0:0:0:
204,224,35740,1,0,0:0:0:0:
180,352,35908,2,0,P|131:361|87:337,1,101.999996887207,0|0,3:0|0:0,0:0:0:0:
56,260,36411,6,0,P|52:226|46:192,1,68,4|0,3:1|0:0,0:0:0:0:
213,156,36746,2,0,P|207:190|204:224,1,68
371,188,37081,2,0,P|367:154|361:120,1,68
213,156,37416,1,0,0:0:0:0:
344,288,37584,1,8,0:3:0:0:
344,288,37668,1,8,0:3:0:0:
344,288,37752,6,0,P|386:280|429:276,1,85,0|0,3:0|0:0,0:0:0:0:
213,156,38087,2,0,P|171:148|128:144,1,85,8|8,3:2|3:2,0:0:0:0:
240,328,38422,1,8,3:2:0:0:
304,112,38590,1,8,3:2:0:0:
160,260,38757,1,8,3:2:0:0:
371,188,38925,1,8,3:2:0:0:
100,152,39092,5,8,3:2:0:0:
100,152,40768,1,8,0:0:0:0:
240,328,40936,6,0,P|287:262|252:188,1,170,4|0,3:2|0:0,0:0:0:0:
208,168,41355,1,0,0:0:0:0:
208,168,41439,1,0,0:0:0:0:
123,266,41606,1,8,0:3:0:0:
123,266,41690,1,8,0:3:0:0:
123,266,41774,6,0,L|207:255,1,85,6|0,0:0|0:0,0:0:0:0:
369,320,42109,2,0,L|380:236,1,85,8|0,0:0|0:0,0:0:0:0:
280,136,42445,1,2,0:0:0:0:
280,136,42612,1,2,0:0:0:0:
420,119,42780,2,0,L|504:108,1,85,8|0,0:0|0:0,0:0:0:0:
245,209,43115,6,0,P|198:143|233:70,1,170,2|8,0:0|0:0,0:0:0:0:
420,119,43618,2,0,P|467:185|432:259,1,170,2|2,0:0|0:0,0:0:0:0:
388,279,44037,1,2,0:0:0:0:
388,279,44120,1,8,0:0:0:0:
280,136,44288,1,2,0:0:0:0:
280,136,44372,1,2,0:0:0:0:
280,136,44456,6,0,L|269:52,1,85,6|0,0:0|0:0,0:0:0:0:
420,119,44791,1,8,0:0:0:0:
420,119,44958,1,2,0:0:0:0:
308,240,45126,1,2,0:0:0:0:
265,235,45209,1,2,0:0:0:0:
223,230,45293,1,2,0:0:0:0:
181,225,45377,1,2,0:0:0:0:
139,220,45461,1,8,0:0:0:0:
232,328,45629,2,0,L|274:332,1,42.5,2|2,0:0|0:0,0:0:0:0:
359,300,45796,6,0,P|387:244|366:186,1,127.5,6|0,0:0|0:0,0:0:0:0:
324,160,46132,1,8,0:0:0:0:
139,220,46299,1,6,0:0:0:0:
232,327,46467,2,0,P|242:301|245:273,2,56.6666666666667,8|8|8,0:3|0:3|0:3,0:0:0:0:
359,300,46802,2,0,P|348:273|330:252,2,56.6666666666667,4|4|4,0:3|0:3|0:3,0:0:0:0:
264,172,47137,6,0,P|213:164|162:161,1,101.999996887207,4|0,3:1|0:0,0:0:0:0:
88,256,47640,1,0,0:0:0:0:
191,347,47808,2,0,P|215:302|204:253,1,101.999996887207,2|0,0:0|0:0,0:0:0:0:
163,161,48310,1,0,0:0:0:0:
163,161,48478,6,0,L|173:104,1,50.9999984436036,0|0,3:0|0:0,0:0:0:0:
288,48,48813,2,0,L|298:105,1,50.9999984436036
376,204,49148,1,2,0:0:0:0:
399,213,49315,1,8,0:3:0:0:
424,214,49483,1,8,0:3:0:0:
449,207,49650,1,8,0:3:0:0:
469,191,49819,6,0,P|477:140|480:89,1,101.999996887207,4|0,3:1|0:0,0:0:0:0:
376,32,50322,1,0,0:0:0:0:
285,159,50489,2,0,L|336:168,1,50.9999984436036,8|0,0:0|0:0,0:0:0:0:
469,191,50824,1,0,0:0:0:0:
296,300,50992,1,0,3:0:0:0:
296,300,51076,1,0,3:0:0:0:
296,300,51159,6,0,L|212:285,1,85,6|0,0:0|0:0,0:0:0:0:
104,192,51495,1,8,0:0:0:0:
285,159,51662,1,2,0:0:0:0:
164,40,51830,6,0,L|178:123,1,85,2|2,0:0|0:0,0:0:0:0:
188,172,52081,1,2,0:0:0:0:
188,172,52165,1,8,0:0:0:0:
120,288,52333,1,0,0:0:0:0:
248,328,52500,6,0,L|331:313,1,85,6|0,0:0|0:0,0:0:0:0:
285,159,52835,1,2,0:0:0:0:
285,159,53003,1,2,0:0:0:0:
248,328,53171,1,2,0:0:0:0:
248,328,53338,1,2,0:0:0:0:
408,260,53506,1,2,0:0:0:0:
408,260,53673,1,2,0:0:0:0:
236,228,53841,6,0,L|152:213,1,85,6|0,0:0|0:0,0:0:0:0:
199,59,54176,1,2,0:0:0:0:
199,59,54344,1,2,0:0:0:0:
236,228,54512,1,2,0:0:0:0:
236,228,54679,1,2,0:0:0:0:
76,160,54847,1,2,0:0:0:0:
76,160,55014,1,2,0:0:0:0:
248,128,55182,5,6,0:0:0:0:
88,60,55349,1,2,0:0:0:0:
236,228,55517,5,8,0:0:0:0:
76,160,55684,1,2,0:0:0:0:
192,40,55852,5,8,0:0:0:0:
132,248,56020,1,2,0:0:0:0:
308,88,56187,5,8,0:0:0:0:
248,296,56355,1,2,0:0:0:0:
248,296,56439,1,2,0:0:0:0:
248,296,56523,6,0,L|262:379,1,85,14|2,0:0|0:0,0:0:0:0:
440,252,56858,2,0,L|454:168,1,85,8|2,0:0|0:0,0:0:0:0:
316,56,57193,5,8,0:0:0:0:
280,59,57276,1,2,0:0:0:0:
249,74,57360,1,2,0:0:0:0:
226,101,57444,1,2,0:0:0:0:
215,134,57528,1,8,0:0:0:0:
217,169,57611,1,2,0:0:0:0:
232,201,57695,1,2,0:0:0:0:
356,266,57863,6,0,L|440:252,1,85,6|0,0:0|0:0,0:0:0:0:
304,146,58199,1,8,0:0:0:0:
164,120,58366,2,0,L|80:105,1,85,2|0,0:0|0:0,0:0:0:0:
212,256,58701,1,2,0:0:0:0:
248,56,58869,1,12,0:0:0:0:
96,224,59037,1,2,0:0:0:0:
96,224,59120,1,2,0:0:0:0:
96,224,59204,5,10,0:0:0:0:
304,146,59372,1,10,0:0:0:0:
96,80,59539,1,10,0:0:0:0:
23,255,59875,5,8,0:0:0:0:
49,287,59958,1,8,0:0:0:0:
88,302,60042,1,8,0:0:0:0:
129,295,60126,1,8,0:0:0:0:
161,268,60210,1,8,0:0:0:0:
192,240,60293,1,8,0:0:0:0:
233,233,60377,1,8,0:0:0:0:
273,248,60461,1,8,0:0:0:0:
299,281,60545,6,0,L|320:363,1,85,6|0,0:0|0:0,0:0:0:0:
464,272,60880,2,0,L|483:104,1,170,8|2,0:0|0:0,0:0:0:0:
332,76,61383,1,2,0:0:0:0:
360,204,61551,2,0,L|442:183,1,85,8|0,0:0|0:0,0:0:0:0:
332,76,61886,6,0,L|250:55,1,85,2|0,0:0|0:0,0:0:0:0:
112,160,62221,2,0,P|177:208|250:173,1,170,8|2,0:0|0:0,0:0:0:0:
356,96,62724,1,2,0:0:0:0:
348,260,62891,1,8,0:0:0:0:
492,184,63059,1,2,0:0:0:0:
492,184,63143,1,2,0:0:0:0:
492,184,63227,6,0,P|453:168|411:173,1,85,6|0,0:0|0:0,0:0:0:0:
250,173,63562,2,0,P|208:177|169:161,1,85,8|0,0:0|0:0,0:0:0:0:
56,44,63897,2,0,L|138:23,1,85,6|0,0:0|0:0,0:0:0:0:
296,60,64232,1,8,0:0:0:0:
169,161,64400,1,2,0:0:0:0:
169,161,64484,1,2,0:0:0:0:
169,161,64567,6,0,L|157:257,1,85,6|0,0:0|0:0,0:0:0:0:
338,345,64903,2,0,L|348:260,1,85,8|0,0:0|0:0,0:0:0:0:
264,88,65238,1,2,0:0:0:0:
158,245,65405,1,2,0:0:0:0:
158,245,65489,1,2,0:0:0:0:
158,245,65573,1,8,0:0:0:0:
296,260,65740,1,2,0:0:0:0:
187,161,65908,6,0,P|145:157|106:173,1,85,6|0,0:0|0:0,0:0:0:0:
284,304,66243,2,0,B|296:260|296:260|272:184|272:184|284:140,1,170,8|2,0:0|0:0,0:0:0:0:
158,245,66746,1,2,0:0:0:0:
320,228,66914,2,0,L|405:218,1,85,8|0,0:0|0:0,0:0:0:0:
336,71,67249,6,0,P|297:56|255:60,1,85,2|0,0:0|0:0,0:0:0:0:
158,245,67584,2,0,P|196:260|238:256,1,85,8|0,0:0|0:0,0:0:0:0:
336,72,67919,1,2,0:0:0:0:
168,136,68087,1,2,0:0:0:0:
320,228,68254,1,8,0:0:0:0:
152,292,68422,1,2,0:0:0:0:
152,292,68506,1,2,0:0:0:0:
152,292,68590,6,0,L|67:282,1,85,6|0,0:0|0:0,0:0:0:0:
4,100,68925,2,0,L|89:90,1,85,8|0,0:0|0:0,0:0:0:0:
320,228,69260,1,6,0:0:0:0:
287,66,69428,1,0,0:0:0:0:
164,176,69595,1,8,0:0:0:0:
356,136,69763,1,2,0:0:0:0:
356,136,69847,1,2,0:0:0:0:
356,136,69930,6,0,L|397:127,3,42.5,6|0|0|0,0:0|0:0|0:0|0:0,0:0:0:0:
460,232,70266,2,0,L|418:223,3,42.5,8|0|0|0,0:0|0:0|0:0|0:0,0:0:0:0:
320,228,70601,5,8,0:0:0:0:
287,254,70684,1,8,0:0:0:0:
273,294,70768,1,8,0:0:0:0:
280,335,70852,1,8,0:0:0:0:
308,367,70936,1,8,0:0:0:0:
436,312,71104,1,0,3:0:0:0:
436,312,71188,1,0,3:0:0:0:
436,312,71271,6,0,L|352:301,1,85,6|0,0:0|0:0,0:0:0:0:
229,145,71606,2,0,L|397:126,1,170,8|2,0:0|0:0,0:0:0:0:
352,301,72109,1,2,0:0:0:0:
219,226,72277,2,0,P|214:184|229:145,1,85,8|0,0:0|0:0,0:0:0:0:
352,301,72612,6,0,P|356:342|341:382,1,85,2|0,0:0|0:0,0:0:0:0:
118,359,72947,2,0,P|185:311|265:331,1,170,8|2,0:0|0:0,0:0:0:0:
384,204,73450,1,2,0:0:0:0:
384,204,73534,1,2,0:0:0:0:
384,204,73618,2,0,P|343:208|303:193,1,85,8|0,0:0|0:0,0:0:0:0:
192,116,73953,6,0,L|181:32,1,85,6|0,0:0|0:0,0:0:0:0:
24,100,74288,2,0,L|13:184,1,85,8|0,0:0|0:0,0:0:0:0:
224,132,74623,6,0,L|213:48,1,85,6|0,0:0|0:0,0:0:0:0:
56,116,74958,2,0,L|45:200,1,85,8|0,0:0|0:0,0:0:0:0:
224,336,75294,5,6,0:0:0:0:
256,148,75461,1,0,0:0:0:0:
76,216,75629,1,8,0:0:0:0:
294,251,75796,1,2,0:0:0:0:
145,129,75964,5,2,0:0:0:0:
115,318,76132,1,2,0:0:0:0:
115,318,76215,1,2,0:0:0:0:
115,318,76299,1,8,0:0:0:0:
256,148,76467,1,2,0:0:0:0:
256,148,76551,1,2,0:0:0:0:
256,148,76634,6,0,L|245:64,1,85,6|0,0:0|0:0,0:0:0:0:
76,216,76970,2,0,P|141:264|214:229,1,170,8|2,0:0|0:0,0:0:0:0:
245,64,77472,1,2,0:0:0:0:
109,111,77640,2,0,L|25:100,1,85,8|0,0:0|0:0,0:0:0:0:
214,229,77975,6,0,L|298:218,1,85,6|0,0:0|0:0,0:0:0:0:
326,74,78310,2,0,P|286:58|245:64,1,85,8|0,0:0|0:0,0:0:0:0:
214,229,78646,1,2,0:0:0:0:
326,74,78813,1,2,0:0:0:0:
139,114,78981,1,8,0:0:0:0:
298,218,79148,1,2,0:0:0:0:
298,218,79232,1,2,0:0:0:0:
298,218,79316,6,0,L|382:207,1,85,6|0,0:0|0:0,0:0:0:0:
199,329,79651,2,0,L|115:318,1,85,8|0,0:0|0:0,0:0:0:0:
16,180,79986,1,8,0:0:0:0:
39,144,80069,1,8,0:0:0:0:
76,126,80153,1,8,0:0:0:0:
118,130,80237,1,8,0:0:0:0:
152,154,80321,1,8,0:0:0:0:
199,329,80489,1,8,0:0:0:0:
199,329,80573,1,8,0:0:0:0:
199,329,80657,6,0,L|115:318,1,85,2|0,0:0|0:0,0:0:0:0:
298,218,80992,1,8,0:0:0:0:
432,320,81159,2,0,L|451:152,1,170,2|0,0:0|0:0,0:0:0:0:
428,108,81578,1,0,0:0:0:0:
428,108,81662,2,0,L|512:97,1,85,8|0,0:0|0:0,0:0:0:0:
298,218,81997,6,0,P|282:179|287:137,1,85,6|2,0:0|0:0,0:0:0:0:
476,236,82333,1,8,0:0:0:0:
476,236,82500,1,2,0:0:0:0:
344,344,82668,2,0,L|260:333,1,85,8|2,0:0|0:0,0:0:0:0:
92,204,83003,2,0,L|176:193,1,85,8|2,0:0|0:0,0:0:0:0:
372,164,83338,6,0,P|388:125|383:83,1,85,12|2,0:0|0:0,0:0:0:0:
224,32,83673,1,8,0:0:0:0:
224,32,83841,1,2,0:0:0:0:
176,193,84009,2,0,L|187:277,1,85,8|2,0:0|0:0,0:0:0:0:
308,112,84344,1,8,0:0:0:0:
120,87,84511,1,2,0:0:0:0:
120,87,84595,1,2,0:0:0:0:
120,87,84679,6,0,L|36:76,1,85,12|2,0:0|0:0,0:0:0:0:
106,290,85014,2,0,P|147:294|186:278,1,85,8|2,0:0|0:0,0:0:0:0:
308,112,85349,2,0,L|297:28,1,85,8|2,0:0|0:0,0:0:0:0:
132,192,85685,1,8,0:0:0:0:
272,296,85852,1,2,0:0:0:0:
272,296,85936,1,2,0:0:0:0:
272,296,86020,5,6,0:0:0:0:
392,224,86187,2,0,L|403:308,1,85,2|8,0:0|0:0,0:0:0:0:
240,369,86523,2,0,P|192:304|227:230,1,170,6|2,0:0|0:0,0:0:0:0:
272,213,86942,1,2,0:0:0:0:
272,213,87026,1,8,0:0:0:0:
403,308,87193,1,2,0:0:0:0:
403,308,87277,1,2,0:0:0:0:
403,308,87361,6,0,L|487:297,1,85,6|2,0:0|0:0,0:0:0:0:
352,144,87696,1,8,0:0:0:0:
352,144,87863,1,2,0:0:0:0:
160,212,88031,2,0,P|156:170|172:131,1,85,8|2,0:0|0:0,0:0:0:0:
348,268,88366,2,0,P|351:309|335:348,1,85,8|2,0:0|0:0,0:0:0:0:
109,308,88701,6,0,L|25:297,1,85,12|2,0:0|0:0,0:0:0:0:
244,184,89037,1,8,0:0:0:0:
244,184,89204,1,2,0:0:0:0:
72,162,89372,1,8,0:0:0:0:
288,118,89539,1,2,0:0:0:0:
315,149,89622,1,2,0:0:0:0:
322,191,89706,1,10,0:0:0:0:
307,230,89790,1,2,0:0:0:0:
274,256,89874,1,2,0:0:0:0:
72,162,90042,6,0,P|56:122|61:80,1,85,12|2,0:0|0:0,0:0:0:0:
288,118,90377,1,8,0:0:0:0:
152,256,90545,1,8,0:0:0:0:
152,256,90629,1,8,0:0:0:0:
152,256,90713,2,0,L|145:297,3,42.5,8|8|8|8,0:0|0:0|0:0|0:0,0:0:0:0:
176,336,91048,1,8,0:0:0:0:
388,264,91215,1,6,0:0:0:0:
256,192,91299,12,0,95405,0:0:0:0:
