osu file format v14

[General]
AudioFilename: audio.mp3
AudioLeadIn: 0
PreviewTime: 59791
Countdown: 0
SampleSet: Soft
StackLeniency: 0.7
Mode: 0
LetterboxInBreaks: 0
WidescreenStoryboard: 0

[Editor]
DistanceSpacing: 0.6
BeatDivisor: 4
GridSize: 4
TimelineZoom: 1.6

[Metadata]
Title:MY Mai*TONIGHT
TitleUnicode:MY舞☆TONIGHT
Artist:Aqours
ArtistUnicode:Aqours
Creator:Doormat
Version:Gaia's Insane
Source:ラブライブ!サンシャイン!!
Tags:Little CloudSplash16 Meg iMage-- Gaia love live sunshine school idol project festival season two 2 insert song tv size inami anju 伊波杏樹 takami chika 高海千歌 aida rikako 逢田梨香子 sakurauchi riko 桜内梨子 suwa nanaka 諏訪ななか matsuura kanan 松浦果南 komiya arisa 小宮有紗 kurosawa dia 黒澤ダイヤ saito shuka 斉藤朱夏 watanabe you 渡辺曜 kobayashi aika 小林愛香 tsushima yoshiko 津島善子 yohane ヨハネ takatsuki kanako 高槻かなこ kunikida hanamaru 国木田花丸 suzuki aina 鈴木愛奈 ohara mari 小原鞠莉 furihata ai 降幡愛 kurosawa ruby 黒澤ルビィ
BeatmapID:1475981
BeatmapSetID:684717

[Difficulty]
HPDrainRate:6
CircleSize:4
OverallDifficulty:8
ApproachRate:9
SliderMultiplier:1.5
SliderTickRate:1

[Events]
//Background and Video events
0,0,"kurosawa.jpg",0,0
Video,0,"video.avi"
//Break Periods
//Storyboard Layer 0 (Background)
//Storyboard Layer 1 (Fail)
//Storyboard Layer 2 (Pass)
//Storyboard Layer 3 (Foreground)
//Storyboard Sound Samples

[TimingPoints]
6579,810.810810810811,4,2,2,40,1,0
15497,857.142857142857,4,2,2,40,1,0
16354,571.428571428571,4,2,2,40,1,0
16925,685.714285714286,4,2,2,40,1,0
18982,335.195530726257,4,2,1,5,1,0
19484,-100,4,2,1,60,0,0
20322,335.195530726257,4,2,1,80,1,0
30210,-71.4285714285714,4,2,1,80,0,0
30713,-125,4,2,1,80,0,0
31048,-125,4,2,2,50,0,0
35070,-166.666666666667,4,2,2,50,0,0
35908,-100,4,2,2,50,0,0
36411,-100,4,2,1,50,0,0
36746,-100,4,2,2,50,0,0
37752,-100,4,2,2,60,0,0
38087,-100,4,2,2,62,0,0
38422,-100,4,2,2,65,0,0
38757,-100,4,2,2,67,0,0
39092,-100,4,2,2,70,0,0
40768,-100,4,2,1,70,0,0
40936,-83.3333333333333,4,2,1,70,0,0
41774,-100,4,2,1,70,0,0
46467,-83.3333333333333,4,2,1,70,0,0
47137,-111.111111111111,4,2,1,60,0,0
52500,-111.111111111111,4,2,1,70,0,0
55517,-111.111111111111,4,2,1,72,0,0
55852,-111.111111111111,4,2,1,75,0,0
56187,-111.111111111111,4,2,1,77,0,0
56523,-111.111111111111,4,2,1,80,0,0
56858,-111.111111111111,4,2,1,82,0,0
57193,-111.111111111111,4,2,1,85,0,0
57528,-111.111111111111,4,2,1,87,0,0
57863,-111.111111111111,4,2,1,90,0,0
58869,-90.9090909090909,4,2,1,90,0,0
59875,-90.9090909090909,4,2,2,90,0,0
60210,-125,4,2,2,90,0,0
60545,-83.3333333333333,4,2,1,90,0,0
63227,-71.4285714285714,4,2,1,90,0,0
63562,-100,4,2,1,90,0,0
63897,-71.4285714285714,4,2,1,90,0,0
64232,-100,4,2,1,90,0,0
64567,-83.3333333333333,4,2,1,90,0,0
69930,-76.9230769230769,4,2,1,90,0,0
70266,-71.4285714285714,4,2,1,90,0,0
71104,-66.6666666666667,4,2,1,90,0,0
71271,-83.3333333333333,4,2,1,90,0,0
73953,-71.4285714285714,4,2,1,90,0,0
74288,-100,4,2,1,90,0,0
75294,-83.3333333333333,4,2,1,90,0,0
81662,-142.857142857143,4,2,1,90,0,0
81997,-90.9090909090909,4,2,1,90,0,0
86020,-76.9230769230769,4,2,1,90,0,0
86523,-100,4,2,1,90,0,0
87361,-90.9090909090909,4,2,1,90,0,0
95405,-90.9090909090909,4,2,1,10,0,0

[Colours]
Combo1 : 190,180,240
Combo2 : 255,74,74
Combo3 : 190,200,240
Combo4 : 250,192,250

[HitObjects]
160,72,6579,6,0,P|167:108|172:156,1,75,6|0,0:0|0:0,0:0:0:0:
40,208,7389,2,0,P|44:170|51:133,1,75,0|0,0:0|0:0,0:0:0:0:
268,204,8200,2,0,P|204:224|148:160,1,150,2|0,0:0|0:0,0:0:0:0:
232,104,9416,1,0,0:0:0:0:
124,184,9822,6,0,P|126:227|136:280,1,75,2|0,0:0|0:0,0:0:0:0:
341,216,10633,2,0,P|307:207|253:204,1,75,2|0,0:0|0:0,0:0:0:0:
168,332,11443,2,0,P|201:323|256:320,1,75,2|0,0:0|0:0,0:0:0:0:
380,376,12254,2,0,P|340:336|336:304,1,75,2|0,0:0|0:0,0:0:0:0:
440,144,13065,6,0,P|431:221|424:300,1,150,2|0,0:0|0:0,0:0:0:0:
336,319,14281,1,0,0:0:0:0:
240,292,14687,2,0,P|229:336|232:368,1,75,2|0,0:0|0:0,0:0:0:0:
312,228,15497,2,0,P|312:190|302:154,2,75,4|0|6,0:3|0:0|0:0,0:0:0:0:
256,192,16925,12,0,19317,0:0:0:0:
68,108,19484,5,0,3:0:0:0:
64,116,19568,1,0,3:0:0:0:
60,124,19652,1,8,3:2:0:0:
61,170,19735,1,8,3:2:0:0:
88,207,19819,1,8,3:2:0:0:
132,221,19903,1,8,3:2:0:0:
176,207,19987,5,8,3:2:0:0:
228,168,20070,1,8,3:2:0:0:
293,164,20154,1,8,3:2:0:0:
349,196,20238,1,8,3:2:0:0:
379,254,20322,6,0,P|300:276|208:284,2,150,6|8|2,0:0|0:0|0:0,0:0:0:0:
460,92,21159,1,2,0:0:0:0:
314,93,21327,2,0,P|297:133|294:193,1,75,8|0,0:0|0:0,0:0:0:0:
472,320,21662,6,0,P|492:252|460:168,2,150,2|8|2,0:0|0:0|0:0,0:0:0:0:
379,254,22500,1,2,0:0:0:0:
284,360,22668,2,0,P|327:365|376:376,1,75,8|0,0:0|0:0,0:0:0:0:
164,288,23003,6,0,P|128:298|68:304,1,75,2|0,0:0|0:0,0:0:0:0:
92,120,23338,2,0,L|108:212,1,75,8|0,0:0|0:0,0:0:0:0:
193,143,23673,1,2,0:0:0:0:
8,184,23841,1,2,0:0:0:0:
193,143,24009,2,0,P|230:148|266:158,1,75,8|0,0:0|0:0,0:0:0:0:
368,272,24344,5,2,0:0:0:0:
272,188,24511,1,2,0:0:0:0:
432,144,24679,1,8,0:0:0:0:
384,296,24847,1,2,0:0:0:0:
266,158,25014,1,2,0:0:0:0:
240,356,25182,1,0,3:0:0:0:
198,377,25265,1,0,3:0:0:0:
152,381,25349,1,8,3:2:0:0:
109,368,25433,1,8,3:2:0:0:
74,338,25517,1,8,3:2:0:0:
55,296,25600,1,8,3:2:0:0:
53,249,25685,6,0,P|120:263|216:268,2,150,6|8|2,0:0|0:0|0:0,0:0:0:0:
194,106,26523,1,2,0:0:0:0:
76,160,26690,2,0,P|38:170|-4:176,1,75,8|0,0:0|0:0,0:0:0:0:
212,8,27025,6,0,P|211:50|196:96,1,75,6|0,0:0|0:0,0:0:0:0:
342,274,27361,2,0,P|332:237|332:200,1,75,8|0,0:0|0:0,0:0:0:0:
494,214,27696,1,2,0:0:0:0:
398,78,27863,1,0,3:0:0:0:
386,94,27947,1,0,3:0:0:0:
382,114,28032,5,8,3:2:0:0:
317,105,28115,1,0,3:0:0:0:
257,130,28199,1,0,3:0:0:0:
198,156,28283,1,0,3:0:0:0:
134,146,28367,5,6,0:0:0:0:
246,246,28534,1,2,0:0:0:0:
184,52,28701,1,8,0:0:0:0:
164,288,28869,1,2,0:0:0:0:
276,36,29037,1,0,3:0:0:0:
84,232,29204,1,0,3:0:0:0:
84,232,29288,1,0,3:0:0:0:
84,232,29372,1,0,3:0:0:0:
331,200,29539,1,0,3:0:0:0:
346,238,29623,1,0,3:0:0:0:
342,274,29707,5,4,3:2:0:0:
193,153,29875,2,0,L|208:90,2,37.5,0|0|0,3:0|3:0|3:0,0:0:0:0:
246,246,30210,2,0,B|354:226|342:314|466:262,1,209.999993591309,4|0,3:2|0:0,0:0:0:0:
444,260,30629,1,0,0:0:0:0:
441,251,30713,6,0,P|421:287|425:351,1,90,4|0,0:3|0:0,0:0:0:0:
428,348,31048,5,4,3:2:0:0:
317,333,32389,5,0,3:0:0:0:
202,288,33562,5,0,3:0:0:0:
203,302,33645,1,0,3:0:0:0:
205,317,33729,1,4,3:2:0:0:
94,302,34903,5,0,3:0:0:0:
94,302,35070,2,0,B|97:261|69:233|69:233|129:205|117:141,1,179.999994506836,0|0,3:0|0:0,0:0:0:0:
97,53,35908,6,0,P|121:105|233:109,1,150,4|0,0:0|0:0,0:0:0:0:
281,45,36411,5,4,0:0:0:0:
281,45,37416,1,0,0:0:0:0:
324,192,37584,1,4,0:3:0:0:
328,176,37668,1,4,0:3:0:0:
332,160,37752,6,0,P|279:144|196:144,1,112.5,0|0,3:0|0:0,0:0:0:0:
204,160,38087,5,8,3:2:0:0:
224,296,38254,1,8,3:2:0:0:
324,192,38422,1,8,3:2:0:0:
100,236,38590,1,8,3:2:0:0:
272,368,38757,1,8,3:2:0:0:
222,140,38925,1,8,3:2:0:0:
204,280,39092,5,8,3:2:0:0:
204,280,40768,5,8,0:0:0:0:
276,204,40936,2,0,P|200:252|80:224,1,179.999994506836,12|0,0:0|3:0,0:0:0:0:
116,228,41355,1,0,3:0:0:0:
120,208,41439,1,0,3:0:0:0:
32,112,41606,1,0,3:0:0:0:
36,132,41690,1,0,3:0:0:0:
40,148,41774,6,0,L|204:172,1,150,6|8,0:0|0:0,0:0:0:0:
340,72,42277,1,0,0:0:0:0:
220,68,42444,2,0,P|196:120|196:156,1,75,2|0,0:0|0:0,0:0:0:0:
352,280,42780,2,0,P|345:243|326:211,1,75,8|0,0:0|0:0,0:0:0:0:
296,364,43115,6,0,P|344:336|464:328,1,150,2|8,0:0|0:0,0:0:0:0:
196,304,43618,2,0,P|121:297|55:263,1,150,0|0,0:0|0:0,0:0:0:0:
60,248,44037,1,0,0:0:0:0:
64,232,44120,2,0,L|152:212,1,75,8|0,0:0|0:0,0:0:0:0:
326,211,44456,5,6,0:0:0:0:
200,108,44623,1,0,0:0:0:0:
232,272,44791,1,8,0:0:0:0:
356,116,44958,1,0,0:0:0:0:
296,348,45126,5,0,3:0:0:0:
269,363,45209,1,0,3:0:0:0:
238,370,45293,1,0,3:0:0:0:
207,367,45377,1,0,3:0:0:0:
179,355,45461,1,0,3:0:0:0:
155,335,45544,1,0,3:0:0:0:
138,308,45628,1,0,3:0:0:0:
246,198,45796,6,0,P|236:236|230:294,1,75,6|0,0:0|0:0,0:0:0:0:
160,132,46132,1,8,0:0:0:0:
280,32,46299,1,6,0:0:0:0:
140,148,46467,6,0,P|140:185|156:220,2,59.9999981689454,8|8|8,0:3|0:3|0:3,0:0:0:0:
296,116,46802,2,0,P|304:87|303:57,2,59.9999981689454,4|4|4,0:3|0:3|0:3,0:0:0:0:
246,198,47137,6,0,P|282:166|386:158,1,134.999995880127,6|0,0:0|0:0,0:0:0:0:
500,236,47640,1,0,0:0:0:0:
420,292,47808,2,0,P|379:286|336:264,1,67.4999979400635,8|0,0:0|0:0,0:0:0:0:
268,336,48143,2,0,P|230:343|188:356,1,67.4999979400635
96,180,48478,5,2,0:0:0:0:
76,368,48646,1,8,0:0:0:0:
12,248,48813,2,0,P|72:280|164:264,1,134.999995880127,0|8,0:0|0:0,0:0:0:0:
280,184,49316,1,8,0:3:0:0:
200,128,49484,2,0,P|184:176|184:208,1,67.4999979400635,8|8,0:3|0:3,0:0:0:0:
268,336,49819,6,0,P|265:293|256:264,2,67.4999979400635,6|0|0,0:0|0:0|0:0,0:0:0:0:
156,284,50322,1,0,0:0:0:0:
300,180,50489,1,8,0:0:0:0:
92,144,50657,1,0,3:0:0:0:
268,64,50824,1,0,3:0:0:0:
156,284,50992,1,0,3:0:0:0:
152,272,51076,1,0,3:0:0:0:
148,260,51159,6,0,P|192:232|284:220,1,134.999995880127,6|2,0:0|0:0,0:0:0:0:
428,80,51662,2,0,P|392:100|340:100,1,67.4999979400635,6|0,0:0|0:0,0:0:0:0:
132,44,51997,1,0,0:0:0:0:
144,40,52081,1,0,0:0:0:0:
156,36,52165,2,0,P|169:71|172:112,1,67.4999979400635,0|0,0:0|0:0,0:0:0:0:
244,328,52500,5,4,0:0:0:0:
148,260,52668,1,0,0:0:0:0:
216,164,52835,1,2,0:0:0:0:
312,232,53003,1,2,0:0:0:0:
128,280,53171,5,2,0:0:0:0:
320,244,53338,1,2,0:0:0:0:
84,184,53506,1,2,0:0:0:0:
328,256,53673,1,2,0:0:0:0:
80,376,53841,5,4,0:0:0:0:
128,280,54009,1,0,0:0:0:0:
236,268,54176,1,2,0:0:0:0:
312,348,54344,1,2,0:0:0:0:
240,144,54511,5,2,0:0:0:0:
296,352,54679,1,2,0:0:0:0:
340,88,54847,1,2,0:0:0:0:
280,356,55014,1,2,0:0:0:0:
424,228,55182,6,0,P|417:262|416:324,1,67.4999979400635,6|0,0:0|0:0,0:0:0:0:
248,210,55517,2,0,P|241:175|240:114,1,67.4999979400635,8|0,0:0|0:0,0:0:0:0:
276,336,55852,2,0,L|180:352,1,67.4999979400635,8|0,0:0|0:0,0:0:0:0:
368,128,56187,2,0,L|434:116,1,67.4999979400635,8|0,0:0|0:0,0:0:0:0:
152,252,56523,6,0,P|117:248|56:232,1,67.4999979400635,12|0,0:0|3:0,0:0:0:0:
140,128,56858,2,0,L|144:80,2,33.7499989700318,8|0|0,3:2|3:0|3:0,0:0:0:0:
196,376,57193,1,8,3:2:0:0:
174,336,57276,1,0,3:0:0:0:
169,290,57360,1,0,3:0:0:0:
183,247,57444,1,0,3:0:0:0:
212,212,57528,1,8,3:2:0:0:
253,192,57611,1,0,3:0:0:0:
299,190,57695,1,0,3:0:0:0:
368,332,57863,6,0,P|332:327|280:316,1,67.4999979400635,6|2,0:0|0:0,0:0:0:0:
424,220,58199,1,2,0:0:0:0:
183,247,58366,2,0,P|145:256|111:259,1,67.4999979400635,6|2,0:0|0:0,0:0:0:0:
280,348,58701,1,2,0:0:0:0:
140,60,58869,6,0,P|120:104|128:144,1,82.5000025177003,2|0,0:0|0:0,0:0:0:0:
136,140,59120,1,0,0:0:0:0:
148,144,59204,1,0,1:0:0:0:
256,128,59372,1,0,1:0:0:0:
364,112,59539,1,0,1:0:0:0:
372,120,60042,5,0,0:0:0:0:
372,120,60126,1,0,0:0:0:0:
372,120,60210,2,0,P|348:164|352:228,1,90,0|0,0:0|0:0,0:0:0:0:
424,244,60545,6,0,B|332:220|328:304|224:252,1,179.999994506836,6|8,0:0|0:0,0:0:0:0:
92,232,61048,1,0,0:0:0:0:
228,256,61215,2,0,P|248:304|240:360,1,89.9999972534181,2|2,0:0|0:0,0:0:0:0:
8,256,61551,2,0,P|7:211|26:170,1,89.9999972534181,8|0,0:0|0:0,0:0:0:0:
196,92,61886,6,0,L|380:112,1,179.999994506836,2|8,0:0|0:0,0:0:0:0:
460,40,62389,1,0,0:0:0:0:
345,203,62556,2,0,P|296:220|240:216,1,89.9999972534181,2|2,0:0|0:0,0:0:0:0:
134,36,62891,2,0,P|153:83|154:140,1,89.9999972534181,8|0,0:0|0:0,0:0:0:0:
148,336,63227,6,0,P|116:280|4:288,1,157.499995193482,6|0,0:0|0:0,0:0:0:0:
8,256,63562,2,0,P|40:252|88:224,1,75,8|0,0:0|0:0,0:0:0:0:
278,76,63897,6,0,P|230:132|258:240,1,157.499995193482,6|0,0:0|0:0,0:0:0:0:
258,219,64232,2,0,P|294:191|306:155,1,75,8|0,0:0|0:0,0:0:0:0:
464,80,64567,6,0,B|420:56|420:56|408:220,1,179.999994506836,6|8,0:0|0:0,0:0:0:0:
392,372,65070,1,0,0:0:0:0:
474,279,65238,1,2,3:2:0:0:
283,239,65405,1,0,3:0:0:0:
290,259,65489,1,0,3:0:0:0:
308,271,65573,1,8,3:2:0:0:
263,267,65656,1,0,3:0:0:0:
221,281,65740,1,0,3:0:0:0:
188,311,65824,1,0,3:0:0:0:
170,352,65908,6,0,B|185:283|156:227|156:227|87:217,1,179.999994506836,6|8,0:0|0:0,0:0:0:0:
103,11,66411,1,0,0:0:0:0:
35,109,66578,2,0,L|153:124,1,89.9999972534181,2|2,0:0|0:0,0:0:0:0:
376,44,66914,2,0,P|315:36|250:104,1,134.999995880127,8|0,0:0|0:0,0:0:0:0:
248,102,67249,6,0,L|260:199,1,89.9999972534181,2|0,0:0|0:0,0:0:0:0:
363,367,67584,2,0,L|374:277,1,89.9999972534181,8|0,0:0|0:0,0:0:0:0:
391,123,67919,1,2,0:0:0:0:
476,325,68087,1,2,0:0:0:0:
264,230,68254,2,0,P|215:236|163:249,1,89.9999972534181,8|0,0:0|0:0,0:0:0:0:
6,338,68590,6,0,P|80:349|141:291,1,134.999995880127,6|0,0:0|0:0,0:0:0:0:
176,246,68925,2,0,L|151:132,1,89.9999972534181,8|0,0:0|0:0,0:0:0:0:
294,52,69260,1,6,0:0:0:0:
271,200,69428,1,0,0:0:0:0:
50,184,69595,2,0,L|66:86,1,89.9999972534181,8|0,0:0|3:0,0:0:0:0:
70,74,69847,1,0,3:0:0:0:
63,71,69930,6,0,L|8:58,3,48.7499977684022,2|0|0|0,3:2|3:0|3:0|3:0,0:0:0:0:
192,76,70266,2,0,L|184:16,3,52.4999983978272,8|0|0|0,3:2|3:0|3:0|3:0,0:0:0:0:
281,159,70601,1,8,3:2:0:0:
313,118,70684,1,8,3:2:0:0:
359,94,70768,1,8,3:2:0:0:
411,89,70852,1,8,3:2:0:0:
461,105,70936,1,8,3:2:0:0:
317,284,71104,2,0,L|225:304,1,56.2500021457673,8|8,3:2|3:2,0:0:0:0:
216,365,71271,6,0,P|222:282|139:242,1,179.999994506836,6|8,0:0|0:0,0:0:0:0:
94,79,71774,1,0,0:0:0:0:
33,238,71942,2,0,P|75:255|126:256,1,89.9999972534181,2|2,0:0|0:0,0:0:0:0:
313,118,72277,2,0,P|268:120|226:137,1,89.9999972534181,8|0,0:0|0:0,0:0:0:0:
340,208,72612,6,0,P|359:131|369:11,1,179.999994506836,2|8,0:0|0:0,0:0:0:0:
226,137,73115,1,0,0:0:0:0:
446,175,73282,2,0,P|455:135|459:79,1,89.9999972534181,2|2,0:0|0:0,0:0:0:0:
255,229,73618,2,0,P|259:280|278:346,1,89.9999972534181,8|0,0:0|0:0,0:0:0:0:
154,177,73953,6,0,P|89:130|-7:169,1,157.499995193482,6|0,0:0|0:0,0:0:0:0:
4,170,74288,2,0,P|49:162|85:138,1,75,8|0,0:0|0:0,0:0:0:0:
212,39,74623,1,6,0:0:0:0:
160,208,74791,1,0,0:0:0:0:
294,127,74958,2,0,L|307:249,1,112.5,8|0,0:0|0:0,0:0:0:0:
268,318,75294,6,0,P|296:278|428:284,1,179.999994506836,6|8,0:0|0:0,0:0:0:0:
416,147,75796,1,0,0:0:0:0:
180,205,75964,1,2,0:0:0:0:
426,308,76132,2,0,L|491:322,2,44.999998626709,0|0|8,3:0|3:0|3:2,0:0:0:0:
305,238,76467,1,0,3:0:0:0:
317,232,76551,1,0,3:0:0:0:
331,224,76634,6,0,P|341:136|332:37,1,179.999994506836,6|8,0:0|0:0,0:0:0:0:
187,19,77137,1,0,0:0:0:0:
82,205,77305,2,0,P|122:194|184:187,1,89.9999972534181,2|2,0:0|0:0,0:0:0:0:
353,343,77640,2,0,P|308:336|264:325,1,89.9999972534181,8|0,0:0|0:0,0:0:0:0:
322,134,77975,6,0,P|327:180|331:249,1,89.9999972534181,6|0,0:0|0:0,0:0:0:0:
187,20,78310,2,0,P|181:64|178:109,1,89.9999972534181,8|0,0:0|0:0,0:0:0:0:
156,335,78646,1,6,0:0:0:0:
307,226,78813,1,0,0:0:0:0:
88,114,78981,1,8,0:0:0:0:
186,225,79148,1,0,0:0:0:0:
186,225,79232,1,0,0:0:0:0:
186,225,79316,6,0,P|233:242|284:245,1,89.9999972534181,6|0,0:0|0:0,0:0:0:0:
395,51,79651,2,0,P|365:82|352:144,1,89.9999972534181,8|0,0:0|0:0,0:0:0:0:
407,376,79986,1,2,3:2:0:0:
427,342,80069,1,0,3:0:0:0:
433,304,80153,1,0,3:0:0:0:
425,265,80237,1,0,3:0:0:0:
402,234,80321,1,8,3:2:0:0:
263,81,80489,1,0,3:0:0:0:
259,98,80573,1,0,3:0:0:0:
256,113,80657,5,6,0:0:0:0:
285,267,80824,1,2,0:0:0:0:
436,133,80992,1,2,0:0:0:0:
186,225,81159,2,0,P|108:210|70:105,1,179.999994506836,6|0,0:0|0:0,0:0:0:0:
10,38,81578,1,0,0:0:0:0:
27,32,81662,6,0,P|43:68|35:115,1,78.7499975967408,8|0,0:0|0:0,0:0:0:0:
0,233,81997,6,0,P|43:217|93:214,1,82.5000025177003,12|0,0:0|0:0,0:0:0:0:
342,100,82333,2,0,P|301:94|262:80,1,82.5000025177003,8|0,0:0|0:0,0:0:0:0:
305,225,82668,5,8,0:0:0:0:
265,65,82835,1,0,0:0:0:0:
180,258,83003,1,8,0:0:0:0:
269,46,83171,1,0,0:0:0:0:
160,148,83338,6,0,L|176:248,1,82.5000025177003,12|0,0:0|0:0,0:0:0:0:
412,352,83673,2,0,L|425:270,1,82.5000025177003,8|0,0:0|0:0,0:0:0:0:
262,80,84009,5,8,0:0:0:0:
428,256,84176,1,0,0:0:0:0:
173,229,84344,1,8,0:0:0:0:
432,232,84511,1,0,0:0:0:0:
232,340,84679,6,0,P|187:353|116:352,1,82.5000025177003,12|0,0:0|0:0,0:0:0:0:
44,208,85014,1,8,0:0:0:0:
173,229,85182,1,0,0:0:0:0:
148,48,85349,2,0,P|124:92|124:132,1,82.5000025177003,12|0,0:0|0:0,0:0:0:0:
324,352,85685,2,0,P|319:311|298:276,1,82.5000025177003,8|0,0:0|0:0,0:0:0:0:
173,229,85936,1,0,0:0:0:0:
176,248,86020,6,0,P|208:260|276:264,1,97.4999955368044,12|2,0:0|0:0,0:0:0:0:
400,152,86355,1,10,0:0:0:0:
208,144,86523,2,0,L|32:172,1,150,6|0,0:0|0:0,0:0:0:0:
64,152,86942,1,0,0:0:0:0:
68,136,87025,1,8,0:0:0:0:
304,32,87193,1,0,0:0:0:0:
308,48,87276,1,0,0:0:0:0:
312,60,87361,6,0,L|304:168,1,82.5000025177003,12|0,0:0|0:0,0:0:0:0:
182,330,87696,2,0,L|175:247,1,82.5000025177003,8|0,0:0|0:0,0:0:0:0:
356,292,88031,5,8,0:0:0:0:
160,252,88199,1,0,0:0:0:0:
420,168,88366,1,8,0:0:0:0:
144,256,88534,1,0,0:0:0:0:
226,121,88701,6,0,P|267:133|326:145,1,82.5000025177003,12|0,0:0|0:0,0:0:0:0:
128,260,89037,2,0,P|87:268|48:280,1,82.5000025177003,8|0,0:0|0:0,0:0:0:0:
264,300,89372,1,8,0:0:0:0:
120,84,89539,1,0,3:0:0:0:
96,103,89622,1,0,3:0:0:0:
79,129,89706,1,8,3:2:0:0:
69,158,89790,1,0,3:0:0:0:
69,189,89874,1,0,3:0:0:0:
296,360,90042,6,0,P|273:355|196:348,1,82.5000025177003,12|0,0:0|0:0,0:0:0:0:
452,272,90377,1,8,0:0:0:0:
272,256,90545,1,0,3:0:0:0:
235,209,90628,1,0,3:0:0:0:
221,151,90712,1,0,3:0:0:0:
234,93,90796,1,0,3:0:0:0:
270,46,90880,1,0,3:0:0:0:
323,19,90963,1,0,3:0:0:0:
382,17,91047,1,0,3:0:0:0:
408,184,91215,5,6,3:2:0:0:
256,192,91299,12,0,95405,0:0:0:0:
