osu file format v14

[General]
AudioFilename: audio.mp3
AudioLeadIn: 0
PreviewTime: 59791
Countdown: 0
SampleSet: Soft
StackLeniency: 0.7
Mode: 0
LetterboxInBreaks: 0
WidescreenStoryboard: 0

[Editor]
DistanceSpacing: 0.9
BeatDivisor: 4
GridSize: 4
TimelineZoom: 1.6

[Metadata]
Title:MY Mai*TONIGHT
TitleUnicode:MY舞☆TONIGHT
Artist:Aqours
ArtistUnicode:Aqours
Creator:Doormat
Version:Easy
Source:ラブライブ!サンシャイン!!
Tags:Little CloudSplash16 Meg iMage-- Gaia love live sunshine school idol project festival season two 2 insert song tv size inami anju 伊波杏樹 takami chika 高海千歌 aida rikako 逢田梨香子 sakurauchi riko 桜内梨子 suwa nanaka 諏訪ななか matsuura kanan 松浦果南 komiya arisa 小宮有紗 kurosawa dia 黒澤ダイヤ saito shuka 斉藤朱夏 watanabe you 渡辺曜 kobayashi aika 小林愛香 tsushima yoshiko 津島善子 yohane ヨハネ takatsuki kanako 高槻かなこ kunikida hanamaru 国木田花丸 suzuki aina 鈴木愛奈 ohara mari 小原鞠莉 furihata ai 降幡愛 kurosawa ruby 黒澤ルビィ
BeatmapID:1449112
BeatmapSetID:684717

[Difficulty]
HPDrainRate:2.5
CircleSize:3
OverallDifficulty:3
ApproachRate:3.5
SliderMultiplier:1
SliderTickRate:1

[Events]
//Background and Video events
0,0,"kurosawa.jpg",0,0
Video,0,"video.avi"
//Break Periods
2,16554,18272
//Storyboard Layer 0 (Background)
//Storyboard Layer 1 (Fail)
//Storyboard Layer 2 (Pass)
//Storyboard Layer 3 (Foreground)
//Storyboard Sound Samples

[TimingPoints]
6579,810.810810810811,4,2,2,40,1,0
6579,-50,4,2,2,40,0,0
15497,857.142857142857,4,2,2,40,1,0
15497,-50,4,2,2,40,0,0
16354,571.428571428571,4,2,2,40,1,0
16925,685.714285714286,4,2,2,40,1,0
18982,335.195530726257,4,2,1,5,1,0
19484,-100,4,2,1,60,0,0
20322,335.195530726257,4,2,1,80,1,0
31048,-100,4,2,2,50,0,0
36411,-100,4,2,1,50,0,0
36746,-100,4,2,2,50,0,0
37752,-100,4,2,2,60,0,0
38087,-100,4,2,2,62,0,0
38422,-100,4,2,2,65,0,0
38757,-100,4,2,2,67,0,0
39092,-100,4,2,2,70,0,0
40768,-100,4,2,1,70,0,0
41774,-100,4,2,1,70,0,0
47137,-100,4,2,1,60,0,0
52500,-100,4,2,1,70,0,0
55517,-100,4,2,1,72,0,0
55852,-100,4,2,1,75,0,0
56187,-100,4,2,1,77,0,0
56523,-100,4,2,1,80,0,0
56858,-100,4,2,1,82,0,0
57193,-100,4,2,1,85,0,0
57528,-100,4,2,1,87,0,0
57863,-100,4,2,1,90,0,0
59875,-100,4,2,2,90,0,0
60545,-100,4,2,1,90,0,1
71187,-100,4,2,1,90,0,0
71271,-100,4,2,1,90,0,1
81914,-100,4,2,1,90,0,0
81997,-100,4,2,1,90,0,1
87277,-100,4,2,1,90,0,0
87361,-100,4,2,1,90,0,1
91215,-100,4,2,1,90,0,0
95405,-100,4,2,1,10,0,0

[Colours]
Combo1 : 190,180,240
Combo2 : 255,74,74
Combo3 : 190,200,240
Combo4 : 250,192,250

[HitObjects]
136,280,5768,5,0,0:0:0:0:
192,212,6174,1,0,0:0:0:0:
264,268,6579,2,0,P|356:286|412:209,1,200,6|0,0:0|0:0,0:0:0:0:
432,120,7795,1,0,0:0:0:0:
365,58,8200,1,2,0:0:0:0:
365,58,9011,1,0,0:0:0:0:
345,146,9416,1,0,0:0:0:0:
256,126,9822,6,0,L|241:15,1,100,2|0,0:0|0:0,0:0:0:0:
160,64,10633,2,0,L|146:163,1,100,2|0,0:0|0:0,0:0:0:0:
176,248,11443,2,0,P|259:216|352:276,1,200,2|2,0:0|0:0,0:0:0:0:
404,340,12660,1,0,0:0:0:0:
478,288,13065,1,2,0:0:0:0:
478,288,13876,5,0,0:0:0:0:
426,213,14281,1,0,0:0:0:0:
460,128,14687,2,0,P|469:80|449:24,1,100,2|0,0:0|0:0,0:0:0:0:
364,40,15497,2,0,P|355:88|375:144,1,100,4|0,0:3|0:0,0:0:0:0:
426,213,16354,1,6,0:0:0:0:
320,108,19652,5,8,3:2:0:0:
256,172,19987,1,8,3:2:0:0:
172,136,20322,2,0,P|80:124|16:200,1,200,6|2,0:0|0:0,0:0:0:0:
4,288,21327,1,8,0:0:0:0:
68,352,21662,2,0,L|180:336,1,100,2|8,0:0|0:0,0:0:0:0:
248,376,22333,1,2,0:0:0:0:
286,294,22668,1,8,0:0:0:0:
204,255,23003,6,0,P|192:206|192:156,1,100,2|8,0:0|0:0,0:0:0:0:
224,72,23673,1,2,0:0:0:0:
153,15,24009,1,8,0:0:0:0:
77,64,24344,2,0,P|77:113|65:162,1,100,2|8,0:0|0:0,0:0:0:0:
12,236,25014,1,2,0:0:0:0:
65,309,25349,1,8,3:2:0:0:
151,279,25685,6,0,P|244:252|333:293,1,200,6|2,0:0|0:0,0:0:0:0:
404,348,26690,1,8,0:0:0:0:
472,288,27025,2,0,L|456:185,1,100,6|8,0:0|0:0,0:0:0:0:
372,156,27696,2,0,L|356:254,1,100,2|8,0:0|3:2,0:0:0:0:
272,284,28366,6,0,P|220:248|320:88,1,300,6|0,0:0|3:0,0:0:0:0:
372,156,29707,2,0,L|520:128,2,150,4|4|4,3:2|3:2|0:3,0:0:0:0:
308,220,31048,6,0,P|252:184|136:236,1,200,4|0,3:2|0:0,0:0:0:0:
68,288,32053,1,0,0:0:0:0:
0,228,32389,2,0,L|8:72,2,150,0|0|0,3:0|0:0|0:0,0:0:0:0:
68,288,33729,6,0,B|120:268|120:268|200:312|200:312|268:288,1,200,4|0,3:2|0:0,0:0:0:0:
304,220,34735,1,0,0:0:0:0:
242,152,35070,2,0,P|226:116|258:16,1,150,0|0,3:0|0:0,0:0:0:0:
346,12,35908,2,0,P|380:76|362:148,1,150,4|4,0:0|0:0,0:0:0:0:
304,220,36746,5,0,0:0:0:0:
242,152,37081,2,0,L|142:164,1,100,0|0,0:0|0:0,0:0:0:0:
76,224,37752,2,0,P|52:176|60:132,2,100,0|8|8,3:0|3:2|3:2,0:0:0:0:
136,292,38757,1,8,3:2:0:0:
218,256,39092,1,8,3:2:0:0:
218,256,40936,2,0,B|263:238|293:256|293:256|323:274|362:258,1,150,12|0,0:0|3:0,0:0:0:0:
396,172,41774,6,0,P|380:124|372:75,1,100,6|8,0:0|0:0,0:0:0:0:
460,52,42444,2,0,P|475:99|483:148,1,100,2|8,0:0|0:0,0:0:0:0:
460,236,43115,2,0,P|448:284|488:380,2,150,2|0|8,0:0|0:0|0:0,0:0:0:0:
396,172,44456,6,0,L|292:188,1,100,6|8,0:0|0:0,0:0:0:0:
208,204,45126,2,0,L|219:99,1,100,0|0,3:0|3:0,0:0:0:0:
288,48,45796,2,0,P|220:16|144:56,2,150,6|6|4,0:0|0:0|0:3,0:0:0:0:
352,112,47137,5,6,0:0:0:0:
416,48,47472,1,0,0:0:0:0:
480,112,47808,2,0,L|472:220,1,100,8|0,0:0|0:0,0:0:0:0:
400,268,48478,2,0,B|363:205|363:205|383:126,2,150,2|0|8,0:0|0:0|0:3,0:0:0:0:
456,340,49819,5,6,0:0:0:0:
371,375,50154,1,0,0:0:0:0:
298,319,50489,2,0,L|198:331,1,100,8|0,0:0|3:0,0:0:0:0:
168,248,51159,2,0,B|236:210|236:210|305:232,2,150,6|6|0,0:0|0:0|0:0,0:0:0:0:
92,196,52500,6,0,P|77:267|120:328,2,150,4|2|2,0:0|0:0|0:0,0:0:0:0:
168,144,53841,2,0,P|183:73|140:12,2,150,4|2|2,0:0|0:0|0:0,0:0:0:0:
220,216,55182,5,6,0:0:0:0:
304,188,55517,1,8,0:0:0:0:
356,260,55852,1,8,0:0:0:0:
440,232,56187,1,8,0:0:0:0:
440,143,56523,2,0,P|433:94|429:44,1,100,12|8,0:0|3:2,0:0:0:0:
340,60,57193,2,0,P|335:109|328:159,1,100,8|8,3:2|3:2,0:0:0:0:
240,168,57863,6,0,P|221:95|256:31,2,150,6|6|2,0:0|0:0|0:0,0:0:0:0:
288,244,59204,2,0,L|276:356,1,100,0|0,1:0|1:0,0:0:0:0:
196,384,59875,1,0,0:0:0:0:
123,330,60210,1,0,0:0:0:0:
151,244,60545,6,0,P|161:206|149:146,1,100,6|8,0:0|0:0,0:0:0:0:
80,92,61215,1,2,0:0:0:0:
135,22,61551,1,8,0:0:0:0:
204,77,61886,2,0,P|242:87|302:75,1,100,2|8,0:0|0:0,0:0:0:0:
356,6,62556,1,2,0:0:0:0:
426,61,62891,1,8,0:0:0:0:
371,131,63227,6,0,L|388:240,2,100,6|8|6,0:0|0:0|0:0,0:0:0:0:
300,75,64232,1,8,0:0:0:0:
230,131,64567,2,0,P|220:168|232:232,1,100,6|8,0:0|0:0,0:0:0:0:
288,296,65238,1,2,3:2:0:0:
241,372,65573,1,8,3:2:0:0:
154,350,65908,6,0,L|47:336,1,100,6|8,0:0|0:0,0:0:0:0:
8,260,66578,1,2,0:0:0:0:
66,191,66914,1,8,0:0:0:0:
149,225,67249,2,0,P|208:236|256:220,2,100,2|8|2,0:0|0:0|0:0,0:0:0:0:
66,191,68254,1,8,0:0:0:0:
140,136,68590,6,0,L|244:137,1,100,6|8,0:0|0:0,0:0:0:0:
243,44,69260,2,0,L|138:42,1,100,6|8,0:0|0:0,0:0:0:0:
53,44,69930,2,0,P|53:92|47:156,1,100,2|8,3:2|3:2,0:0:0:0:
8,224,70601,1,8,3:2:0:0:
16,316,70936,1,8,3:2:0:0:
104,300,71271,6,0,P|161:290|205:310,1,100,6|8,0:0|0:0,0:0:0:0:
265,370,71942,1,2,0:0:0:0:
329,303,72277,1,8,0:0:0:0:
262,238,72612,2,0,P|252:181|272:137,1,100,2|8,0:0|0:0,0:0:0:0:
332,77,73282,1,2,0:0:0:0:
265,13,73618,1,8,0:0:0:0:
201,80,73953,6,0,L|88:72,2,100,6|8|6,0:0|0:0|0:0,0:0:0:0:
267,143,74958,1,8,0:0:0:0:
201,207,75294,2,0,P|184:256|200:312,1,100,6|8,0:0|0:0,0:0:0:0:
252,372,75964,1,2,0:0:0:0:
341,356,76299,1,8,3:2:0:0:
372,270,76634,6,0,L|356:171,1,100,6|8,0:0|0:0,0:0:0:0:
344,80,77305,2,0,L|252:120,1,100,2|8,0:0|0:0,0:0:0:0:
200,192,77975,1,6,0:0:0:0:
111,182,78310,1,8,0:0:0:0:
75,100,78646,1,6,0:0:0:0:
127,28,78981,1,8,0:0:0:0:
215,37,79316,5,6,0:0:0:0:
252,120,79651,2,0,L|248:228,2,100,8|2|8,0:0|3:2|3:2,0:0:0:0:
340,100,80657,2,0,P|368:168|328:248,2,150,6|6|8,0:0|0:0|0:0,0:0:0:0:
276,35,81997,6,0,P|226:44|177:40,1,100,12|8,0:0|0:0,0:0:0:0:
124,116,82668,2,0,P|155:154|177:199,1,100,8|8,0:0|0:0,0:0:0:0:
125,272,83338,1,12,0:0:0:0:
181,345,83673,1,8,0:0:0:0:
268,315,84009,1,8,0:0:0:0:
266,224,84344,1,8,0:0:0:0:
351,193,84679,6,0,L|458:204,1,100,12|8,0:0|0:0,0:0:0:0:
440,112,85349,2,0,L|333:101,1,100,12|8,0:0|0:0,0:0:0:0:
268,156,86020,2,0,P|250:87|298:23,2,150,12|6|8,0:0|0:0|0:0,0:0:0:0:
351,193,87361,6,0,L|340:300,1,100,12|8,0:0|0:0,0:0:0:0:
268,348,88031,2,0,L|180:284,1,100,8|8,0:0|0:0,0:0:0:0:
96,290,88701,1,12,0:0:0:0:
67,207,89037,1,8,0:0:0:0:
138,153,89372,1,8,0:0:0:0:
212,204,89707,1,8,3:2:0:0:
283,149,90042,6,0,L|272:40,1,100,12|8,0:0|0:0,0:0:0:0:
356,12,90713,2,0,P|382:45|364:160,1,150,0|6,3:0|3:2,0:0:0:0:
256,192,91383,12,0,95405,0:0:0:0:
