osu file format v14

[General]
AudioFilename: audio.mp3
AudioLeadIn: 0
PreviewTime: 34859
Countdown: 0
SampleSet: Normal
StackLeniency: 0.7
Mode: 0
LetterboxInBreaks: 0
WidescreenStoryboard: 0

[Editor]
Bookmarks: 49948,62627,85663,110663,133163,160663,189591
DistanceSpacing: 2.3
BeatDivisor: 4
GridSize: 4
TimelineZoom: 1.1

[Metadata]
Title:MIRAI TICKET
TitleUnicode:MIRAI TICKET
Artist:Aqours
ArtistUnicode:Aqours
Creator:WingsGaming
Version:Collab
Source:Love Live! Sunshine!!
Tags:krkr kromkrom bukkake blast anime school idol project
BeatmapID:1166101
BeatmapSetID:550419

[Difficulty]
HPDrainRate:6
CircleSize:4
OverallDifficulty:7
ApproachRate:8.9
SliderMultiplier:1.7
SliderTickRate:1

[Events]
//Background and Video events
0,0,"Aqours.full.1859341.jpg",0,0
//Break Periods
//Storyboard Layer 0 (Background)
//Storyboard Layer 1 (Fail)
//Storyboard Layer 2 (Pass)
//Storyboard Layer 3 (Foreground)
//Storyboard Sound Samples

[TimingPoints]
34949,357.142857142857,4,2,1,50,1,0
34949,-133.333333333333,4,2,1,50,0,0
43877,-100,4,1,1,60,0,0
52806,-83.3333333333333,4,1,1,60,0,0
54056,-100,4,1,1,60,0,0
62270,-133.333333333333,4,2,1,50,0,0
65841,-133.333333333333,4,2,1,5,0,0
66020,-133.333333333333,4,2,1,50,0,0
72984,-133.333333333333,4,1,1,60,0,0
74056,-100,4,1,1,60,0,0
87627,-142.857142857143,4,1,1,60,0,0
88520,-100,4,1,1,60,0,0
92984,-83.3333333333333,4,1,1,60,0,0
94056,-111.111111111111,4,1,1,60,0,0
94591,-83.3333333333333,4,1,1,60,0,0
95484,-111.111111111111,4,1,1,60,0,0
95931,-76.9230769230769,4,1,1,70,0,0
96377,-66.6666666666667,4,1,1,80,0,0
96913,-100,4,1,1,80,0,0
98163,-83.3333333333333,4,1,1,80,0,0
99948,-76.9230769230769,4,1,1,80,0,1
105306,-71.4285714285714,4,1,1,80,0,1
105663,-66.6666666666667,4,1,1,80,0,1
107448,-71.4285714285714,4,1,1,80,0,1
107806,-76.9230769230769,4,1,1,80,0,1
110663,-133.333333333333,4,1,1,80,0,1
111377,-76.9230769230769,4,1,1,80,0,1
113520,-133.333333333333,4,1,1,80,0,1
114056,-76.9230769230769,4,1,1,80,0,1
124770,-76.9230769230769,4,2,1,5,0,1
124948,-76.9230769230769,4,1,1,80,0,1
130841,-76.9230769230769,4,1,1,40,0,1
131377,-76.9230769230769,4,1,1,60,0,1
131913,-76.9230769230769,4,1,1,80,0,1
133163,-100,4,1,1,70,0,0
134056,-83.3333333333333,4,1,1,70,0,0
136913,-100,4,1,1,70,0,0
138520,-83.3333333333333,4,2,1,70,0,0
138877,-71.4285714285714,4,2,1,70,0,0
139234,-62.5,4,2,1,70,0,0
139591,-55.5555555555556,4,2,1,70,0,0
140127,-76.9230769230769,4,2,1,70,0,0
141734,-100,4,1,1,40,0,0
146377,-166.666666666667,4,2,2,40,0,0
152091,-125,4,2,1,40,0,0
152448,-111.111111111111,4,2,1,50,0,0
152806,-100,4,2,2,60,0,0
156377,-100,4,1,1,60,0,0
159770,-76.923076923077,4,1,1,60,0,0
161377,-76.923076923077,4,1,1,60,0,1
166377,-133.333333333333,4,1,1,60,0,1
166556,-133.333333333333,4,1,1,5,0,1
166645,-133.333333333333,4,1,1,60,0,1
166913,-133.333333333333,4,1,1,5,0,1
167091,-133.333333333333,4,1,1,60,0,1
167270,-133.333333333333,4,1,1,5,0,1
167627,-76.923076923077,4,1,1,60,0,1
177806,-133.333333333333,4,1,1,60,0,1
178698,-76.923076923077,4,1,1,60,0,1
187091,-133.333333333333,4,1,1,60,0,1
189591,-90.9090909090909,4,1,1,80,0,1
189948,-76.9230769230769,4,1,1,80,0,1
191198,-66.6666666666667,4,1,1,80,0,1
193877,-83.3333333333333,4,1,1,80,0,1
194234,-100,4,1,1,80,0,1
195663,-100,4,2,2,60,0,0
198520,-100,4,1,1,60,0,0
202627,-125,4,1,1,60,0,0
203341,-100,4,1,1,60,0,0
209770,-100,4,1,1,70,0,0
213163,-100,4,1,1,5,0,0

[HitObjects]
96,92,34949,6,0,L|212:132,2,95.6250036478044
132,180,35663,2,0,P|204:196|256:160,1,127.500004863739
368,280,36199,5,0,0:0:0:0:
368,280,36377,2,0,P|412:164|336:64,1,255.000009727478
160,292,37806,6,0,P|136:240|144:176,2,95.6250036478044
224,220,38520,2,0,L|224:80,1,127.500004863739
364,172,39056,5,0,0:0:0:0:
224,220,39234,1,0,0:0:0:0:
332,104,39413,1,0,0:0:0:0:
220,88,39591,1,0,0:0:0:0:
224,220,39770,2,0,P|192:260|52:264,1,191.250007295609
344,120,40663,6,0,P|404:148|464:204,1,127.500004863739
148,84,41377,5,0,0:0:0:0:
380,300,41734,6,0,L|316:240,1,63.7500024318696
224,140,42091,1,0,0:0:0:0:
332,256,42806,6,0,L|444:152,2,127.500004863739
64,88,43877,1,0,0:0:0:0:
88,68,43966,1,0,0:0:0:0:
120,60,44056,1,0,0:0:0:0:
152,64,44145,1,0,0:0:0:0:
184,72,44234,1,0,0:0:0:0:
152,240,44413,5,0,0:0:0:0:
120,60,44591,1,0,0:0:0:0:
352,240,44770,1,0,0:0:0:0:
152,240,44949,1,0,0:0:0:0:
152,240,45127,1,0,0:0:0:0:
316,92,45306,1,0,0:0:0:0:
203,79,45484,6,0,P|175:135|151:267,1,170
172,336,46020,1,0,0:0:0:0:
172,88,46556,5,0,0:0:0:0:
224,132,46645,2,0,L|284:176,3,42.5
204,272,47091,5,0,0:0:0:0:
288,76,47270,1,0,0:0:0:0:
288,76,47449,1,0,0:0:0:0:
448,208,47627,5,0,0:0:0:0:
284,348,47806,1,0,0:0:0:0:
116,220,47984,2,0,L|184:152,1,85
380,96,48341,5,0,0:0:0:0:
276,280,48520,1,0,0:0:0:0:
184,88,48699,1,0,0:0:0:0:
196,300,48877,6,0,L|103:275,1,85
320,328,49234,1,0,0:0:0:0:
412,272,49413,1,0,0:0:0:0:
440,224,49502,1,0,0:0:0:0:
436,168,49591,1,0,0:0:0:0:
400,124,49681,1,0,0:0:0:0:
352,100,49770,1,0,0:0:0:0:
296,96,49859,1,0,0:0:0:0:
244,120,49948,6,0,P|168:152|91:120,1,170
206,269,50663,1,0,0:0:0:0:
256,212,50841,1,0,0:0:0:0:
237,338,51020,1,0,0:0:0:0:
116,164,51198,2,0,P|196:200|280:168,1,170
295,75,51734,1,0,0:0:0:0:
431,75,52091,5,0,0:0:0:0:
395,142,52270,1,0,0:0:0:0:
331,184,52448,1,0,0:0:0:0:
264,85,52627,2,0,L|293:85,3,21.25
209,44,52806,2,0,P|180:88|134:118,1,101.999996887207
9,97,53163,1,0,0:0:0:0:
152,227,53341,2,0,L|103:210,1,50.9999984436036,0|0,0:0|2:0,0:0:0:0:
226,223,53698,2,0,L|177:206,1,50.9999984436036,0|0,0:0|2:0,0:0:0:0:
96,120,53877,1,0,0:0:0:0:
309,211,54056,6,0,P|264:237|148:221,1,170
116,198,54591,1,0,0:0:0:0:
84,169,54770,2,0,L|40:169,2,42.5
75,97,55038,1,0,0:0:0:0:
75,97,55127,1,0,0:0:0:0:
201,74,55306,1,0,0:0:0:0:
201,74,55395,1,0,0:0:0:0:
279,220,55663,1,0,0:0:0:0:
270,228,55752,1,0,0:0:0:0:
259,220,55841,1,0,0:0:0:0:
250,228,55931,1,0,0:0:0:0:
239,221,56020,6,0,P|171:176|148:89,1,170
229,169,56556,1,0,0:0:0:0:
286,36,56734,1,0,0:0:0:0:
89,120,56913,2,0,P|176:124|239:65,1,170
272,48,57448,1,0,0:0:0:0:
316,48,57627,1,0,0:0:0:0:
396,163,57806,1,0,0:0:0:0:
396,163,57895,1,0,0:0:0:0:
396,163,57984,1,0,0:0:0:0:
300,220,58163,1,0,0:0:0:0:
300,220,58252,2,0,L|264:229,5,21.25,0|0|0|0|0|0,0:0|2:0|2:0|2:0|2:0|2:0,2:0:0:0:
326,97,58520,5,0,0:0:0:0:
162,256,58698,1,0,0:0:0:0:
114,30,58877,1,0,0:0:0:0:
288,181,59056,5,0,0:0:0:0:
308,107,59234,1,0,0:0:0:0:
286,33,59413,1,0,0:0:0:0:
235,256,59591,5,0,0:0:0:0:
70,97,59770,1,0,0:0:0:0:
248,177,59948,5,0,0:0:0:0:
194,231,60127,1,0,0:0:0:0:
123,260,60306,1,0,0:0:0:0:
46,261,60484,1,4,0:0:0:0:
256,192,60663,12,0,61377,0:0:0:0:
135,101,62270,6,0,L|220:124,1,63.7500024318696
292,140,62627,1,0,0:0:0:0:
396,300,62984,1,0,0:0:0:0:
356,212,63163,1,0,0:0:0:0:
292,140,63341,1,0,0:0:0:0:
449,102,63698,6,0,L|363:124,1,63.7500024318696
292,140,64055,1,0,0:0:0:0:
192,304,64413,1,0,0:0:0:0:
216,212,64591,1,0,0:0:0:0:
292,140,64770,1,0,0:0:0:0:
104,172,65127,6,0,L|140:120,1,63.7500024318696
224,72,65484,2,0,P|268:64|396:112,1,159.375006079674
432,152,66020,2,0,P|452:180|464:224,1,63.7500024318696
316,332,66556,5,0,0:0:0:0:
136,268,66913,2,0,P|116:192|252:80,1,255.000009727478
216,192,67806,6,0,L|324:220,2,95.6250036478044
176,104,68520,2,0,L|40:64,1,127.500004863739
240,120,69056,1,0,0:0:0:0:
332,148,69234,1,0,0:0:0:0:
248,248,69948,6,0,L|112:208,1,127.500004863739
316,264,70484,1,0,0:0:0:0:
408,292,70663,1,0,0:0:0:0:
440,168,71377,6,0,P|388:116|324:84,2,127.500004863739
256,328,72448,1,0,0:0:0:0:
96,184,72627,1,0,0:0:0:0:
332,84,72984,5,0,0:0:0:0:
440,152,73163,1,0,0:0:0:0:
328,216,73341,1,0,0:0:0:0:
128,56,73698,6,0,L|160:88,2,31.8750012159348
104,184,74056,1,0,0:0:0:0:
256,112,74234,2,0,P|312:112|372:136,1,85
440,256,74591,1,0,0:0:0:0:
308,364,74770,2,0,P|252:364|192:340,1,85
128,216,75127,5,0,0:0:0:0:
208,116,75306,1,0,0:0:0:0:
296,208,75484,2,0,P|276:264|252:288,1,85
128,216,75841,1,0,0:0:0:0:
160,48,76020,1,0,0:0:0:0:
304,136,76198,1,0,0:0:0:0:
168,276,76556,5,0,0:0:0:0:
324,208,76734,1,0,0:0:0:0:
196,96,76913,2,0,P|152:92|104:92,1,85
76,260,77270,1,0,0:0:0:0:
232,324,77448,1,0,0:0:0:0:
272,160,77627,1,0,0:0:0:0:
152,204,77806,6,0,L|260:232,1,85
360,256,78163,1,0,0:0:0:0:
424,144,78341,1,0,0:0:0:0:
328,60,78520,2,0,L|219:88,1,85
124,120,78877,2,0,L|209:142,1,85
168,288,79234,6,0,P|200:288|288:248,2,127.5
192,164,79948,1,0,0:0:0:0:
436,84,80306,5,0,0:0:0:0:
316,124,80484,1,0,0:0:0:0:
192,160,80663,2,0,L|96:192,1,85
316,124,81020,1,0,0:0:0:0:
404,176,81377,6,0,L|320:216,1,85
472,144,81734,1,0,0:0:0:0:
264,244,81913,1,0,0:0:0:0:
148,300,82091,1,0,0:0:0:0:
96,184,82270,5,0,0:0:0:0:
108,144,82359,1,0,0:0:0:0:
136,112,82448,1,0,0:0:0:0:
248,52,82627,1,0,0:0:0:0:
396,136,82806,5,0,0:0:0:0:
388,304,82984,1,0,0:0:0:0:
336,112,83163,5,0,0:0:0:0:
328,280,83341,1,0,0:0:0:0:
272,92,83520,1,0,0:0:0:0:
236,68,83609,1,0,0:0:0:0:
196,56,83698,1,0,0:0:0:0:
156,48,83788,1,0,0:0:0:0:
112,52,83877,1,0,0:0:0:0:
16,136,84056,6,0,P|4:208|64:292,1,170
180,304,84591,1,0,0:0:0:0:
292,244,84770,2,0,P|304:172|244:88,1,170
216,72,85216,1,0,0:0:0:0:
176,56,85306,1,0,0:0:0:0:
76,147,85663,5,0,0:0:0:0:
132,241,85841,1,0,0:0:0:0:
104,56,86020,1,0,0:0:0:0:
160,150,86198,2,0,P|222:104|236:14,1,170
236,16,86734,1,0,0:0:0:0:
43,221,86913,2,0,P|139:208|190:148,1,170
186,156,87448,1,0,0:0:0:0:
280,39,87627,2,0,L|297:160,1,118.999996368408
345,129,88073,1,0,0:0:0:0:
341,185,88163,1,0,0:0:0:0:
341,185,88341,1,0,0:0:0:0:
225,273,88520,6,0,P|173:261|148:237,1,85
116,134,88877,1,0,0:0:0:0:
240,328,89056,2,0,L|197:311,1,42.5,0|0,0:0|2:0,0:0:0:0:
309,273,89413,2,0,L|266:256,1,42.5,0|0,0:0|2:0,0:0:0:0:
358,261,89591,1,0,0:0:0:0:
397,235,89681,1,0,0:0:0:0:
423,196,89770,2,0,L|380:179,1,42.5,0|0,0:0|2:0,0:0:0:0:
392,217,90127,2,0,L|349:200,1,42.5,0|0,0:0|2:0,0:0:0:0:
283,257,90484,2,0,B|273:242|273:242|264:263|264:263|253:246|253:246|203:224|182:154,1,170
188,54,91020,1,0,0:0:0:0:
188,54,91198,1,0,0:0:0:0:
209,95,91288,1,0,0:0:0:0:
249,118,91377,5,0,0:0:0:0:
366,68,91556,1,0,0:0:0:0:
327,143,91734,1,0,0:0:0:0:
444,93,91913,2,0,P|455:23|373:0,1,170
405,175,92448,1,0,0:0:0:0:
245,93,92627,1,0,0:0:0:0:
200,69,92984,2,0,P|199:118|219:177,1,101.999996887207
385,5,93341,2,0,P|352:49|303:71,1,101.999996887207
145,18,93698,1,0,0:0:0:0:
145,18,93877,1,0,0:0:0:0:
59,158,94056,2,0,P|93:211|132:154,1,152.999995330811
341,43,94591,6,0,L|289:55,1,50.9999984436036,0|0,0:0|2:0,0:0:0:0:
309,224,94948,2,0,L|267:190,1,50.9999984436036,0|0,0:0|2:0,0:0:0:0:
205,69,95127,1,0,0:0:0:0:
169,284,95306,2,0,L|143:235,1,50.9999984436036,0|0,0:0|2:0,0:0:0:0:
293,290,95484,2,0,P|351:228|353:142,1,152.999995330811
263,97,95931,1,0,0:0:0:0:
263,97,96020,6,0,P|207:103|157:67,1,110.499994941712
135,148,96288,1,0,0:0:0:0:
65,116,96377,2,0,P|62:181|94:248,1,127.500004863739
268,298,96734,1,0,0:0:0:0:
435,152,96913,2,0,P|434:63|370:5,1,170
287,141,97448,1,0,0:0:0:0:
379,8,97627,1,0,0:0:0:0:
191,88,97806,1,0,0:0:0:0:
197,125,97895,1,0,0:0:0:0:
213,159,97984,1,0,0:0:0:0:
240,185,98073,1,0,0:0:0:0:
275,200,98163,6,0,L|327:176,1,50.9999984436036,0|0,0:0|2:0,0:0:0:0:
419,40,98341,2,0,B|408:81|408:81|451:118|440:199,1,152.999995330811,0|0,0:0|2:0,0:0:0:0:
416,244,98698,2,0,L|391:195,1,50.9999984436036,0|0,0:0|2:0,0:0:0:0:
257,78,98877,2,0,L|280:123,1,50.9999984436036,0|0,0:0|2:0,0:0:0:0:
256,192,99234,12,4,99948,0:0:0:0:
348,221,100306,5,0,0:0:0:0:
313,81,100484,5,0,0:0:0:0:
190,256,100663,2,0,P|150:218|132:159,2,110.499994941712
231,160,101198,2,0,P|344:197|433:124,1,220.999989883423
408,45,101734,2,0,L|303:1,1,110.499994941712,0|0,0:0|2:0,0:0:0:0:
78,197,102091,6,0,L|187:149,1,110.499994941712,0|0,0:0|2:0,0:0:0:0:
264,205,102359,2,0,L|303:167,1,55.2499974708558
399,73,102627,1,0,0:0:0:0:
159,272,102806,2,0,B|146:193|166:115|166:115|196:109|224:137,1,220.999989883423
259,203,103341,5,0,0:0:0:0:
362,100,103520,1,0,0:0:0:0:
273,289,103698,1,0,0:0:0:0:
351,11,103877,1,0,0:0:0:0:
151,201,104056,2,0,P|263:183|306:91,1,220.999989883423
375,61,104591,1,0,0:0:0:0:
393,182,104770,1,0,0:0:0:0:
264,285,104948,6,0,P|175:289|120:241,1,165.749992412568,0|0,0:0|2:0,0:0:0:0:
98,154,105306,2,0,P|119:71|212:30,1,178.499994552612,0|0,0:0|2:0,0:0:0:0:
292,33,105663,2,0,P|376:132|334:245,1,255.000009727478
206,320,106198,5,0,0:0:0:0:
226,52,106377,2,0,B|293:21|303:75|357:89,2,127.500004863739
161,185,107091,6,0,P|183:259|137:368,1,191.250007295609,0|0,0:0|2:0,0:0:0:0:
262,205,107448,2,0,P|257:271|189:366,1,178.499994552612,0|0,0:0|2:0,0:0:0:0:
359,297,107806,2,0,P|299:331|247:333,1,110.499994941712
201,315,108073,1,0,0:0:0:0:
160,269,108163,2,0,L|110:245,2,55.2499974708558
221,265,108431,1,0,0:0:0:0:
276,241,108520,6,0,P|322:191|350:142,1,110.499994941712
271,30,108877,2,0,P|252:82|202:124,1,110.499994941712
52,173,109234,1,0,0:0:0:0:
52,173,109323,1,0,0:0:0:0:
52,173,109413,1,0,0:0:0:0:
174,284,109591,1,0,0:0:0:0:
339,253,109770,2,0,P|392:224|460:114,1,165.749992412568,0|0,0:0|2:0,0:0:0:0:
494,80,110127,2,0,L|441:56,1,55.2499974708558,0|0,0:0|2:0,0:0:0:0:
278,79,110306,2,0,L|330:102,1,55.2499974708558,0|0,0:0|2:0,0:0:0:0:
184,212,110484,1,0,0:0:0:0:
184,212,110573,1,0,0:0:0:0:
184,212,110663,6,0,P|152:176|140:124,2,95.6250036478044
252,124,111377,5,0,0:0:0:0:
288,96,111466,1,0,0:0:0:0:
328,80,111556,1,0,0:0:0:0:
372,76,111645,1,0,0:0:0:0:
416,88,111734,1,0,0:0:0:0:
364,248,111913,1,0,0:0:0:0:
224,156,112091,1,0,0:0:0:0:
372,76,112270,2,0,P|436:96|484:124,1,110.499994941712
364,248,112627,2,0,B|316:248|316:248|256:272|196:248|196:248|132:248,1,220.999989883423
256,64,113163,1,0,0:0:0:0:
392,184,113520,6,0,P|424:212|432:236,1,63.7500024318696
428,280,113788,1,0,0:0:0:0:
392,312,113877,1,0,0:0:0:0:
232,268,114056,1,0,0:0:0:0:
328,136,114234,2,0,L|260:228,1,110.499994941712
160,240,114591,5,0,0:0:0:0:
116,80,114770,1,0,0:0:0:0:
300,248,114948,1,0,0:0:0:0:
344,280,115038,1,0,0:0:0:0:
392,252,115127,1,0,0:0:0:0:
392,196,115216,1,0,0:0:0:0:
372,144,115306,1,0,0:0:0:0:
284,76,115484,2,0,P|224:56|80:112,1,220.999989883423
276,216,116020,5,0,0:0:0:0:
72,300,116198,1,0,0:0:0:0:
240,156,116377,2,0,L|364:104,1,110.499994941712
140,204,116734,1,0,0:0:0:0:
448,328,117091,6,0,L|323:277,1,110.499994941712
212,188,117448,1,0,0:0:0:0:
328,72,117627,1,0,0:0:0:0:
400,224,117806,2,0,P|356:280|312:300,1,110.499994941712
212,188,118163,2,0,P|256:104|368:72,1,165.749992412568
372,64,118520,1,0,0:0:0:0:
392,240,118698,1,0,0:0:0:0:
248,320,118877,2,0,P|192:320|136:292,1,110.499994941712
244,248,119234,5,0,0:0:0:0:
268,220,119323,1,0,0:0:0:0:
280,184,119413,1,0,0:0:0:0:
280,144,119502,1,0,0:0:0:0:
272,104,119591,1,0,0:0:0:0:
252,72,119681,1,0,0:0:0:0:
224,44,119770,1,0,0:0:0:0:
188,28,119859,1,0,0:0:0:0:
148,28,119948,1,0,0:0:0:0:
84,100,120127,5,0,0:0:0:0:
196,224,120306,1,0,0:0:0:0:
84,100,120484,1,0,0:0:0:0:
416,96,120841,5,0,0:0:0:0:
308,224,121020,1,0,0:0:0:0:
416,96,121198,1,0,0:0:0:0:
84,100,121556,5,0,0:0:0:0:
196,224,121735,1,0,0:0:0:0:
84,100,121913,1,0,0:0:0:0:
196,224,122091,1,0,0:0:0:0:
232,248,122181,1,0,0:0:0:0:
276,252,122270,1,0,0:0:0:0:
320,244,122359,1,0,0:0:0:0:
360,224,122448,1,0,0:0:0:0:
400,144,122627,1,0,0:0:0:0:
204,32,122806,5,0,0:0:0:0:
28,164,122984,1,0,0:0:0:0:
28,164,123163,1,0,0:0:0:0:
328,128,123341,1,0,0:0:0:0:
150,259,123520,1,0,0:0:0:0:
150,259,123698,1,0,0:0:0:0:
452,224,123877,1,0,0:0:0:0:
288,92,124413,5,0,0:0:0:0:
288,92,124502,1,0,0:0:0:0:
288,92,124591,2,0,L|136:228,1,165.749992412568
272,180,124948,2,0,L|364:96,1,110.499994941712
388,124,125216,1,0,0:0:0:0:
388,84,125306,1,0,0:0:0:0:
84,220,125663,5,0,0:0:0:0:
220,312,125841,1,0,0:0:0:0:
264,152,126020,1,0,0:0:0:0:
132,52,126198,2,0,L|259:86,1,110.499994941712
370,123,126556,2,0,L|242:157,1,110.499994941712
96,136,126913,5,0,0:0:0:0:
260,152,127091,1,0,0:0:0:0:
168,288,127270,1,0,0:0:0:0:
96,136,127448,1,0,0:0:0:0:
260,152,127627,1,0,0:0:0:0:
112,332,127895,5,0,0:0:0:0:
112,332,127984,1,0,0:0:0:0:
96,136,128163,1,0,0:0:0:0:
132,104,128252,1,0,0:0:0:0:
176,80,128341,1,0,0:0:0:0:
224,68,128431,1,0,0:0:0:0:
272,68,128520,1,0,0:0:0:0:
244,288,128698,1,0,0:0:0:0:
72,176,128877,1,0,0:0:0:0:
292,148,129056,5,0,0:0:0:0:
104,348,129234,1,0,0:0:0:0:
56,76,129413,2,0,P|104:48|164:40,1,110.499994941712
196,300,129770,5,0,0:0:0:0:
380,144,129948,1,0,0:0:0:0:
157,39,130127,1,0,0:0:0:0:
148,316,130306,1,0,0:0:0:0:
196,300,130395,1,0,0:0:0:0:
240,280,130484,1,0,0:0:0:0:
312,240,130841,5,0,0:0:0:0:
372,192,131020,1,0,0:0:0:0:
396,120,131198,1,0,0:0:0:0:
308,56,131377,5,0,0:0:0:0:
212,108,131556,1,0,0:0:0:0:
156,204,131734,1,0,0:0:0:0:
276,316,131913,5,0,0:0:0:0:
392,200,132091,1,0,0:0:0:0:
388,156,132181,1,0,0:0:0:0:
368,116,132270,1,0,0:0:0:0:
344,80,132359,1,0,0:0:0:0:
308,56,132448,1,0,0:0:0:0:
268,40,132538,1,0,0:0:0:0:
224,44,132627,1,0,0:0:0:0:
180,68,132716,1,0,0:0:0:0:
152,108,132806,1,0,0:0:0:0:
283,212,132984,1,0,0:0:0:0:
409,124,133163,6,0,B|434:163|371:144|352:85|417:49|487:96|480:198|373:227,1,255
303,61,133877,1,0,0:0:0:0:
202,250,134056,2,0,B|191:226|199:182|199:182|133:134|160:45,1,203.999993774414
354,132,134591,2,0,P|384:189|426:221,1,101.999996887207,0|0,0:0|2:0,0:0:0:0:
250,239,134948,2,0,P|245:292|221:344,1,101.999996887207,0|0,0:0|2:0,0:0:0:0:
202,121,135306,2,0,P|156:92|131:45,1,101.999996887207,0|0,0:0|2:0,0:0:0:0:
353,218,135663,6,0,P|323:260|220:294,1,152.999995330811,0|0,0:0|2:0,0:0:0:0:
179,270,136020,1,0,0:0:0:0:
293,111,136198,2,0,P|250:149|197:159,1,101.999996887207
162,147,136466,1,0,0:0:0:0:
115,149,136556,2,0,L|66:175,1,50.9999984436036
25,270,136734,2,0,L|55:316,1,50.9999984436036
158,336,136913,6,0,P|209:282|237:188,1,170
275,126,137448,1,0,0:0:0:0:
351,131,137627,1,0,0:0:0:0:
369,205,137806,1,0,0:0:0:0:
387,238,137895,1,0,2:0:0:0:
421,255,137984,1,0,2:0:0:0:
468,194,138163,1,0,2:0:0:0:
465,155,138252,1,0,2:0:0:0:
449,120,138341,1,0,2:0:0:0:
398,43,138520,6,2,P|359:80|337:127,1,101.999996887207
225,291,138877,2,2,P|284:268|338:223,1,118.999996368408
287,19,139234,2,2,P|249:82|192:117,1,136
42,281,139591,2,2,P|116:274|194:226,1,152.999995330811
183,235,139948,1,0,0:0:0:0:
322,138,140127,2,0,P|344:199|393:235,1,110.499994941712,2|0,0:0|0:0,0:0:0:0:
411,255,140484,1,0,0:0:0:0:
303,227,140663,6,0,L|262:188,1,55.2499974708558,4|0,0:0|0:0,0:0:0:0:
247,92,140931,2,0,L|207:132,1,55.2499974708558,4|0,0:0|0:0,0:0:0:0:
169,246,141198,6,0,L|128:207,1,55.2499974708558,4|0,0:0|0:0,0:0:0:0:
113,111,141377,2,0,L|73:151,1,55.2499974708558,4|0,0:0|0:0,0:0:0:0:
92,345,141734,6,0,L|131:262,1,85
275,201,142091,1,0,0:0:0:0:
275,201,142270,1,0,0:0:0:0:
330,325,142448,1,0,0:0:0:0:
330,325,142627,1,0,0:0:0:0:
329,78,142806,1,0,0:0:0:0:
256,192,142984,12,0,145663,2:0:0:0:
376,112,146377,5,2,0:0:0:0:
292,148,146645,1,2,0:0:0:0:
208,184,146913,1,2,0:0:0:0:
208,184,147091,2,0,P|163:152|151:103,1,101.999996887207,4|0,0:0|0:0,0:0:0:0:
222,28,147627,1,2,0:0:0:0:
222,28,147806,2,0,L|366:85,1,152.999995330811,2|0,0:0|0:0,0:0:0:0:
440,147,148520,1,4,0:0:0:0:
354,273,148877,6,0,P|381:290|403:283,1,50.9999984436036,2|0,0:0|0:0,0:0:0:0:
301,295,149234,1,2,0:0:0:0:
250,175,149502,1,2,0:0:0:0:
168,276,149770,1,2,0:0:0:0:
168,276,149948,2,0,P|137:235|122:180,1,101.999996887207,6|0,0:0|0:0,0:0:0:0:
217,117,150484,1,2,0:0:0:0:
187,53,150663,1,2,0:0:0:0:
248,87,150841,1,2,0:0:0:0:
179,95,151020,1,2,0:0:0:0:
230,48,151198,2,0,P|257:55|279:46,3,50.9999984436036,2|0|0|0,0:0|0:0|0:0|0:0,0:0:0:0:
207,155,151913,1,0,0:0:0:0:
285,282,152091,6,0,P|310:255|326:209,1,68,2|0,0:0|0:0,0:0:0:0:
345,257,152448,2,0,P|362:213|363:173,1,76.4999976654053,2|0,0:0|0:0,0:0:0:0:
395,212,152806,2,0,P|382:124|319:66,1,170,6|0,0:0|0:0,0:0:0:0:
83,105,153341,1,2,0:0:0:0:
202,39,153520,2,0,P|285:68|380:55,1,170,6|0,0:0|0:0,0:0:0:0:
402,146,154234,5,2,0:0:0:0:
117,197,154591,5,2,0:0:0:0:
440,180,154948,6,0,P|408:223|390:210,1,85,2|0,0:0|0:0,0:0:0:0:
370,195,155216,1,0,0:0:0:0:
355,168,155306,6,0,L|309:153,1,42.5,2|0,0:0|0:0,0:0:0:0:
265,258,155484,1,0,0:0:0:0:
230,241,155573,1,0,0:0:0:0:
203,212,155663,5,2,0:0:0:0:
182,285,155841,1,0,0:0:0:0:
119,328,156020,1,0,0:0:0:0:
43,339,156198,1,0,0:0:0:0:
130,145,156377,1,0,0:0:0:0:
149,219,156556,1,0,0:0:0:0:
125,291,156734,1,0,0:0:0:0:
51,73,156913,6,0,P|151:62|222:95,1,170
225,249,157448,1,0,0:0:0:0:
346,142,157627,2,0,L|338:110,2,21.25
363,268,157984,1,0,0:0:0:0:
363,268,158073,1,0,0:0:0:0:
363,268,158162,1,0,0:0:0:0:
170,176,158341,1,0,0:0:0:0:
170,176,158430,1,0,0:0:0:0:
170,176,158519,5,0,0:0:0:0:
279,68,158698,1,0,0:0:0:0:
280,170,158877,1,0,0:0:0:0:
89,75,159056,1,0,0:0:0:0:
143,245,159234,2,0,L|187:217,1,42.5
268,80,159413,2,0,L|224:104,1,42.5
143,245,159591,2,0,L|187:217,1,42.5
268,80,159770,2,0,P|326:143|406:159,1,165.749992412568,0|0,0:0|2:0,0:0:0:0:
445,134,160127,5,0,0:0:0:0:
191,24,160306,1,4,0:0:0:0:
72,184,160663,6,0,L|160:220,1,55.2499974708558
176,108,160841,2,0,L|236:100,1,55.2499974708558
216,212,161020,2,0,L|288:236,1,55.2499974708558
296,128,161198,2,0,L|384:104,1,55.2499974708558
356,224,161377,2,0,P|448:176|448:64,1,220.999989883423
348,112,161913,1,0,0:0:0:0:
248,68,162091,6,0,P|240:116|280:200,1,110.499994941712
356,224,162448,1,0,0:0:0:0:
452,280,162627,2,0,P|402:320|260:280,1,220.999989883423
424,192,163163,2,0,P|432:116|384:44,1,165.749992412568
348,28,163520,1,0,0:0:0:0:
232,216,163698,1,0,0:0:0:0:
112,28,163877,1,0,0:0:0:0:
320,104,164056,6,0,L|448:136,1,110.499994941712
232,216,164413,2,0,L|96:172,1,110.499994941712
368,48,164770,5,0,0:0:0:0:
288,312,164948,1,0,0:0:0:0:
332,308,165038,1,0,0:0:0:0:
364,280,165127,1,0,0:0:0:0:
78,207,165306,2,0,L|146:171,1,55.2499974708558
264,200,165484,1,0,0:0:0:0:
412,76,165841,5,0,0:0:0:0:
448,144,166020,1,0,0:0:0:0:
380,184,166198,1,0,0:0:0:0:
348,112,166377,2,0,L|276:72,1,63.7500024318696
284,180,166734,2,0,L|220:200,1,63.7500024318696
292,268,167091,2,0,L|248:332,1,63.7500024318696
104,220,167448,5,0,0:0:0:0:
168,68,167627,2,0,L|260:96,1,55.2499974708558
392,40,167806,1,0,0:0:0:0:
268,220,167984,1,0,0:0:0:0:
168,68,168163,1,0,0:0:0:0:
420,284,168520,5,0,0:0:0:0:
168,68,168877,1,0,0:0:0:0:
64,324,169234,1,0,0:0:0:0:
224,284,169413,5,0,0:0:0:0:
268,264,169502,1,0,0:0:0:0:
308,236,169591,1,0,0:0:0:0:
332,192,169681,1,0,0:0:0:0:
344,144,169770,1,0,0:0:0:0:
208,144,169948,1,0,0:0:0:0:
156,300,170127,5,0,0:0:0:0:
136,136,170306,2,0,P|184:76|240:76,1,110.499994941712
140,220,170663,1,0,0:0:0:0:
188,228,170752,1,0,0:0:0:0:
236,220,170841,1,0,0:0:0:0:
280,196,170931,1,0,0:0:0:0:
320,164,171020,1,0,0:0:0:0:
212,72,171198,1,0,0:0:0:0:
392,156,171556,5,0,0:0:0:0:
136,136,171734,1,0,0:0:0:0:
212,284,171913,5,0,0:0:0:0:
212,284,172002,1,0,0:0:0:0:
212,284,172091,2,0,P|288:264|328:184,2,165.749992412568
104,156,172806,6,0,L|56:96,1,55.2499974708558
176,144,172984,2,0,L|176:64,1,55.2499974708558
248,156,173163,2,0,L|296:96,1,55.2499974708558
352,28,173341,1,0,0:0:0:0:
256,232,173520,6,0,P|328:224|380:256,1,110.499994941712
304,320,173877,2,0,P|240:336|200:320,1,110.499994941712
360,240,174413,1,0,0:0:0:0:
228,64,174591,2,0,P|232:120|208:176,1,110.499994941712
428,120,174948,2,0,P|424:64|448:8,1,110.499994941712
212,168,175306,1,0,0:0:0:0:
164,276,175663,6,0,P|216:288|292:252,1,110.499994941712
212,168,176020,2,0,P|272:156|348:184,1,110.499994941712
408,64,176377,2,0,L|364:124,1,55.2499974708558
344,276,176556,2,0,L|300:224,1,55.2499974708558
242,64,176734,2,0,L|208:112,1,55.2499974708558
178,276,176913,2,0,L|144:228,1,55.2499974708558
316,144,177270,5,0,0:0:0:0:
178,276,177448,1,0,0:0:0:0:
336,220,177627,1,0,0:0:0:0:
164,200,177806,2,0,L|264:96,2,127.500004863739
476,92,178877,6,0,L|400:184,1,110.499994941712
316,36,179234,1,0,0:0:0:0:
404,176,179413,1,0,0:0:0:0:
496,316,179591,2,0,P|424:344|348:320,1,110.499994941712
260,240,179948,6,0,P|228:196|160:164,1,110.499994941712
328,108,180306,2,0,P|360:152|428:184,1,110.499994941712
256,108,180663,2,0,L|168:68,2,55.2499974708558
232,272,181020,5,0,0:0:0:0:
376,192,181198,1,0,0:0:0:0:
140,108,181377,1,0,0:0:0:0:
292,36,181556,6,0,L|404:72,2,110.499994941712
324,200,182270,2,0,L|208:152,2,110.499994941712
88,228,182984,2,0,L|192:280,2,110.499994941712
132,64,183520,5,0,0:0:0:0:
132,64,183609,1,0,0:0:0:0:
132,64,183698,1,0,0:0:0:0:
272,304,183877,1,0,0:0:0:0:
348,36,184056,1,0,0:0:0:0:
140,220,184234,1,0,0:0:0:0:
416,200,184413,1,0,0:0:0:0:
416,200,184591,1,0,0:0:0:0:
156,292,184770,1,0,0:0:0:0:
144,88,184948,5,0,0:0:0:0:
144,88,185127,1,0,0:0:0:0:
364,252,185306,1,0,0:0:0:0:
104,340,185484,1,0,0:0:0:0:
104,340,185663,1,0,0:0:0:0:
148,320,185752,1,0,0:0:0:0:
184,288,185841,1,0,0:0:0:0:
204,240,185931,1,0,0:0:0:0:
204,192,186020,1,0,0:0:0:0:
4,200,186377,5,0,0:0:0:0:
212,120,186556,1,0,0:0:0:0:
324,308,186913,1,0,0:0:0:0:
356,272,187002,1,0,0:0:0:0:
384,232,187091,2,0,P|400:188|336:52,1,191.250007295609
272,164,187806,1,0,0:0:0:0:
100,160,188341,6,0,L|184:188,1,63.7500024318696
224,252,188698,2,0,L|137:269,2,63.7500024318696
320,232,189234,2,0,L|382:218,1,63.7500024318696
463,197,189591,6,0,L|371:221,1,93.5000028533936,0|0,0:0|2:0,0:0:0:0:
463,197,189948,2,0,P|389:206|255:119,1,220.999989883423
265,135,190484,1,0,0:0:0:0:
147,252,190663,2,0,P|144:182|162:136,1,110.499994941712
266,300,191020,1,0,0:0:0:0:
325,64,191198,6,0,B|342:145|363:192|363:192|422:176,1,191.250007295609,0|0,0:0|2:0,0:0:0:0:
457,214,191556,1,0,0:0:0:0:
339,363,191734,1,0,0:0:0:0:
161,291,191913,2,0,P|167:229|221:245,1,127.500004863739
351,118,192270,2,0,P|352:150|343:182,1,63.7500024318696
224,338,192448,2,0,P|218:304|226:269,1,63.7500024318696
418,232,192627,2,0,P|391:252|356:261,1,63.7500024318696
147,223,192806,6,0,P|204:194|270:201,1,127.500004863739,4|0,0:0|0:0,0:0:0:0:
265,199,193163,1,0,0:0:0:0:
459,32,193341,6,0,P|399:61|339:67,1,127.500004863739,4|0,0:0|0:0,0:0:0:0:
339,67,193698,1,0,0:0:0:0:
412,291,193877,6,0,B|367:310|317:317|317:317|263:299|226:250,1,203.999993774414,4|0,0:0|2:0,0:0:0:0:
227,228,194323,1,0,0:0:0:0:
253,213,194413,1,0,0:0:0:0:
257,242,194502,1,0,0:0:0:0:
231,257,194591,2,0,P|144:242|82:158,1,170,4|0,0:0|0:0,0:0:0:0:
219,13,195127,2,0,P|301:40|340:115,1,170,0|4,0:0|2:2,0:0:0:0:
342,130,195573,1,0,2:0:0:0:
353,147,195663,5,4,0:0:0:0:
284,200,196913,5,0,0:0:0:0:
256,212,197002,1,0,0:0:0:0:
228,200,197091,1,0,0:0:0:0:
284,124,197270,2,0,P|256:100|224:128,1,85
214,136,197508,1,0,0:0:0:0:
200,140,197568,1,0,0:0:0:0:
186,143,197627,1,0,0:0:0:0:
172,139,197687,1,0,0:0:0:0:
159,132,197746,1,0,0:0:0:0:
146,116,197806,5,0,0:0:0:0:
116,110,197895,1,0,0:0:0:0:
87,116,197984,2,0,P|51:135|3:130,1,85
0,144,198222,1,0,0:0:0:0:
8,155,198282,1,0,0:0:0:0:
18,163,198341,1,0,0:0:0:0:
30,170,198401,1,0,0:0:0:0:
43,173,198460,1,0,0:0:0:0:
57,174,198520,6,0,P|146:182|226:137,1,170
401,231,199234,1,0,0:0:0:0:
351,172,199413,1,0,0:0:0:0:
338,96,199591,1,0,0:0:0:0:
213,21,199770,2,0,P|159:98|84:126,1,170
4,9,200306,1,0,0:0:0:0:
77,308,200663,5,0,0:0:0:0:
128,209,200841,2,0,L|175:123,1,85
192,261,201198,1,0,0:0:0:0:
220,270,201288,1,0,0:0:0:0:
249,269,201377,1,0,0:0:0:0:
399,206,201556,1,0,0:0:0:0:
265,153,201734,1,0,0:0:0:0:
380,97,201913,2,0,L|333:102,1,42.5,0|0,0:0|2:0,0:0:0:0:
332,77,202270,2,0,L|285:82,1,42.5,0|0,0:0|2:0,0:0:0:0:
415,20,202448,1,0,0:0:0:0:
180,144,202627,6,0,P|108:120|68:67,1,136
31,169,203163,1,0,0:0:0:0:
103,274,203341,5,0,2:0:0:0:
116,279,203401,1,0,2:0:0:0:
129,281,203460,1,0,2:0:0:0:
143,280,203520,1,0,2:0:0:0:
156,277,203579,1,0,2:0:0:0:
169,272,203639,1,0,2:0:0:0:
180,263,203698,1,0,2:0:0:0:
208,209,203877,5,0,2:0:0:0:
221,205,203937,1,0,2:0:0:0:
235,204,203996,1,0,2:0:0:0:
249,205,204056,1,0,2:0:0:0:
262,209,204115,1,0,2:0:0:0:
298,246,204234,2,0,L|354:230,3,42.5
228,292,204591,6,0,P|148:252|107:181,1,170
122,109,205127,1,0,0:0:0:0:
100,269,205306,1,0,0:0:0:0:
252,211,205484,2,0,P|339:192|392:124,1,170
381,21,206020,2,0,L|321:81,1,85
229,145,206377,1,0,0:0:0:0:
199,150,206466,1,0,0:0:0:0:
169,144,206556,1,0,0:0:0:0:
122,44,206734,1,0,0:0:0:0:
96,58,206823,2,0,L|77:87,4,21.25,0|0|0|0|0,0:0|2:0|2:0|2:0|2:0,2:0:0:0:
82,199,207091,5,0,0:0:0:0:
224,226,207270,1,0,0:0:0:0:
354,164,207448,1,0,0:0:0:0:
178,132,207627,5,0,0:0:0:0:
291,42,207806,1,0,0:0:0:0:
434,53,207984,1,0,0:0:0:0:
456,144,208163,5,0,0:0:0:0:
268,88,208341,1,0,0:0:0:0:
456,144,208520,5,0,0:0:0:0:
348,212,208698,2,0,L|320:167,1,42.5
211,223,208877,2,0,L|217:178,1,42.5
91,155,209056,1,0,0:0:0:0:
256,192,209234,12,0,209770,0:0:0:0:
256,192,209948,5,0,0:0:0:0:
283,93,210127,1,0,0:0:0:0:
152,239,210306,1,0,0:0:0:0:
342,280,210484,1,0,0:0:0:0:
298,106,210663,1,0,0:0:0:0:
298,106,210752,1,0,0:0:0:0:
298,106,210841,1,0,0:0:0:0:
298,106,210931,1,0,0:0:0:0:
298,106,211020,1,0,0:0:0:0:
256,192,211198,1,4,0:0:0:0:
256,192,211377,12,0,214948,2:0:0:0:
