osu file format v14

[General]
AudioFilename: audio.mp3
AudioLeadIn: 0
PreviewTime: 54968
Countdown: 0
SampleSet: Soft
StackLeniency: 0.2
Mode: 0
LetterboxInBreaks: 0
WidescreenStoryboard: 0

[Editor]
DistanceSpacing: 0.8
BeatDivisor: 4
GridSize: 32
TimelineZoom: 3.200001

[Metadata]
Title:MIRACLE WAVE
TitleUnicode:MIRACLE WAVE
Artist:Aqours
ArtistUnicode:Aqours
Creator:_Meep_
Version:m i r a k u r u
Source:
Tags:
BeatmapID:1469752
BeatmapSetID:694768

[Difficulty]
HPDrainRate:7
CircleSize:3
OverallDifficulty:8.5
ApproachRate:9
SliderMultiplier:1.7
SliderTickRate:2

[Events]
//Background and Video events
0,0,"chika.jpg",0,0
//Break Periods
//Storyboard Layer 0 (Background)
//Storyboard Layer 1 (Fail)
//Storyboard Layer 2 (Pass)
//Storyboard Layer 3 (Foreground)
//Storyboard Sound Samples

[TimingPoints]
50,327.868852459016,4,2,0,50,1,0
1443,-100,4,2,0,5,0,0
1525,-100,4,2,0,50,0,0
4804,-133.333333333333,4,2,0,50,0,0
5213,-100,4,2,0,5,0,0
5295,-83.3333333333333,4,2,0,50,0,1
8164,-100,4,2,0,5,0,1
8246,-83.3333333333333,4,2,0,50,0,1
15787,-166.666666666667,4,2,0,50,0,0
18410,-125,4,2,0,50,0,0
20869,-100,4,2,0,50,0,0
35295,-66.6666666666667,4,2,0,50,0,0
39394,-153.846153846153,4,2,0,50,0,0
46853,-153.846153846153,4,2,0,5,0,0
46935,-83.3333333333333,4,2,0,50,0,0
47754,-76.9230769230769,4,2,0,50,0,0
48246,-71.4285714285714,4,2,0,50,0,0
48738,-66.6666666666667,4,2,0,50,0,0
53000,-125,4,2,0,10,0,0
53328,-100,4,2,0,5,0,0
53492,-100,4,2,0,15,0,0
53738,-100,4,2,0,5,0,0
53820,-90.9090909090909,4,2,0,25,0,0
54066,-100,4,2,0,5,0,0
54148,-83.3333333333333,4,2,0,35,0,0
54394,-100,4,2,0,5,0,0
54476,-83.3333333333333,4,2,0,45,0,0
55131,-66.6666666666667,4,2,0,70,0,1
60705,-83.3333333333333,4,2,0,70,0,0
65623,-66.6666666666667,4,2,0,70,0,1
70213,-83.3333333333333,4,2,0,70,0,1
74640,-55.5555555555556,4,2,0,70,0,1
76115,-83.3333333333333,4,2,0,45,0,0
79394,-166.666666666667,4,2,0,45,0,0
80049,-66.6666666666667,4,2,0,45,0,0
80869,-166.666666666667,4,2,0,5,0,0
80869,-166.666666666667,4,2,0,45,0,0
80951,-166.666666666667,4,2,0,5,0,0
81033,-166.666666666667,4,2,0,45,0,0
81115,-166.666666666667,4,2,0,5,0,0
81197,-166.666666666667,4,2,0,45,0,0
81279,-166.666666666667,4,2,0,5,0,0
81361,-166.666666666667,4,2,0,45,0,0
83000,-76.9230769230769,4,2,0,45,0,0
83984,-83.3333333333333,4,2,0,45,0,0
85951,-83.3333333333333,4,2,0,45,0,0

[Colours]
Combo1 : 17,238,133
Combo2 : 255,128,255
Combo3 : 245,116,138
Combo4 : 255,149,98
Combo5 : 70,163,255
Combo6 : 179,242,235

[HitObjects]
101,105,50,5,0,0:0:0:0:
338,84,213,1,0,0:0:0:0:
338,84,1033,6,0,P|372:59|381:44,1,42.5,0|0,0:0|0:0,0:0:0:0:
464,132,1197,2,0,L|452:270,1,127.5,0|0,0:0|0:0,0:0:0:0:
478,338,1525,2,0,L|484:288,2,42.5,0|0|0,0:0|0:0|0:0,0:0:0:0:
292,180,1853,6,0,P|244:170|171:276,1,170,0|0,0:0|0:0,0:0:0:0:
259,338,2345,2,0,L|252:244,1,85,0|0,0:0|0:0,0:0:0:0:
91,137,2672,5,0,0:0:0:0:
362,94,2836,1,0,0:0:0:0:
218,41,3000,1,0,0:0:0:0:
424,13,3164,1,0,0:0:0:0:
436,24,3246,1,0,0:0:0:0:
445,38,3328,2,0,P|461:109|448:148,1,85,0|0,0:0|0:0,0:0:0:0:
362,94,3656,1,0,0:0:0:0:
497,212,3820,6,0,L|493:322,1,85,0|0,0:0|0:0,0:0:0:0:
341,360,4148,6,0,P|318:354|269:354,1,42.5,0|0,0:0|0:0,0:0:0:0:
231,218,4312,6,0,P|210:222|189:223,1,42.5,0|0,0:0|0:0,0:0:0:0:
75,366,4476,5,0,0:0:0:0:
75,366,4804,6,0,B|70:326|70:326|72:327|72:327|68:293|68:293|70:294|70:294|65:259|65:259|68:260|68:260|62:216,1,159.375006079674,0|0,0:0|0:0,0:0:0:0:
77,179,5295,6,0,P|92:232|136:273,1,101.999996887207,0|0,0:0|0:0,0:0:0:0:
239,91,5623,2,0,P|200:130|187:189,1,101.999996887207,0|0,0:0|0:0,0:0:0:0:
396,187,5951,2,0,P|342:173|285:191,1,101.999996887207,0|0,0:0|0:0,0:0:0:0:
391,370,6279,1,0,0:0:0:0:
233,271,6443,1,0,0:0:0:0:
396,187,6607,6,0,L|504:178,1,101.999996887207,0|0,0:0|0:0,0:0:0:0:
257,94,6935,1,0,0:0:0:0:
338,282,7099,2,0,L|446:273,1,101.999996887207,0|0,0:0|0:0,0:0:0:0:
371,98,7427,1,0,0:0:0:0:
199,189,7590,1,0,0:0:0:0:
338,282,7754,1,0,0:0:0:0:
125,124,7918,6,0,B|93:169|109:226|109:226|92:194|37:174,1,152.999995330811,0|0,0:0|0:0,0:0:0:0:
199,189,8246,6,0,P|254:195|336:154,1,101.999996887207,0|0,0:0|0:0,0:0:0:0:
190,56,8574,1,0,0:0:0:0:
183,284,8738,1,0,0:0:0:0:
372,117,8902,1,0,0:0:0:0:
472,351,9066,6,0,L|253:342,1,203.999993774414,0|0,0:0|0:0,0:0:0:0:
95,247,9558,1,0,0:0:0:0:
153,347,9722,1,0,0:0:0:0:
349,258,9886,2,0,P|359:202|331:149,1,101.999996887207,0|0,0:0|0:0,0:0:0:0:
245,97,10131,1,0,0:0:0:0:
227,89,10213,2,0,L|106:119,1,101.999996887207
142,238,10459,1,0,0:0:0:0:
160,246,10541,6,0,L|281:216,1,101.999996887207
454,284,10869,1,0,0:0:0:0:
264,342,11033,1,0,0:0:0:0:
365,201,11197,1,0,0:0:0:0:
374,382,11361,1,0,0:0:0:0:
259,221,11525,1,0,0:0:0:0:
122,332,11689,5,0,0:0:0:0:
41,232,11853,2,0,P|24:155|35:111,1,101.999996887207
169,16,12181,1,0,0:0:0:0:
232,186,12345,2,0,L|124:174,1,101.999996887207
370,63,12672,1,0,0:0:0:0:
229,88,12836,1,0,0:0:0:0:
401,58,13000,5,0,0:0:0:0:
423,77,13082,1,0,0:0:0:0:
440,104,13164,2,0,L|439:234,1,101.999996887207
353,361,13492,1,0,0:0:0:0:
179,335,13656,1,0,0:0:0:0:
353,361,13820,1,0,0:0:0:0:
282,223,13984,2,0,P|278:161|304:112,1,101.999996887207
435,63,14312,6,0,B|362:66|362:66|312:36|312:36|210:39,1,203.999993774414
70,89,14804,2,0,P|121:88|165:113,1,101.999996887207
131,301,15131,5,0,0:0:0:0:
117,279,15212,1,0,0:0:0:0:
107,256,15294,1,0,0:0:0:0:
99,231,15376,1,0,0:0:0:0:
92,202,15459,2,0,P|148:194|220:195,1,101.999996887207
332,210,15787,5,0,0:0:0:0:
332,210,15951,2,0,L|328:263,1,50.9999984436036,0|0,0:0|0:0,0:0:0:0:
371,330,16279,2,0,P|417:323|435:316,1,50.9999984436036,0|0,0:0|0:0,0:0:0:0:
476,261,16607,1,0,0:0:0:0:
476,179,16771,2,0,L|469:106,1,50.9999984436036,0|0,0:0|0:0,0:0:0:0:
459,88,17017,1,0,0:0:0:0:
426,63,17099,2,0,P|367:56|325:78,2,101.999996887207
391,352,18410,6,0,P|350:361|305:352,1,68
212,384,18738,2,0,B|208:316|208:316|229:269,1,102
159,232,19066,2,0,L|131:294,1,68
238,204,19393,1,0,0:0:0:0:
127,151,19558,6,0,B|106:158|89:177|89:177|42:273,1,136
238,204,20049,1,0,0:0:0:0:
159,232,20213,6,0,B|166:253|185:270|185:270|281:317,1,136
238,204,20705,1,0,0:0:0:0:
165,65,20869,6,0,P|89:70|45:180,1,170
242,205,21361,2,0,L|250:120,1,85
165,65,21689,1,0,0:0:0:0:
357,179,21853,2,0,L|348:263,1,85
258,204,22181,6,0,L|250:120,1,85
429,83,22509,1,0,0:0:0:0:
324,29,22672,1,0,0:0:0:0:
340,179,22836,2,0,L|348:263,1,85
498,293,23164,2,0,L|489:208,1,85
429,83,23492,1,0,0:0:0:0:
349,179,23656,6,0,B|269:202|269:202|220:178|204:118,2,170
406,65,24476,1,0,0:0:0:0:
321,93,24640,1,0,0:0:0:0:
433,151,24804,6,0,P|431:214|371:265,1,127.5
349,179,25131,1,0,0:0:0:0:
406,65,25295,1,0,0:0:0:0:
321,93,25459,6,0,L|303:285,1,170
406,65,25951,1,0,0:0:0:0:
257,30,26115,6,0,B|209:21|172:41|172:41|146:84|89:111,1,170
0,77,26607,2,0,P|26:43|59:18,1,85
227,133,26935,2,0,P|195:161|157:180,1,85
113,98,27262,1,0,0:0:0:0:
327,109,27427,6,0,L|437:119,1,85
227,133,27754,1,0,0:0:0:0:
304,7,27918,1,0,0:0:0:0:
503,84,28082,2,0,P|505:148|490:181,1,85
322,191,28410,2,0,P|320:127|335:94,1,85
413,250,28738,1,0,0:0:0:0:
260,275,28902,6,0,P|196:272|137:295,1,127.5
66,343,29230,2,0,P|51:300|59:259,1,85
229,172,29558,1,0,0:0:0:0:
128,186,29722,1,0,0:0:0:0:
249,181,29886,1,0,0:0:0:0:
100,179,30049,6,0,L|110:85,1,85
278,31,30377,1,0,0:0:0:0:
268,189,30541,1,0,0:0:0:0:
198,236,30705,2,0,P|183:193|229:114,1,127.5
256,109,31033,1,0,0:0:0:0:
391,120,31197,1,0,0:0:0:0:
124,95,31361,6,0,P|93:173|109:256,1,170
252,188,31853,2,0,L|235:289,1,85
97,356,32181,2,0,P|53:339|26:309,2,85
237,271,32672,6,0,L|137:285,1,85
321,335,33000,1,0,0:0:0:0:
224,175,33164,1,0,0:0:0:0:
381,173,33328,2,0,P|388:225|370:266,1,85
208,165,33656,2,0,P|201:113|219:72,1,85
359,148,33984,1,0,0:0:0:0:
320,342,34148,5,0,0:0:0:0:
237,271,34312,1,0,0:0:0:0:
431,213,34476,2,0,P|455:143|451:110,1,85
428,50,34722,1,0,0:0:0:0:
410,43,34804,2,0,L|352:113,1,85
355,108,35131,1,0,0:0:0:0:
168,120,35295,6,0,L|210:409,1,255.000009727478,0|0,0:0|0:0,0:0:0:0:
311,299,35705,1,0,0:0:0:0:
325,277,35787,2,0,L|310:200,1,63.7500024318696,0|0,0:0|0:0,0:0:0:0:
388,57,35951,2,0,L|375:119,1,63.7500024318696,0|0,0:0|0:0,0:0:0:0:
278,82,36115,6,0,P|280:22|299:-3,1,63.7500024318696,0|0,0:0|0:0,0:0:0:0:
423,221,36279,2,0,P|473:253|486:281,1,63.7500024318696,0|0,0:0|0:0,0:0:0:0:
230,277,36443,2,0,P|177:304|145:301,1,63.7500024318696,0|0,0:0|0:0,0:0:0:0:
171,178,36607,6,0,L|440:223,1,255.000009727478,0|0,0:0|0:0,0:0:0:0:
95,240,37099,2,0,P|79:152|107:110,1,127.500004863739,0|0,0:0|0:0,0:0:0:0:
308,217,37427,2,0,P|324:305|296:347,2,127.500004863739,0|0|0,0:0|0:0|0:0,0:0:0:0:
153,37,37918,6,0,L|25:44,1,127.500004863739,0|0,0:0|0:0,0:0:0:0:
230,277,38246,1,0,0:0:0:0:
340,27,38410,1,0,0:0:0:0:
92,164,38574,6,0,P|30:148|18:137,1,63.7500024318696,0|0,0:0|0:0,0:0:0:0:
154,220,38738,2,0,P|133:280|128:343,1,127.500004863739,0|0,0:0|0:0,0:0:0:0:
352,14,39066,1,0,0:0:0:0:
352,14,39394,6,0,P|335:74|335:82,1,55.2499974708558,0|0,0:0|0:0,0:0:0:0:
388,144,39722,2,0,P|405:204|405:212,1,55.2499974708558,0|0,0:0|0:0,0:0:0:0:
352,274,40049,2,0,L|286:288,1,55.2499974708558,0|0,0:0|0:0,0:0:0:0:
222,347,40377,1,0,0:0:0:0:
192,199,40541,5,0,0:0:0:0:
222,347,40705,1,0,0:0:0:0:
192,199,40869,1,0,0:0:0:0:
113,325,41033,1,0,0:0:0:0:
49,243,41197,6,0,L|17:215,2,27.6249987354279,0|0|0,0:0|0:0|0:0,0:0:0:0:
222,347,41525,1,0,0:0:0:0:
192,199,41689,1,0,0:0:0:0:
113,325,41853,1,0,0:0:0:0:
297,285,42017,6,0,L|352:274,1,55.2499974708558,0|0,0:0|0:0,0:0:0:0:
404,196,42345,2,0,P|399:169|387:143,1,55.2499974708558,0|0,0:0|0:0,0:0:0:0:
337,81,42590,1,0,0:0:0:0:
337,81,42672,1,0,0:0:0:0:
295,206,42836,1,0,0:0:0:0:
239,202,43000,2,0,L|294:205,1,55.2499974708558
171,121,43328,6,0,L|101:115,1,55.2499974708558
58,56,43574,1,0,0:0:0:0:
58,56,43656,1,0,0:0:0:0:
102,206,43820,1,0,0:0:0:0:
271,127,43984,5,0,0:0:0:0:
64,61,44148,1,0,0:0:0:0:
141,328,44312,1,0,0:0:0:0:
171,121,44476,1,0,0:0:0:0:
19,338,44640,1,0,0:0:0:0:
19,338,45787,5,0,0:0:0:0:
162,275,45951,1,0,0:0:0:0:
162,275,46443,6,0,L|152:226,1,27.6249987354279,0|0,0:0|0:0,0:0:0:0:
237,349,46607,1,0,0:0:0:0:
422,246,46771,6,0,L|425:195,1,27.6249987354279,0|0,0:0|0:0,0:0:0:0:
324,46,46935,1,0,0:0:0:0:
314,56,47016,1,0,0:0:0:0:
305,66,47098,1,0,0:0:0:0:
296,77,47180,1,0,0:0:0:0:
267,50,47263,6,0,L|135:56,1,101.999996887207,0|0,0:0|0:0,0:0:0:0:
414,122,47590,1,0,0:0:0:0:
229,151,47754,6,0,L|97:157,1,110.499994941712,0|0,0:0|0:0,0:0:0:0:
435,130,48081,1,0,0:0:0:0:
180,260,48246,6,0,L|48:266,1,118.999996368408,0|0,0:0|0:0,0:0:0:0:
456,138,48574,1,0,0:0:0:0:
133,379,48738,6,0,L|1:385,1,127.500004863739,0|0,0:0|0:0,0:0:0:0:
476,145,49066,1,0,0:0:0:0:
164,281,49230,6,0,P|101:233|78:146,1,127.500004863739,0|0,0:0|0:0,0:0:0:0:
232,42,49558,2,0,P|208:100|215:163,1,127.500004863739,0|0,0:0|0:0,0:0:0:0:
474,330,49886,5,0,0:0:0:0:
471,298,49967,1,0,0:0:0:0:
469,266,50049,1,0,0:0:0:0:
467,234,50131,1,0,0:0:0:0:
464,202,50213,1,0,0:0:0:0:
324,49,50377,5,0,0:0:0:0:
327,81,50459,1,0,0:0:0:0:
329,113,50541,1,0,0:0:0:0:
331,145,50623,1,0,0:0:0:0:
334,177,50704,1,0,0:0:0:0:
217,352,50869,5,0,0:0:0:0:
214,320,50951,1,0,0:0:0:0:
212,288,51033,1,0,0:0:0:0:
70,187,51197,5,0,0:0:0:0:
212,288,51361,1,0,0:0:0:0:
123,74,51525,1,0,0:0:0:0:
94,367,51689,1,0,0:0:0:0:
123,74,51853,5,0,0:0:0:0:
343,309,52017,1,0,0:0:0:0:
506,54,52181,1,0,0:0:0:0:
46,230,52345,1,0,0:0:0:0:
46,230,53000,6,0,P|74:212|181:263,1,136,0|0,0:0|0:0,0:0:0:0:
277,345,53492,6,0,P|325:314|396:329,1,127.5,0|0,0:0|0:0,0:0:0:0:
264,338,53820,6,0,P|320:303|403:317,1,140.25000428009,0|0,0:0|0:0,0:0:0:0:
253,331,54148,6,0,P|322:290|422:318,1,152.999995330811,0|0,0:0|0:0,0:0:0:0:
511,330,54476,5,0,0:0:0:0:
504,276,54557,5,0,0:0:0:0:
498,222,54639,5,0,0:0:0:0:
491,169,54721,5,0,0:0:0:0:
485,115,54803,5,0,0:0:0:0:
484,114,55131,6,0,L|405:100,1,63.7500024318696,0|0,0:0|0:0,0:0:0:0:
296,31,55295,2,0,L|217:45,1,63.7500024318696
116,137,55459,1,0,0:0:0:0:
97,184,55541,1,0,0:0:0:0:
102,235,55623,1,0,0:0:0:0:
135,273,55705,1,0,0:0:0:0:
184,286,55787,6,0,P|221:271|254:235,1,63.7500024318696
353,160,55951,2,0,P|315:174|282:210,1,63.7500024318696
397,251,56115,1,0,2:0:0:0:
438,221,56197,1,0,2:0:0:0:
458,174,56279,1,0,2:0:0:0:
450,123,56361,1,0,2:0:0:0:
422,79,56443,6,0,L|340:54,1,63.7500024318696,0|0,2:0|2:0,2:0:0:0:
160,54,56607,2,0,L|100:73,1,63.7500024318696,0|0,2:0|2:0,2:0:0:0:
360,165,56771,1,0,0:0:0:0:
192,299,56935,5,0,2:0:0:0:
148,274,57017,1,0,2:0:0:0:
133,226,57099,2,0,P|140:190|167:146,1,63.7500024318696,0|0,2:0|2:0,2:0:0:0:
360,165,57263,2,0,P|373:194|379:226,1,63.7500024318696,0|0,2:0|2:0,2:0:0:0:
173,359,57427,2,0,P|180:323|207:279,1,63.7500024318696,0|0,2:0|2:0,2:0:0:0:
320,298,57590,2,0,P|333:327|339:359,1,63.7500024318696,0|0,2:0|2:0,2:0:0:0:
84,344,57754,5,0,0:0:0:0:
91,294,57835,1,0,0:0:0:0:
113,247,57918,2,0,P|162:203|193:193,1,63.7500024318696
360,165,58082,1,0,0:0:0:0:
30,195,58246,5,0,0:0:0:0:
60,154,58328,1,0,0:0:0:0:
103,127,58410,2,0,P|141:109|198:107,1,63.7500024318696
258,305,58574,2,0,P|226:303|197:293,1,63.7500024318696
299,152,58738,2,0,P|330:154|360:164,1,63.7500024318696
445,339,58902,2,0,P|415:326|391:305,1,63.7500024318696
254,72,59066,5,0,0:0:0:0:
306,64,59148,1,0,0:0:0:0:
357,74,59230,1,0,0:0:0:0:
403,94,59312,1,0,0:0:0:0:
445,124,59394,2,0,P|449:183|436:226,1,63.7500024318696
363,285,59558,6,0,L|369:348,2,63.7500024318696
199,338,59886,6,0,L|206:275,2,63.7500024318696
112,106,60213,5,0,0:0:0:0:
116,133,60295,1,0,0:0:0:0:
123,158,60377,2,0,B|155:192|155:192|207:174|207:174|253:154|255:101,1,191.250007295609
281,10,60705,6,0,P|256:68|261:130,1,101.999996887207,0|0,0:0|0:0,0:0:0:0:
386,185,61033,2,0,L|362:55,1,101.999996887207
268,227,61361,5,0,0:0:0:0:
283,265,61443,1,0,0:0:0:0:
320,289,61525,2,0,B|370:292|370:292|435:267,1,101.999996887207,0|0,0:0|0:0,0:0:0:0:
367,84,61853,1,0,0:0:0:0:
172,188,62017,1,0,0:0:0:0:
386,185,62181,1,0,0:0:0:0:
399,334,62345,6,0,P|329:309|273:320,1,101.999996887207,0|0,0:0|0:0,0:0:0:0:
205,344,62590,1,0,0:0:0:0:
197,347,62672,6,0,P|127:372|71:361,1,101.999996887207,0|0,0:0|0:0,0:0:0:0:
20,306,62918,1,0,0:0:0:0:
14,297,63000,6,0,B|-3:196|-3:196|40:74,1,203.999993774414,0|0,0:0|0:0,0:0:0:0:
225,240,63492,1,0,0:0:0:0:
160,114,63656,1,0,0:0:0:0:
249,252,63820,2,0,L|337:226,1,50.9999984436036,0|0,0:0|0:0,0:0:0:0:
296,37,63984,2,0,L|208:63,1,50.9999984436036,0|0,0:0|0:0,0:0:0:0:
270,266,64148,2,0,L|318:251,1,50.9999984436036,0|0,0:0|0:0,0:0:0:0:
267,19,64312,6,0,L|145:54,1,101.999996887207,0|0,0:0|0:0,0:0:0:0:
412,93,64640,1,0,0:0:0:0:
289,280,64804,2,0,P|339:283|385:263,1,101.999996887207,0|0,0:0|0:0,0:0:0:0:
412,93,65131,1,0,0:0:0:0:
285,119,65295,1,0,0:0:0:0:
150,149,65459,1,0,0:0:0:0:
51,259,65623,6,0,L|40:346,1,63.7500024318696,0|0,0:0|0:0,0:0:0:0:
240,222,65787,2,0,L|251:309,1,63.7500024318696,0|0,0:0|0:0,0:0:0:0:
109,113,65951,2,0,L|98:200,1,63.7500024318696,0|0,0:0|0:0,0:0:0:0:
277,55,66115,2,0,L|288:142,1,63.7500024318696,0|0,0:0|0:0,0:0:0:0:
78,58,66279,5,0,0:0:0:0:
71,108,66360,1,0,0:0:0:0:
65,159,66442,1,0,0:0:0:0:
58,209,66524,1,0,0:0:0:0:
51,259,66607,2,0,P|70:359|73:366,1,63.7500024318696
203,200,66771,2,0,P|184:100|181:93,1,63.7500024318696
173,313,66935,5,0,0:0:0:0:
216,316,67017,1,0,0:0:0:0:
258,306,67099,2,0,P|282:285|309:235,1,63.7500024318696,0|0,0:0|0:0,0:0:0:0:
378,71,67263,1,0,0:0:0:0:
110,180,67427,5,0,0:0:0:0:
104,129,67509,1,0,0:0:0:0:
122,81,67590,2,0,P|147:57|186:47,1,63.7500024318696
95,274,67754,2,0,P|61:264|33:235,1,63.7500024318696
199,150,67918,2,0,L|262:157,1,63.7500024318696
216,342,68082,2,0,L|152:349,1,63.7500024318696
96,182,68246,5,0,0:0:0:0:
97,129,68328,1,0,0:0:0:0:
122,81,68410,2,0,P|147:57|186:47,1,63.7500024318696
378,71,68574,1,0,0:0:0:0:
201,148,68738,5,0,0:0:0:0:
202,201,68820,1,0,0:0:0:0:
227,249,68902,2,0,P|252:273|291:283,1,63.7500024318696
467,194,69066,2,0,L|447:74,1,63.7500024318696
281,7,69230,2,0,L|270:69,1,63.7500024318696
341,367,69394,2,0,P|367:344|380:306,1,63.7500024318696
316,168,69558,6,0,L|152:162,1,127.500004863739
137,159,69805,1,0,0:0:0:0:
86,156,69886,1,0,0:0:0:0:
279,282,70049,2,0,L|24:272,1,255.000009727478
151,384,70541,1,0,0:0:0:0:
188,163,70705,1,0,0:0:0:0:
185,18,70869,6,0,L|163:143,1,101.999996887207
275,273,71197,2,0,L|257:172,1,101.999996887207,0|0,0:0|0:0,0:0:0:0:
167,118,71525,1,0,0:0:0:0:
16,235,71689,2,0,P|24:321|56:358,1,101.999996887207,0|0,0:0|0:0,0:0:0:0:
131,369,72017,6,0,B|186:370|230:356|230:356|232:362|232:362|286:368|348:348,1,203.999993774414,0|0,0:0|0:0,0:0:0:0:
486,212,72509,2,0,P|421:225|372:216,1,101.999996887207,0|0,0:0|0:0,0:0:0:0:
281,104,72836,2,0,L|288:45,2,50.9999984436036,0|0|0,0:0|0:0|0:0,0:0:0:0:
99,147,73164,2,0,L|92:88,1,50.9999984436036,0|0,0:0|0:0,0:0:0:0:
201,169,73328,2,0,L|194:219,1,50.9999984436036,0|0,0:0|0:0,0:0:0:0:
79,271,73492,5,0,0:0:0:0:
132,255,73574,1,0,0:0:0:0:
188,257,73656,1,0,0:0:0:0:
241,274,73738,1,0,0:0:0:0:
284,300,73820,2,0,P|304:333|317:369,1,50.9999984436036,0|0,0:0|0:0,0:0:0:0:
446,343,73984,5,0,0:0:0:0:
450,292,74066,1,0,0:0:0:0:
453,241,74148,1,0,0:0:0:0:
456,190,74230,1,0,0:0:0:0:
460,139,74312,2,0,L|467:58,1,50.9999984436036,0|0,0:0|0:0,0:0:0:0:
240,21,74476,2,0,L|244:71,1,50.9999984436036,0|0,0:0|0:0,0:0:0:0:
401,366,74640,6,0,L|422:40,1,305.999990661621,0|0,0:0|0:0,0:0:0:0:
56,107,75131,1,0,0:0:0:0:
365,309,75295,1,0,0:0:0:0:
240,21,75459,1,0,0:0:0:0:
152,323,75623,1,0,0:0:0:0:
330,71,75787,1,0,0:0:0:0:
268,316,75951,1,0,0:0:0:0:
121,209,76115,6,0,P|105:150|117:82,1,101.999996887207,0|0,0:0|0:0,0:0:0:0:
330,71,76443,1,0,0:0:0:0:
231,142,76607,1,0,0:0:0:0:
341,204,76771,2,0,L|475:179,2,101.999996887207,0|0|0,0:0|0:0|0:0,0:0:0:0:
231,142,77263,1,0,0:0:0:0:
120,209,77427,6,0,P|117:259|132:308,1,101.999996887207,0|0,0:0|0:0,0:0:0:0:
341,204,77754,1,0,0:0:0:0:
108,109,77918,1,0,0:0:0:0:
73,102,78000,1,0,0:0:0:0:
34,116,78082,2,0,L|20:246,1,101.999996887207,0|0,0:0|0:0,0:0:0:0:
221,350,78410,2,0,L|231:248,1,101.999996887207,0|0,0:0|0:0,0:0:0:0:
163,52,78738,5,0,0:0:0:0:
124,285,78902,1,0,0:0:0:0:
238,147,79066,5,0,0:0:0:0:
84,303,79394,5,0,0:0:0:0:
415,236,79558,1,0,0:0:0:0:
237,147,79722,6,0,L|230:233,1,76.4999976654053,0|0,0:0|0:0,0:0:0:0:
260,311,80049,6,0,L|271:136,1,127.500004863739,0|0,0:0|0:0,0:0:0:0:
113,127,80377,1,0,0:0:0:0:
331,111,80541,2,0,P|361:165|354:227,1,127.500004863739,0|0,0:0|0:0,0:0:0:0:
243,354,80869,6,0,L|246:326,1,25.4999992218018,0|0,0:0|0:0,0:0:0:0:
157,362,81033,6,0,L|160:334,1,25.4999992218018,0|0,0:0|0:0,0:0:0:0:
71,370,81197,6,0,L|74:342,1,25.4999992218018,0|0,0:0|0:0,0:0:0:0:
22,240,81361,5,0,0:0:0:0:
147,48,81525,1,0,0:0:0:0:
300,178,81689,1,0,0:0:0:0:
71,164,81853,1,0,0:0:0:0:
321,69,82017,5,0,0:0:0:0:
120,253,82181,1,0,0:0:0:0:
224,25,82345,2,0,L|234:63,1,25.4999992218018,0|0,0:0|0:0,0:0:0:0:
309,292,82509,1,0,0:0:0:0:
402,108,82672,1,0,0:0:0:0:
402,108,83000,6,0,P|403:176|376:123,1,165.749992412568,0|0,0:0|0:0,0:0:0:0:
485,49,83328,2,0,P|524:118|522:167,1,110.499994941712,0|0,0:0|0:0,0:0:0:0:
391,327,83656,1,0,0:0:0:0:
353,302,83737,1,0,0:0:0:0:
309,294,83819,1,0,0:0:0:0:
265,302,83901,1,0,0:0:0:0:
228,327,83984,6,0,P|162:344|112:341,1,101.999996887207,0|0,0:0|0:0,0:0:0:0:
42,276,84230,1,0,0:0:0:0:
38,267,84312,2,0,L|48:134,1,101.999996887207,0|0,0:0|0:0,0:0:0:0:
242,98,84640,1,0,0:0:0:0:
139,210,84804,1,0,0:0:0:0:
150,18,84968,1,0,0:0:0:0:
322,54,85131,6,0,P|333:112|309:162,1,101.999996887207,0|0,0:0|0:0,0:0:0:0:
139,210,85459,1,0,0:0:0:0:
242,98,85623,1,0,0:0:0:0:
150,18,85787,1,0,0:0:0:0:
30,35,85951,6,0,L|20:146,3,101.999996887207,0|0|0|0,0:0|0:0|0:0|0:0,0:0:0:0:
81,298,86607,6,0,P|171:355|182:358,1,101.999996887207,0|0,0:0|0:0,0:0:0:0:
366,307,86935,1,0,0:0:0:0:
389,284,87263,2,0,L|404:159,1,101.999996887207,0|0,0:0|0:0,0:0:0:0:
412,66,87590,1,0,0:0:0:0:
242,30,87754,2,0,P|181:39|137:66,1,101.999996887207,0|0,0:0|0:0,0:0:0:0:
244,218,88082,5,0,0:0:0:0:
309,144,88246,1,0,0:0:0:0:
220,127,88410,1,0,0:0:0:0:
338,238,88574,2,0,L|460:213,1,101.999996887207,0|0,0:0|0:0,0:0:0:0:
180,293,88902,2,0,L|58:268,1,101.999996887207,0|0,0:0|0:0,0:0:0:0:
290,73,89230,6,0,P|314:181|294:251,1,152.999995330811,0|0,0:0|0:0,0:0:0:0:
338,237,89558,2,0,P|388:212|460:212,1,101.999996887207,0|0,0:0|0:0,0:0:0:0:
261,334,89886,1,0,0:0:0:0:
154,164,90049,1,0,0:0:0:0:
338,237,90213,1,0,0:0:0:0:
95,294,90377,6,0,L|-24:249,1,101.999996887207,0|0,0:0|0:0,0:0:0:0:
182,161,90705,1,0,0:0:0:0:
365,237,90869,1,0,0:0:0:0:
114,327,91033,1,0,0:0:0:0:
262,232,91197,1,0,0:0:0:0:
96,192,91361,1,0,0:0:0:0:
216,102,91525,1,0,0:0:0:0:
203,366,91689,1,0,0:0:0:0:
404,197,91853,5,0,0:0:0:0:
131,271,92017,1,0,0:0:0:0:
411,286,92181,5,0,0:0:0:0:
91,202,92345,1,0,0:0:0:0:
396,113,92509,5,0,0:0:0:0:
187,334,92672,1,0,0:0:0:0:
95,121,92836,5,0,0:0:0:0:
408,379,93000,1,0,0:0:0:0:
176,62,93164,5,0,0:0:0:0:
319,384,93328,1,0,0:0:0:0:
274,77,93492,5,0,0:0:0:0:
187,334,93656,1,0,0:0:0:0:
344,136,93820,5,0,0:0:0:0:
110,280,93984,1,0,0:0:0:0:
368,234,94148,5,0,0:0:0:0:
95,121,94312,1,0,0:0:0:0:
187,333,94476,6,0,L|304:319,1,101.999996887207,0|0,0:0|0:0,0:0:0:0:
218,170,94804,1,0,0:0:0:0:
135,360,94968,6,0,L|365:332,1,203.999993774414,0|0,0:0|0:0,0:0:0:0:
215,145,95459,1,0,0:0:0:0:
144,230,95623,6,0,P|204:260|317:186,1,203.999993774414,0|0,0:0|0:0,0:0:0:0:
213,124,96115,1,0,0:0:0:0:
313,198,96279,6,0,P|365:227|407:229,1,101.999996887207,0|0,0:0|0:0,0:0:0:0:
463,56,96607,2,0,P|411:86|389:121,1,101.999996887207,0|0,0:0|0:0,0:0:0:0:
378,343,96935,1,0,0:0:0:0:
