osu file format v14

[General]
AudioFilename: audio.mp3
AudioLeadIn: 0
PreviewTime: 55426
Countdown: 0
SampleSet: Soft
StackLeniency: 0.4
Mode: 0
LetterboxInBreaks: 0
WidescreenStoryboard: 0

[Editor]
DistanceSpacing: 1.1
BeatDivisor: 4
GridSize: 4
TimelineZoom: 2.2

[Metadata]
Title:MIRACLE WAVE (TV Size)
TitleUnicode:MIRACLE WAVE (TV Size)
Artist:Aqours
ArtistUnicode:Aqours
Creator:Cris-
Version:Wolf's Expert
Source:Love Live! Sunshine!!
Tags:amb1d3x Hishiro Chizuru Hazu- Tatan wolf3211 Phyloukz LoveLive! ラブライブ!サンシャイン!! School Idol Project Season 2 Takami Chika 高海千歌 Inami Anju 伊波杏樹 Sakurauchi Riko 桜内梨子 Aida Rikako 逢田梨香子 Watanabe You 渡辺 曜 Saito Shuka 斉藤朱夏 Matsuura Kanan 松浦果南 Suwa Nanaka 諏訪ななか Kurosawa Dia 黒澤ダイヤ Komiya Arisa 小林愛香 Ohara Mari 小原鞠莉 Suzuki Aina 鈴木愛奈 Tsushima Yoshiko 津島善子 Kobayashi Aika 小林愛香 Kunikida Hanamaru 国木田花丸 Takatsuki Kanako 高槻かなこ Kurosawa Ruby 黒澤ルビィ Furihata Ai 降幡 愛 Sunrise Anime Japanese
BeatmapID:1710339
BeatmapSetID:792461

[Difficulty]
HPDrainRate:5.5
CircleSize:4
OverallDifficulty:8
ApproachRate:9.1
SliderMultiplier:1.7
SliderTickRate:1

[Events]
//Background and Video events
Video,-180,"MIRACLE WAVE.mp4"
0,0,"Sunshine.jpg",0,0
//Break Periods
//Storyboard Layer 0 (Background)
//Storyboard Layer 1 (Fail)
//Storyboard Layer 2 (Pass)
//Storyboard Layer 3 (Foreground)
//Storyboard Sound Samples

[TimingPoints]
427,327.868852459016,4,2,1,65,1,0
2967,-100,4,2,1,5,0,0
3049,-100,4,2,1,65,0,0
5181,-200,4,2,1,35,0,0
5508,-200,4,2,1,45,0,0
5590,-200,4,2,1,5,0,0
5672,-100,4,2,1,70,0,0
16082,-100,4,2,1,5,0,0
16164,-133.333333333333,4,2,10,50,0,0
17722,-133.333333333333,4,2,10,5,0,0
17804,-133.333333333333,4,2,10,40,0,0
18049,-133.333333333333,4,2,10,5,0,0
18131,-133.333333333333,4,2,10,40,0,0
18705,-133.333333333333,4,2,10,5,0,0
18787,-111.111111111111,4,2,1,60,0,0
21246,-100,4,2,1,60,0,0
21984,-100,4,2,1,5,0,0
22066,-100,4,2,1,60,0,0
24033,-111.111111111111,4,2,1,60,0,0
26492,-100,4,2,1,60,0,0
27230,-100,4,2,1,5,0,0
27312,-100,4,2,1,60,0,0
32476,-100,4,2,1,5,0,0
32558,-100,4,2,1,60,0,0
37722,-100,4,2,1,5,0,0
37804,-100,4,2,1,60,0,0
39525,-100,4,2,1,40,0,0
39771,-133.333333333333,4,2,1,65,0,0
44935,-133.333333333333,4,2,1,5,0,0
45017,-100,4,2,1,65,0,0
47640,-90.9090909090909,4,2,1,65,0,0
48131,-83.3333333333333,4,2,1,65,0,0
48623,-76.9230769230769,4,2,1,65,0,0
49115,-71.4285714285714,4,2,1,65,0,0
49853,-71.4285714285714,4,2,1,5,0,0
49935,-71.4285714285714,4,2,1,65,0,0
50181,-71.4285714285714,4,2,1,5,0,0
50263,-100,4,2,1,70,0,0
52722,-133.333333333333,4,2,1,70,0,0
53049,-142.857142857143,4,2,1,5,0,0
53377,-142.857142857143,4,2,1,15,0,0
53705,-142.857142857143,4,2,1,25,0,0
54033,-142.857142857143,4,2,1,35,0,0
54361,-142.857142857143,4,2,1,45,0,0
54689,-142.857142857143,4,2,1,55,0,0
54771,-142.857142857143,4,2,1,5,0,0
54853,-100,4,2,10,50,0,0
55508,-100,4,2,1,80,0,1
57148,-83.3333333333333,4,2,1,80,0,1
57476,-100,4,2,1,80,0,1
58459,-83.3333333333333,4,2,1,80,0,1
58787,-100,4,2,1,80,0,1
65672,-100,4,2,1,75,0,0
66000,-100,4,2,1,80,0,1
67640,-83.3333333333333,4,2,1,80,0,1
67967,-100,4,2,1,80,0,1
68951,-83.3333333333333,4,2,1,80,0,1
69279,-100,4,2,1,80,0,1
74607,-100,4,2,1,5,0,1
74689,-100,4,2,1,80,0,1
74935,-100,4,2,1,5,0,1
75017,-100,4,2,1,80,0,1
76492,-100,4,2,1,70,0,0
79689,-100,4,2,1,5,0,0
79771,-100,4,2,1,70,0,0
80345,-100,4,2,1,5,0,0
80426,-100,4,2,1,70,0,0
83951,-100,4,2,1,5,0,0
84033,-100,4,2,1,70,0,0
84279,-100,4,2,1,5,0,0
84361,-83.3333333333333,4,2,1,80,0,1
84689,-100,4,2,1,75,0,0
88459,-100,4,2,10,75,0,0
89115,-100,4,2,1,75,0,0
89525,-100,4,2,1,5,0,0
89607,-100,4,2,1,75,0,0
97312,-83.3333333333333,4,2,1,75,0,0

[Colours]
Combo1 : 250,41,120
Combo2 : 255,131,6
Combo3 : 254,33,38
Combo4 : 248,143,226

[HitObjects]
130,65,427,5,8,0:0:0:0:
322,49,590,1,8,0:0:0:0:
280,41,1410,6,0,P|296:47|328:47,1,42.5,2|2,0:3|0:3,0:0:0:0:
396,72,1574,6,0,B|372:56|362:26|362:26|380:88|348:144,1,170,12|8,0:0|0:0,0:0:0:0:
344,164,1984,1,8,0:0:0:0:
344,164,2066,1,2,0:0:0:0:
239,295,2230,6,0,P|191:231|255:203,1,170,6|2,0:0|0:0,0:0:0:0:
259,74,2722,2,0,L|251:218,1,127.5,8|0,0:0|0:0,0:0:0:0:
239,295,3049,5,12,0:0:0:0:
431,279,3212,1,12,0:0:0:0:
344,367,3377,5,8,0:3:0:0:
239,295,3541,1,2,0:0:0:0:
211,285,3622,1,2,0:0:0:0:
183,277,3704,1,2,0:0:0:0:
155,281,3786,1,2,0:0:0:0:
127,285,3868,1,2,0:0:0:0:
99,289,3950,1,2,0:0:0:0:
72,287,4032,5,8,0:0:0:0:
0,104,4197,2,0,B|48:88|48:88|120:104|120:104|168:96,1,170,6|8,0:0|0:0,0:0:0:0:
232,52,4607,5,8,0:0:0:0:
232,52,4689,2,0,P|240:68|244:92,1,42.5,8|8,0:0|0:0,0:0:0:0:
260,164,4852,1,2,0:0:0:0:
268,269,5181,6,2,L|260:164,1,106.25,0|0,0:0|0:0,0:0:0:0:
372,104,5672,6,0,P|372:149|383:193,1,85,6|0,0:0|0:0,0:0:0:0:
278,353,6000,2,0,P|278:308|267:264,1,85,8|2,0:0|0:0,0:0:0:0:
186,126,6328,1,8,0:0:0:0:
131,348,6492,1,2,0:0:0:0:
47,209,6656,1,8,0:0:0:0:
268,269,6820,1,10,0:1:0:0:
50,292,6984,6,0,B|43:268|43:268|47:208,1,85,8|2,0:0|0:0,0:0:0:0:
52,36,7312,1,8,0:0:0:0:
232,176,7476,2,0,L|320:172,1,85,10|8,0:1|0:0,0:0:0:0:
152,100,7804,1,10,0:1:0:0:
128,264,7967,1,8,0:0:0:0:
276,88,8131,1,10,0:1:0:0:
412,288,8295,6,0,P|456:224|416:140,1,170,8|8,0:0|0:0,0:0:0:0:
276,88,8787,1,10,0:1:0:0:
211,264,8951,2,0,B|187:256|187:256|123:264,1,85,8|10,0:0|0:1,0:0:0:0:
0,280,9279,1,8,0:0:0:0:
64,128,9443,1,2,0:0:0:0:
184,340,9607,6,0,P|248:336|280:224,1,170,8|8,0:0|0:0,0:0:0:0:
276,88,10099,1,2,0:0:0:0:
211,264,10263,1,2,0:0:0:0:
392,236,10426,5,8,0:0:0:0:
396,268,10508,1,8,0:0:0:0:
400,300,10590,1,8,0:0:0:0:
211,264,10754,1,8,0:0:0:0:
208,232,10836,1,8,0:0:0:0:
204,200,10918,6,0,P|169:192|113:192,1,85,4|0,0:0|0:0,0:0:0:0:
0,36,11246,2,0,P|35:44|91:44,1,85,8|2,0:0|0:0,0:0:0:0:
248,8,11574,1,8,0:0:0:0:
204,200,11738,1,2,0:0:0:0:
360,148,11902,1,8,0:0:0:0:
168,88,12066,1,10,0:1:0:0:
136,300,12230,6,0,B|164:292|164:292|224:300,1,85,8|2,0:0|0:0,0:0:0:0:
376,336,12558,1,8,0:0:0:0:
360,148,12722,2,0,B|336:156|336:156|276:148,1,85,10|8,0:1|0:0,0:0:0:0:
92,112,13049,1,10,0:1:0:0:
256,20,13213,1,8,0:0:0:0:
176,216,13377,1,10,0:1:0:0:
88,32,13541,6,0,P|20:76|40:172,1,170,12|8,0:0|0:0,0:0:0:0:
176,216,14033,1,10,0:1:0:0:
360,148,14197,2,0,P|356:180|360:236,1,85,8|10,0:0|0:1,0:0:0:0:
440,344,14525,1,8,0:0:0:0:
504,188,14689,1,2,0:0:0:0:
340,332,14853,6,0,P|300:328|164:324,1,170,8|8,0:0|0:0,0:0:0:0:
28,256,15345,1,2,0:0:0:0:
116,84,15508,1,8,0:0:0:0:
146,112,15589,1,8,0:0:0:0:
187,119,15671,1,8,0:0:0:0:
226,103,15753,1,8,0:0:0:0:
250,69,15836,2,0,P|314:61|358:121,1,127.5,2|0,0:0|0:0,0:0:0:0:
376,172,16164,6,0,P|368:204|368:236,1,63.7500024318696,6|0,0:0|0:0,0:0:0:0:
444,336,16492,1,0,0:0:0:0:
477,214,16656,6,0,P|433:166|365:178,1,127.500004863739,2|0,0:0|0:0,0:0:0:0:
268,244,17148,1,2,0:0:0:0:
152,196,17312,1,2,0:0:0:0:
152,196,17394,1,2,0:0:0:0:
152,196,17476,6,0,P|160:136|144:84,1,95.6250036478044,10|0,0:0|0:0,0:0:0:0:
140,64,17804,2,0,P|200:72|252:56,1,95.6250036478044,2|0,0:0|0:0,0:0:0:0:
304,44,18131,2,0,B|352:56|384:32|384:32|328:96|382:156,1,223.125008511544,2|0,0:0|0:0,0:0:0:0:
435,96,18787,6,0,P|463:168|415:231,1,152.999995330811,6|8,0:0|0:0,0:0:0:0:
424,226,19443,1,2,0:0:0:0:
460,354,19607,1,2,0:0:0:0:
331,322,19771,1,8,0:0:0:0:
208,357,19935,6,0,P|172:349|132:349,1,76.4999976654053,2|0,0:0|0:0,0:0:0:0:
84,229,20263,2,0,P|122:229|159:220,1,76.4999976654053,2|8,0:0|0:0,0:0:0:0:
252,116,20590,2,0,P|296:88|372:156,1,152.999995330811,2|2,0:0|0:0,0:0:0:0:
408,264,21082,1,8,0:0:0:0:
512,140,21246,6,0,B|496:28|496:28|492:64|472:84,1,170,6|2,0:0|0:0,0:0:0:0:
252,116,21738,2,0,B|200:132|200:132|116:116,1,127.5,8|0,0:0|0:0,0:0:0:0:
92,108,22066,1,2,0:0:0:0:
124,304,22230,1,2,0:0:0:0:
272,232,22394,1,8,0:0:0:0:
444,344,22558,6,0,L|436:172,1,170,2|2,0:0|0:0,0:0:0:0:
496,28,23049,1,8,0:0:0:0:
308,64,23213,1,2,0:0:0:0:
308,64,23295,1,8,0:0:0:0:
308,64,23377,1,2,0:0:0:0:
436,174,23541,1,2,0:0:0:0:
336,320,23705,2,0,L|248:312,1,85,8|0,0:0|0:0,0:0:0:0:
39,251,24033,6,0,B|119:219|111:275|191:243,1,152.999995330811,6|8,0:0|0:0,0:0:0:0:
188,245,24689,1,2,0:0:0:0:
148,120,24853,1,2,0:0:0:0:
275,143,25017,1,8,0:0:0:0:
220,24,25181,6,0,L|300:28,1,76.4999976654053,2|0,0:0|0:0,0:0:0:0:
352,140,25508,2,0,L|272:144,1,76.4999976654053,2|8,0:0|0:0,0:0:0:0:
188,245,25836,1,2,0:0:0:0:
188,245,25918,1,8,0:0:0:0:
188,245,26000,2,0,B|192:272|192:272|184:324,1,76.4999976654053,2|2,0:0|0:0,0:0:0:0:
64,368,26328,1,8,0:0:0:0:
7,184,26492,6,0,B|39:176|51:144|51:144|39:260,1,170,6|2,0:0|0:0,0:0:0:0:
253,323,26984,2,0,L|260:195,1,127.5,8|0,0:0|0:0,0:0:0:0:
264,156,27312,1,2,0:0:0:0:
452,208,27476,1,2,0:0:0:0:
424,44,27640,1,8,0:0:0:0:
328,240,27804,6,0,P|248:276|184:220,1,170,2|2,0:0|0:0,0:0:0:0:
200,68,28295,1,8,0:0:0:0:
20,172,28459,1,2,0:0:0:0:
20,172,28541,1,8,0:0:0:0:
20,172,28623,1,2,0:0:0:0:
56,8,28787,1,2,0:0:0:0:
156,144,28951,2,0,P|200:156|248:140,1,85,8|0,0:0|0:0,0:0:0:0:
401,10,29279,6,0,L|393:182,1,170,6|8,0:0|0:0,0:0:0:0:
393,179,29935,1,2,0:0:0:0:
237,146,30099,1,2,0:0:0:0:
284,300,30263,1,8,0:0:0:0:
136,256,30426,6,0,L|51:250,1,85,2|0,0:0|0:0,0:0:0:0:
0,104,30754,2,0,L|85:98,1,85,2|8,0:0|0:0,0:0:0:0:
217,12,31082,2,0,P|268:62|228:150,1,170,2|2,0:0|0:0,0:0:0:0:
84,98,31574,1,8,0:0:0:0:
72,304,31738,6,0,B|160:264|144:336|240:296,1,170,6|2,0:0|0:0,0:0:0:0:
388,172,32230,2,0,L|376:332,1,127.5,8|0,0:0|0:0,0:0:0:0:
376,336,32558,1,2,0:0:0:0:
508,188,32722,1,2,0:0:0:0:
380,80,32886,1,8,0:0:0:0:
160,148,33049,6,0,P|136:88|224:80,1,170,2|2,0:0|0:0,0:0:0:0:
356,164,33541,1,8,0:0:0:0:
180,268,33705,2,0,P|124:256|88:268,1,85,2|0,0:0|0:0,0:0:0:0:
280,336,34033,2,0,P|336:348|372:336,1,85,2|8,0:0|0:0,0:0:0:0:
464,252,34361,1,2,0:0:0:0:
272,220,34525,5,6,0:0:0:0:
136,332,34689,1,0,0:0:0:0:
220,152,34853,1,8,0:0:0:0:
392,244,35017,1,2,0:0:0:0:
428,248,35099,1,2,0:0:0:0:
464,252,35181,1,2,0:0:0:0:
508,64,35345,2,0,B|484:52|484:52|424:60,1,85,2|8,0:0|0:0,0:0:0:0:
188,36,35672,6,0,L|196:212,1,170,2|2,0:0|0:0,0:0:0:0:
76,352,36164,1,8,0:0:0:0:
4,184,36328,1,2,0:0:0:0:
8,220,36410,1,2,0:0:0:0:
12,260,36492,1,2,0:0:0:0:
198,290,36656,2,0,L|195:193,1,85,2|8,0:0|0:0,0:0:0:0:
388,80,36984,6,0,P|444:100|428:204,1,170,6|2,0:0|0:0,0:0:0:0:
292,328,37476,2,0,B|300:288|300:288|288:200,1,127.5,8|0,0:0|0:0,0:0:0:0:
284,164,37804,1,2,0:0:0:0:
132,284,37967,1,2,0:0:0:0:
292,328,38131,1,8,0:0:0:0:
88,352,38295,6,0,P|52:284|104:208,1,170,6|2,0:0|0:0,0:0:0:0:
256,120,38787,1,8,0:0:0:0:
80,20,38951,2,0,B|92:48|92:48|88:108,1,85,0|2,0:0|0:0,0:0:0:0:
132,284,39279,1,2,0:0:0:0:
288,202,39443,2,0,P|312:198|332:202,3,42.5,8|2|2|2,0:0|0:0|0:0|0:0,0:0:0:0:
400,236,39771,6,0,P|376:180|408:116,1,127.500004863739,6|2,0:0|0:0,0:0:0:0:
472,16,40263,2,0,P|428:24|408:24,1,63.7500024318696,2|2,0:3|0:0,0:0:0:0:
292,72,40590,2,0,P|260:65|229:63,1,63.7500024318696,2|2,0:3|0:0,0:0:0:0:
72,108,40918,1,8,0:0:0:0:
132,284,41082,6,0,L|204:280,1,63.7500024318696,2|8,0:0|0:0,0:0:0:0:
320,228,41410,2,0,L|392:232,1,63.7500024318696,2|2,0:0|0:0,0:0:0:0:
420,240,41656,1,2,0:0:0:0:
420,240,41738,2,0,P|440:304|416:360,1,127.500004863739,2|8,0:0|0:3,0:0:0:0:
196,344,42394,6,0,P|200:316|192:272,1,63.7500024318696,6|0,0:0|0:0,0:0:0:0:
112,180,42722,2,0,P|108:152|116:108,1,63.7500024318696,2|2,0:0|0:0,0:0:0:0:
132,88,42967,1,2,0:0:0:0:
132,88,43049,1,2,0:0:0:0:
248,152,43213,1,8,0:0:0:0:
196,280,43377,1,2,0:0:0:0:
320,340,43541,1,2,0:0:0:0:
420,240,43705,6,0,P|416:216|420:172,1,63.7500024318696,6|8,0:0|0:0,0:0:0:0:
436,144,43951,1,8,0:0:0:0:
436,144,44033,1,2,0:0:0:0:
332,32,44197,1,2,0:0:0:0:
332,32,44279,1,2,0:0:0:0:
332,32,44361,6,0,P|335:63|330:95,1,63.7500024318696,8|2,0:3|0:0,0:0:0:0:
208,208,44689,2,0,P|184:164|200:104,1,95.6250036478044,8|0,0:0|0:0,0:0:0:0:
240,60,45017,5,6,0:0:0:0:
240,60,46164,5,2,0:0:0:0:
28,124,46328,1,4,0:0:0:0:
35,131,46820,5,0,0:0:0:0:
35,131,46902,1,0,0:0:0:0:
35,131,46984,1,0,0:0:0:0:
200,152,47148,5,2,0:0:0:0:
204,180,47230,1,2,0:0:0:0:
208,208,47312,5,8,0:0:0:0:
264,372,47476,1,2,0:0:0:0:
392,228,47640,6,0,P|440:204|432:296,1,187.000005706787,8|2,0:0|0:0,0:0:0:0:
264,372,48131,6,0,B|304:340|304:340|232:356|232:356|152:340,1,203.999993774414,8|2,0:0|0:0,0:0:0:0:
64,168,48623,6,0,B|9:137|17:73|17:73|73:81|105:129,1,220.999989883423,8|2,0:0|0:0,0:0:0:0:
300,80,49115,6,0,B|316:32|292:-24|208:12|244:84|244:84|264:120|244:160,1,237.999992736817,8|2,0:0|0:0,0:0:0:0:
392,228,49607,6,0,P|352:176|440:148,1,178.499994552612,8|0,0:0|0:0,0:0:0:0:
504,172,49935,6,0,B|485:303|485:303|485:287|459:253,1,178.499994552612,8|0,0:0|0:0,0:0:0:0:
400,308,50263,5,8,0:0:0:0:
400,308,50345,1,8,0:0:0:0:
400,308,50426,2,0,B|368:304|368:304|312:316,1,85,2|2,0:0|0:0,0:0:0:0:
196,208,50754,5,8,0:0:0:0:
196,208,50836,1,8,0:0:0:0:
196,208,50918,2,0,B|228:212|228:212|284:200,1,85,2|2,0:0|0:0,0:0:0:0:
312,44,51247,5,8,0:0:0:0:
312,44,51329,1,8,0:0:0:0:
312,44,51410,2,0,B|280:40|280:40|224:52,1,85,2|2,0:0|0:0,0:0:0:0:
20,116,51738,5,8,0:0:0:0:
128,32,51902,1,8,0:0:0:0:
76,256,52066,1,8,0:0:0:0:
224,163,52230,5,8,0:0:0:0:
20,116,52394,1,8,0:0:0:0:
168,248,52558,1,8,0:0:0:0:
152,64,52722,6,0,B|120:40|64:16|-40:40|-24:144|-16:208|64:232|152:224|200:192|224:152|220:36|252:44|328:72|424:56|416:172|392:228|328:240|280:252|228:212|224:156,1,796.87503039837,12|0,0:0|0:0,0:0:0:0:
225,164,54853,6,0,L|219:206,4,42.5,2|2|2|2|2,0:0|0:0|0:0|0:0|0:0,0:0:0:0:
135,209,55508,6,0,B|159:202|159:202|219:206,1,85,14|8,0:1|0:0,0:0:0:0:
392,96,55836,2,0,B|368:103|368:103|308:99,1,85,2|8,0:0|0:0,0:0:0:0:
120,48,56164,1,2,0:0:0:0:
135,209,56328,1,8,0:0:0:0:
0,160,56492,1,2,0:0:0:0:
0,160,56574,1,2,0:0:0:0:
0,160,56656,1,8,0:0:0:0:
131,293,56820,6,0,L|135:197,1,85,14|8,0:1|0:0,0:0:0:0:
20,54,57148,2,0,B|52:46|52:46|92:54|92:54|124:46,1,101.999996887207,2|8,0:0|0:0,0:0:0:0:
280,24,57476,1,2,0:0:0:0:
316,188,57640,1,8,0:0:0:0:
484,96,57804,2,0,P|440:84|392:104,1,85,2|8,0:0|0:0,0:0:0:0:
404,280,58131,6,0,P|448:292|496:272,1,85,14|8,0:1|0:0,0:0:0:0:
316,188,58459,2,0,B|284:180|284:180|244:188|244:188|212:180,1,101.999996887207,2|8,0:0|0:0,0:0:0:0:
44,76,58787,1,2,0:0:0:0:
84,236,58951,1,8,0:0:0:0:
208,84,59115,1,2,0:0:0:0:
208,84,59197,1,2,0:0:0:0:
208,84,59279,1,8,0:0:0:0:
280,260,59443,6,0,L|272:348,1,85,14|8,0:1|0:0,0:0:0:0:
84,236,59771,2,0,L|92:324,1,85,14|8,0:1|0:0,0:0:0:0:
100,348,60017,1,8,0:0:0:0:
100,348,60099,1,14,0:1:0:0:
288,268,60263,1,8,0:0:0:0:
288,268,60345,1,8,0:0:0:0:
288,268,60426,1,14,0:1:0:0:
136,144,60590,1,8,0:0:0:0:
124,116,60672,1,8,0:0:0:0:
112,88,60754,6,0,B|136:95|136:95|196:91,1,85,14|8,0:1|0:0,0:0:0:0:
356,76,61082,1,2,0:0:0:0:
208,200,61246,1,8,0:0:0:0:
372,312,61410,2,0,P|388:272|376:232,1,85,2|8,0:0|0:0,0:0:0:0:
208,328,61738,1,2,0:0:0:0:
208,328,61820,1,2,0:0:0:0:
208,328,61902,6,0,P|128:332|84:256,1,170,12|8,0:0|0:0,0:0:0:0:
64,136,62394,1,2,0:0:0:0:
164,260,62558,1,8,0:0:0:0:
216,72,62722,1,2,0:0:0:0:
216,72,62804,1,2,0:0:0:0:
216,72,62886,1,8,0:0:0:0:
352,156,63049,2,0,L|400:148,3,42.5,2|2|8|8,0:0|0:0|0:0|0:0,0:0:0:0:
468,136,63377,6,0,B|475:160|475:160|471:220,1,85,14|8,0:1|0:0,0:0:0:0:
364,352,63705,1,2,0:0:0:0:
364,352,63787,1,2,0:0:0:0:
364,352,63869,1,8,0:0:0:0:
488,308,64033,1,2,0:0:0:0:
328,260,64197,1,8,0:0:0:0:
300,256,64279,1,8,0:0:0:0:
272,252,64361,1,2,0:0:0:0:
100,272,64525,1,8,0:0:0:0:
168,96,64689,5,8,0:0:0:0:
0,188,64853,1,8,0:0:0:0:
0,188,65181,6,0,L|176:180,1,170,12|8,0:0|0:0,0:0:0:0:
336,168,65672,1,8,0:0:0:0:
252,28,65836,1,8,0:0:0:0:
416,124,66000,6,0,P|431:169|416:208,1,85,12|8,0:1|0:0,0:0:0:0:
275,335,66328,2,0,B|268:311|268:311|272:251,1,85,2|8,0:0|0:0,0:0:0:0:
212,104,66656,1,2,0:0:0:0:
336,168,66820,1,8,0:0:0:0:
144,216,66984,1,2,0:0:0:0:
144,216,67066,1,2,0:0:0:0:
144,216,67148,1,8,0:0:0:0:
276,336,67312,6,0,L|369:329,1,85,14|8,0:1|0:0,0:0:0:0:
488,180,67640,2,0,B|456:172|456:172|416:180|416:180|384:172,1,101.999996887207,2|8,0:0|0:0,0:0:0:0:
256,32,67967,1,2,0:0:0:0:
416,84,68131,1,8,0:0:0:0:
276,220,68295,2,0,P|232:232|184:212,1,85,2|8,0:0|0:0,0:0:0:0:
32,112,68623,6,0,P|76:100|124:120,1,85,14|8,0:1|0:0,0:0:0:0:
80,304,68951,2,0,B|73:276|73:276|81:236|81:236|73:204,1,101.999996887207,2|8,0:0|0:0,0:0:0:0:
20,32,69279,1,2,0:0:0:0:
188,84,69443,1,8,0:0:0:0:
80,212,69607,1,2,0:0:0:0:
80,212,69689,1,2,0:0:0:0:
80,212,69771,1,8,0:0:0:0:
240,332,69935,6,0,B|264:325|264:325|324:329,1,85,14|8,0:1|0:0,0:0:0:0:
353,333,70181,1,8,0:0:0:0:
353,333,70263,1,2,0:0:0:0:
484,192,70426,2,0,B|436:176|436:176|364:192|364:192|316:184,1,170,12|2,0:0|0:0,0:0:0:0:
356,48,70918,1,2,0:0:0:0:
318,184,71082,1,2,0:0:0:0:
144,116,71246,6,0,B|151:140|151:140|147:200,1,85,14|8,0:1|0:0,0:0:0:0:
188,368,71574,1,2,0:0:0:0:
188,368,71656,1,2,0:0:0:0:
188,368,71738,1,8,0:0:0:0:
12,284,71902,2,0,B|5:260|5:260|9:200,1,85,2|8,0:0|0:0,0:0:0:0:
152,124,72230,1,2,0:0:0:0:
152,124,72312,1,2,0:0:0:0:
152,124,72394,1,8,0:0:0:0:
244,288,72558,6,0,B|268:281|268:281|328:285,1,85,14|8,0:1|0:0,0:0:0:0:
496,304,72886,1,2,0:0:0:0:
496,304,72967,1,2,0:0:0:0:
496,304,73049,1,8,0:0:0:0:
432,124,73213,2,0,B|408:131|408:131|348:127,1,85,2|8,0:0|0:0,0:0:0:0:
200,20,73541,1,2,0:0:0:0:
208,28,73622,1,2,0:0:0:0:
208,28,73704,1,8,0:0:0:0:
24,72,73869,6,0,L|16:116,3,42.5,8|8|2|2,0:0|0:0|0:0|0:0,0:0:0:0:
0,188,74197,1,2,0:0:0:0:
56,344,74361,2,0,B|116:355|116:355|179:321,1,127.5,8|0,0:0|0:0,0:0:0:0:
240,284,74689,2,0,P|220:224|252:172,1,127.5,8|0,0:0|0:0,0:0:0:0:
320,144,75017,6,0,B|348:124|352:100|352:100|340:224,1,170,12|8,0:0|0:0,0:0:0:0:
328,356,75508,1,8,0:0:0:0:
488,332,75672,1,8,0:0:0:0:
341,213,75836,5,8,0:0:0:0:
412,360,76000,1,8,0:0:0:0:
496,184,76164,2,0,B|489:160|489:160|493:100,1,85,8|8,0:0|0:0,0:0:0:0:
316,60,76492,6,0,B|323:84|323:84|319:144,1,85,6|2,0:0|0:0,0:0:0:0:
226,306,76820,2,0,L|218:222,1,85,8|0,0:0|0:0,0:0:0:0:
120,95,77148,1,2,0:0:0:0:
0,242,77311,1,2,0:0:0:0:
37,101,77476,1,8,0:0:0:0:
184,222,77640,1,2,0:0:0:0:
319,143,77804,6,0,P|363:139|403:167,1,85,10|2,0:1|0:0,0:0:0:0:
500,284,78131,1,8,0:0:0:0:
320,340,78295,1,2,0:0:0:0:
320,340,78377,1,2,0:0:0:0:
320,340,78459,2,0,B|296:333|296:333|236:337,1,85,2|2,0:0|0:0,0:0:0:0:
80,304,78787,1,8,0:0:0:0:
144,184,78951,1,0,0:0:0:0:
12,56,79115,5,2,0:0:0:0:
28,215,79279,1,2,0:0:0:0:
168,84,79443,2,0,P|232:116|284:92,1,127.5,12|0,0:0|0:0,0:0:0:0:
300,72,79771,1,2,0:0:0:0:
456,124,79935,1,2,0:0:0:0:
376,304,80099,2,0,P|312:272|260:296,1,127.5,12|0,0:0|0:0,0:0:0:0:
196,328,80426,6,0,B|189:304|189:304|193:244,1,85,12|2,0:0|0:0,0:0:0:0:
204,80,80754,1,8,0:0:0:0:
24,20,80918,2,0,P|-4:92|56:168,1,170,12|8,0:0|0:0,0:0:0:0:
192,244,81410,2,0,B|199:268|199:268|195:328,1,85,14|0,0:1|0:0,0:0:0:0:
4,324,81738,5,14,0:1:0:0:
44,163,81902,1,8,0:0:0:0:
192,244,82066,1,8,0:0:0:0:
340,168,82230,1,8,0:0:0:0:
228,44,82394,2,0,B|221:68|221:68|225:128,1,85,8|8,0:0|0:0,0:0:0:0:
348,224,82722,1,8,0:0:0:0:
344,196,82804,1,8,0:0:0:0:
340,168,82886,1,2,0:0:0:0:
453,67,83049,5,14,0:0:0:0:
496,64,83869,6,0,L|448:68,1,42.5,2|0,0:0|0:0,0:0:0:0:
388,32,84033,6,0,P|428:76|424:140,1,127.5,2|0,0:3|0:0,0:0:0:0:
352,104,84361,6,0,B|252:72|252:144|152:104,1,203.999993774414,4|8,0:0|0:0,0:0:0:0:
0,24,84853,1,2,0:0:0:0:
0,24,84935,1,8,0:0:0:0:
0,24,85017,2,0,B|9:47|9:47|11:107,1,85,10|10,0:1|0:1,0:0:0:0:
60,264,85345,1,8,0:0:0:0:
248,216,85508,6,0,L|420:224,1,170,10|2,0:1|0:0,0:0:0:0:
508,88,86000,2,0,L|420:84,1,85,8|2,0:0|0:0,0:0:0:0:
268,32,86328,1,8,0:1:0:0:
248,216,86492,1,2,0:0:0:0:
160,80,86656,1,8,0:0:0:0:
316,130,86820,1,0,0:0:0:0:
208,288,86984,6,0,P|172:244|220:136,1,170,14|8,0:1|0:0,0:0:0:0:
372,196,87476,1,2,0:0:0:0:
372,196,87558,1,8,0:0:0:0:
372,196,87640,2,0,B|379:220|379:220|375:280,1,85,10|10,0:1|0:1,0:0:0:0:
288,372,87967,1,8,0:0:0:0:
480,340,88131,6,0,L|488:164,1,170,10|2,0:1|0:0,0:0:0:0:
496,16,88623,1,2,0:0:0:0:
319,47,88787,2,0,L|315:139,1,85,2|2,0:0|0:0,0:0:0:0:
216,272,89115,1,2,0:0:0:0:
216,272,89197,1,2,0:0:0:0:
216,272,89279,2,0,B|176:288|176:288|84:276,1,127.5,2|0,0:3|0:0,0:0:0:0:
16,260,89607,6,0,P|4:220|16:172,1,85,14|2,0:1|0:0,0:0:0:0:
120,48,89935,1,8,0:0:0:0:
168,212,90099,1,2,0:0:0:0:
316,132,90263,2,0,L|312:224,1,85,10|10,0:1|0:1,0:0:0:0:
304,376,90590,1,8,0:0:0:0:
457,240,90754,6,0,P|434:212|305:224,1,170,12|10,0:1|0:1,0:0:0:0:
212,312,91246,1,8,0:0:0:0:
376,288,91410,1,2,0:0:0:0:
309,133,91574,2,0,B|316:157|316:157|312:217,1,85,8|2,0:1|0:0,0:0:0:0:
131,143,91902,2,0,B|124:119|124:119|128:59,1,85,8|0,0:0|0:0,0:0:0:0:
309,133,92230,5,8,0:0:0:0:
152,224,92394,1,8,0:0:0:0:
128,59,92558,1,8,0:0:0:0:
183,239,92722,1,8,0:0:0:0:
4,204,92886,2,8,L|8:292,1,85,8|8,0:0|0:0,0:0:0:0:
187,324,93213,2,0,L|183:239,1,85,8|8,0:0|0:0,0:0:0:0:
176,40,93541,5,8,0:0:0:0:
312,216,93705,1,8,0:0:0:0:
340,56,93869,1,8,0:0:0:0:
180,140,94033,1,8,0:0:0:0:
376,148,94197,5,8,0:0:0:0:
172,56,94361,1,8,0:0:0:0:
184,240,94525,1,8,0:0:0:0:
260,100,94689,1,8,0:0:0:0:
64,36,94853,6,0,B|57:60|57:60|61:120,1,85,4|2,0:0|0:0,0:0:0:0:
64,288,95181,1,2,0:0:0:0:
260,252,95345,2,0,B|288:240|300:216|300:216|288:336,1,170,8|2,0:0|0:0,0:0:0:0:
288,360,95754,1,2,0:0:0:0:
288,360,95836,1,2,0:0:0:0:
452,240,96000,6,0,P|488:184|420:104,1,170,6|8,0:0|0:0,0:0:0:0:
408,100,96410,1,8,0:0:0:0:
408,100,96492,1,2,0:0:0:0:
300,216,96656,2,0,L|116:200,1,170,2|2,0:0|0:0,0:0:0:0:
16,136,97148,1,0,0:0:0:0:
46,298,97312,6,0,B|22:330|46:378|86:394|126:378|150:330|126:298|126:298|102:266|70:218|124:156|124:156|118:182|132:204,1,407.999987548829,4|8,0:0|0:0,0:0:0:0:
130,200,98049,1,8,0:0:0:0:
130,200,98131,1,2,0:0:0:0:
