osu file format v14

[General]
AudioFilename: audio.mp3
AudioLeadIn: 0
PreviewTime: 55426
Countdown: 0
SampleSet: Soft
StackLeniency: 0.7
Mode: 0
LetterboxInBreaks: 0
WidescreenStoryboard: 0

[Editor]
DistanceSpacing: 1
BeatDivisor: 4
GridSize: 4
TimelineZoom: 2.2

[Metadata]
Title:MIRACLE WAVE (TV Size)
TitleUnicode:MIRACLE WAVE (TV Size)
Artist:Aqours
ArtistUnicode:Aqours
Creator:Cris-
Version:Normal
Source:Love Live! Sunshine!!
Tags:amb1d3x Hishiro Chizuru Hazu- Tatan wolf3211 Phyloukz LoveLive! ラブライブ!サンシャイン!! School Idol Project Season 2 Takami Chika 高海千歌 Inami Anju 伊波杏樹 Sakurauchi Riko 桜内梨子 Aida Rikako 逢田梨香子 Watanabe You 渡辺 曜 Saito Shuka 斉藤朱夏 Matsuura Kanan 松浦果南 Suwa Nanaka 諏訪ななか Kurosawa Dia 黒澤ダイヤ Komiya Arisa 小林愛香 Ohara Mari 小原鞠莉 Suzuki Aina 鈴木愛奈 Tsushima Yoshiko 津島善子 Kobayashi Aika 小林愛香 Kunikida Hanamaru 国木田花丸 Takatsuki Kanako 高槻かなこ Kurosawa Ruby 黒澤ルビィ Furihata Ai 降幡 愛 Sunrise Anime Japanese
BeatmapID:1695324
BeatmapSetID:792461

[Difficulty]
HPDrainRate:4
CircleSize:3.5
OverallDifficulty:4
ApproachRate:5
SliderMultiplier:1.1
SliderTickRate:1

[Events]
//Background and Video events
Video,-180,"MIRACLE WAVE.mp4"
0,0,"Sunshine.jpg",0,0
//Break Periods
//Storyboard Layer 0 (Background)
//Storyboard Layer 1 (Fail)
//Storyboard Layer 2 (Pass)
//Storyboard Layer 3 (Foreground)
//Storyboard Sound Samples

[TimingPoints]
427,327.868852459016,4,2,1,65,1,0
5017,-100,4,2,1,5,0,0
5181,-100,4,2,1,35,0,0
5426,-100,4,2,1,45,0,0
5590,-100,4,2,1,5,0,0
5672,-100,4,2,1,70,0,0
16164,-100,4,2,10,50,0,0
17722,-100,4,2,10,5,0,0
17804,-100,4,2,10,40,0,0
18049,-100,4,2,10,5,0,0
18131,-100,4,2,10,40,0,0
18705,-100,4,2,1,5,0,0
18787,-100,4,2,1,60,0,0
39771,-100,4,2,1,65,0,0
44935,-100,4,2,1,5,0,0
45017,-100,4,2,1,65,0,0
45181,-100,4,2,1,5,0,0
46164,-100,4,2,1,65,0,0
46492,-100,4,2,1,5,0,0
46820,-100,4,2,1,65,0,0
47640,-100,4,2,1,70,0,0
54853,-100,4,2,10,60,0,0
55426,-100,4,2,1,5,0,0
55508,-100,4,2,1,80,0,1
57148,-100,4,2,1,80,0,1
57476,-100,4,2,1,80,0,1
58459,-100,4,2,1,80,0,1
58787,-100,4,2,1,80,0,1
65672,-100,4,2,1,75,0,0
66000,-100,4,2,1,80,0,1
67640,-100,4,2,1,80,0,1
67967,-100,4,2,1,80,0,1
68951,-100,4,2,1,80,0,1
69279,-100,4,2,1,80,0,1
76492,-100,4,2,1,70,0,0
83377,-100,4,2,10,70,0,0
83869,-100,4,2,1,70,0,0
84033,-100,4,2,1,70,0,0
84361,-100,4,2,1,80,0,1
84689,-100,4,2,1,75,0,0
88459,-100,4,2,10,75,0,0
89115,-100,4,2,1,75,0,0
89197,-100,4,2,1,45,0,0
89279,-100,4,2,1,75,0,0
89525,-100,4,2,1,5,0,0
89607,-100,4,2,1,75,0,0
96902,-100,4,2,1,5,0,0
96984,-100,4,2,1,75,0,0
97312,-100,4,2,1,75,0,0

[Colours]
Combo1 : 250,65,134
Combo2 : 255,131,6
Combo3 : 254,33,38
Combo4 : 248,143,226

[HitObjects]
48,72,427,6,0,L|56:128,1,55,8|8,0:0|0:0,0:0:0:0:
64,180,754,2,0,P|116:200|164:180,1,110,0|0,0:0|0:0,0:0:0:0:
256,116,1410,1,2,0:3:0:0:
256,116,1574,2,0,L|364:132,1,110,12|8,0:0|0:0,0:0:0:0:
412,232,2230,2,0,L|304:248,1,110,6|2,0:0|0:0,0:0:0:0:
248,256,2722,1,8,0:0:0:0:
164,184,3049,6,0,L|109:192,1,55,12|12,0:0|0:0,0:0:0:0:
56,200,3377,2,0,P|36:148|56:96,1,110,8|2,0:3|0:0,0:0:0:0:
84,52,3869,1,2,0:0:0:0:
184,96,4197,2,0,B|292:80,1,110,6|8,0:0|0:0,0:0:0:0:
348,72,4689,2,0,L|355:126,1,55,8|2,0:0|0:0,0:0:0:0:
408,220,5181,2,2,P|356:240|308:220,1,110,0|0,0:0|0:0,0:0:0:0:
259,191,5672,6,0,P|210:172|159:190,1,110,6|8,0:0|0:0,0:0:0:0:
112,220,6164,1,2,0:0:0:0:
64,192,6328,2,0,P|44:141|63:91,1,110,8|8,0:0|0:0,0:0:0:0:
160,36,6984,2,0,L|268:52,1,110,8|8,0:0|0:0,0:0:0:0:
316,80,7476,2,0,L|424:64,1,110,10|10,0:1|0:1,0:0:0:0:
480,52,7967,1,8,0:0:0:0:
448,156,8295,6,0,L|340:172,1,110,8|8,0:0|0:0,0:0:0:0:
284,184,8787,1,10,0:1:0:0:
232,196,8951,2,0,P|252:248|232:296,1,110,8|8,0:0|0:0,0:0:0:0:
132,248,9607,2,0,P|111:198|131:148,1,110,8|8,0:0|0:0,0:0:0:0:
164,104,10099,1,2,0:0:0:0:
196,60,10263,2,0,L|188:4,2,55,2|8|8,0:0|0:0|0:0,0:0:0:0:
264,148,10918,6,0,L|372:132,1,110,4|8,0:0|0:0,0:0:0:0:
428,120,11410,1,2,0:0:0:0:
480,108,11574,2,0,P|500:156|480:208,1,110,8|8,0:0|0:0,0:0:0:0:
408,292,12230,2,0,P|358:312|308:292,1,110,8|8,0:0|0:0,0:0:0:0:
268,252,12722,2,0,P|220:232|168:252,1,110,10|10,0:1|0:1,0:0:0:0:
128,292,13213,1,8,0:0:0:0:
24,252,13541,6,0,L|40:144,1,110,12|8,0:0|0:0,0:0:0:0:
52,88,14033,1,10,0:1:0:0:
64,36,14197,2,0,P|113:16|163:36,1,110,8|8,0:0|0:0,0:0:0:0:
236,120,14853,2,0,P|285:140|335:120,1,110,8|8,0:0|0:0,0:0:0:0:
384,92,15345,1,2,0:0:0:0:
428,60,15509,2,0,L|420:4,2,55,8|8|2,0:0|0:0|0:0,0:0:0:0:
448,168,16164,5,6,0:0:0:0:
16,248,18787,6,0,L|32:356,1,110,6|8,0:0|0:0,0:0:0:0:
136,320,19443,1,2,0:0:0:0:
136,320,19607,2,0,L|128:264,1,55,2|8,0:0|0:0,0:0:0:0:
120,212,19935,2,0,B|172:192|172:232|228:212,1,110,2|2,0:0|0:0,0:0:0:0:
280,196,20426,2,0,L|336:204,1,55,8|2,0:0|0:0,0:0:0:0:
352,96,20918,2,0,L|296:88,1,55,2|8,0:0|0:0,0:0:0:0:
248,116,21246,6,0,P|196:136|148:116,1,110,6|2,0:0|0:0,0:0:0:0:
100,88,21738,1,8,0:0:0:0:
0,136,22066,2,0,L|8:192,1,55,2|2,0:0|0:0,0:0:0:0:
24,300,22558,2,0,B|64:292|64:292|92:300|92:300|132:292,1,110,2|2,0:0|0:0,0:0:0:0:
184,280,23049,2,0,L|192:336,1,55,8|2,0:0|0:0,0:0:0:0:
296,376,23541,1,2,0:0:0:0:
296,376,23705,2,0,L|304:320,1,55,8|0,0:0|0:0,0:0:0:0:
316,268,24033,6,0,B|368:288|368:288|420:268,1,110,6|8,0:0|0:0,0:0:0:0:
508,208,24689,1,2,0:0:0:0:
508,208,24853,2,0,L|500:152,1,55,2|8,0:0|0:0,0:0:0:0:
492,100,25181,2,0,L|384:116,1,110,2|2,0:0|0:0,0:0:0:0:
328,128,25672,2,0,L|272:120,1,55,8|2,0:0|0:0,0:0:0:0:
176,64,26164,2,0,L|120:72,1,55,2|8,0:0|0:0,0:0:0:0:
68,80,26492,6,0,P|47:129|67:179,1,110,6|2,0:0|0:0,0:0:0:0:
108,216,26984,1,8,0:0:0:0:
212,180,27312,2,0,L|220:236,1,55,2|2,0:0|0:0,0:0:0:0:
244,340,27804,2,0,B|296:360|296:360|348:340,1,110,2|2,0:0|0:0,0:0:0:0:
396,320,28295,2,0,L|452:328,1,55,8|2,0:0|0:0,0:0:0:0:
472,220,28787,1,2,0:0:0:0:
472,220,28951,2,0,L|416:212,1,55,8|0,0:0|0:0,0:0:0:0:
364,204,29279,6,0,P|344:152|364:104,1,110,6|8,0:0|0:0,0:0:0:0:
404,4,29935,1,2,0:0:0:0:
404,4,30099,2,0,L|348:-4,1,55,2|8,0:0|0:0,0:0:0:0:
296,16,30426,2,0,L|188:32,1,110,2|2,0:0|0:0,0:0:0:0:
132,44,30918,2,0,L|140:100,1,55,8|2,0:0|0:0,0:0:0:0:
80,192,31410,2,0,L|72:248,1,55,2|8,0:0|0:0,0:0:0:0:
60,300,31738,6,0,P|109:319|159:299,1,110,6|2,0:0|0:0,0:0:0:0:
204,264,32230,1,8,0:0:0:0:
280,344,32558,2,0,L|336:336,1,55,2|2,0:0|0:0,0:0:0:0:
444,316,33049,2,0,B|464:264|424:264|443:209,1,110,2|2,0:0|0:0,0:0:0:0:
460,156,33541,1,8,0:0:0:0:
476,104,33705,2,0,L|368:88,1,110,2|2,0:0|0:0,0:0:0:0:
312,76,34197,1,8,0:0:0:0:
236,156,34525,6,0,L|127:140,1,110,6|8,0:0|0:0,0:0:0:0:
16,124,35181,2,0,L|24:68,2,55,2|2|8,0:0|0:0|0:0,0:0:0:0:
8,180,35672,2,0,P|-8:232|8:284,1,110,2|2,0:0|0:0,0:0:0:0:
40,328,36164,1,8,0:0:0:0:
140,284,36492,2,0,B|192:304|192:264|247:283,1,110,2|8,0:0|0:0,0:0:0:0:
288,320,36984,6,0,P|337:339|388:320,1,110,6|2,0:0|0:0,0:0:0:0:
432,284,37476,1,8,0:0:0:0:
388,184,37804,2,0,L|332:192,1,55,2|2,0:0|0:0,0:0:0:0:
224,208,38295,2,0,P|205:159|224:108,1,110,6|2,0:0|0:0,0:0:0:0:
252,60,38787,1,8,0:0:0:0:
284,16,38951,2,0,L|392:32,1,110,0|2,0:0|0:0,0:0:0:0:
448,40,39443,1,8,0:0:0:0:
428,148,39771,6,0,L|320:132,1,110,6|2,0:0|0:0,0:0:0:0:
232,200,40426,2,0,P|184:220|132:200,1,110,2|2,0:0|0:0,0:0:0:0:
88,168,40918,1,8,0:0:0:0:
44,136,41082,2,0,L|28:244,1,110,2|2,0:0|0:0,0:0:0:0:
116,309,41738,2,0,L|132:201,1,110,2|8,0:0|0:3,0:0:0:0:
152,92,42394,6,0,P|201:72|251:91,1,110,6|2,0:0|0:0,0:0:0:0:
352,140,43049,2,0,L|360:84,1,55,2|8,0:0|0:0,0:0:0:0:
368,32,43377,1,2,0:0:0:0:
456,100,43705,2,0,L|440:208,1,110,6|2,0:0|0:0,0:0:0:0:
428,264,44197,1,2,0:0:0:0:
416,316,44361,2,0,L|470:323,2,55,8|2|8,0:3|0:0|0:0,0:0:0:0:
312,352,45017,6,0,L|256:344,1,55,6|0,0:0|0:0,0:0:0:0:
120,164,46164,1,2,0:0:0:0:
120,164,46328,2,0,L|175:171,1,55,4|0,0:0|0:0,0:0:0:0:
284,188,46820,2,0,L|292:134,2,55,0|0|2,0:0|0:0|0:0,0:0:0:0:
272,244,47312,1,8,0:0:0:0:
248,352,47640,6,0,L|140:336,1,110,8|2,0:0|0:0,0:0:0:0:
84,328,48131,2,0,P|63:278|82:228,1,110,8|2,0:0|0:0,0:0:0:0:
108,180,48623,2,0,P|129:130|110:80,1,110,8|2,0:0|0:0,0:0:0:0:
84,32,49115,6,0,L|192:16,1,110,8|2,0:0|0:0,0:0:0:0:
248,8,49607,1,8,0:0:0:0:
344,60,49935,1,8,0:0:0:0:
440,8,50263,2,0,P|461:58|442:108,1,110,8|2,0:0|0:0,0:0:0:0:
396,140,50754,2,0,P|346:161|296:140,1,110,8|2,0:0|0:0,0:0:0:0:
252,108,51246,1,8,0:0:0:0:
208,140,51410,6,0,B|184:192|224:192|205:247,1,110,2|8,0:0|0:0,0:0:0:0:
188,300,51902,2,0,L|132:292,1,55,8|8,0:0|0:0,0:0:0:0:
80,284,52230,2,0,L|72:340,2,55,8|8|8,0:0|0:0|0:0,0:0:0:0:
88,228,52722,1,12,0:0:0:0:
256,192,52886,12,2,54853,0:0:0:0:
452,72,55508,6,0,P|402:51|352:72,1,110,14|2,0:1|0:0,0:0:0:0:
264,140,56164,2,0,L|272:196,1,55,2|8,0:0|0:0,0:0:0:0:
284,248,56492,2,0,L|276:304,1,55,2|8,0:0|0:0,0:0:0:0:
260,356,56820,2,0,B|205:375|205:335|153:355,1,110,14|2,0:1|0:0,0:0:0:0:
52,384,57476,2,0,L|44:328,1,55,2|8,0:0|0:0,0:0:0:0:
36,276,57804,2,0,L|44:220,1,55,2|8,0:0|0:0,0:0:0:0:
52,168,58131,6,0,P|102:147|152:168,1,110,14|2,0:1|0:0,0:0:0:0:
232,244,58787,2,0,L|288:236,1,55,2|8,0:0|0:0,0:0:0:0:
340,228,59115,2,0,L|396:236,1,55,2|8,0:0|0:0,0:0:0:0:
448,244,59443,2,0,B|456:204|456:204|448:176|448:176|456:136,1,110,14|14,0:1|0:1,0:0:0:0:
472,28,60099,2,0,L|416:20,1,55,14|8,0:1|0:0,0:0:0:0:
364,12,60426,1,14,0:1:0:0:
268,64,60754,6,0,L|160:48,1,110,14|2,0:1|0:0,0:0:0:0:
104,40,61246,1,8,0:0:0:0:
48,32,61410,2,0,L|40:88,1,55,2|8,0:0|0:0,0:0:0:0:
20,196,61902,2,0,L|128:212,1,110,12|8,0:0|0:0,0:0:0:0:
184,224,62394,2,0,L|240:216,1,55,2|8,0:0|0:0,0:0:0:0:
292,208,62722,2,0,L|284:152,2,55,2|8|2,0:0|0:0|0:0,0:0:0:0:
308,316,63377,6,0,P|358:337|408:316,1,110,14|2,0:1|0:0,0:0:0:0:
488,240,64033,2,0,L|496:184,1,55,2|8,0:0|0:0,0:0:0:0:
504,132,64361,1,2,0:0:0:0:
412,68,64689,2,0,L|304:52,1,110,8|2,0:0|0:0,0:0:0:0:
248,44,65181,2,0,B|193:63|193:23|141:43,1,110,12|8,0:0|0:0,0:0:0:0:
88,48,65672,1,8,0:0:0:0:
88,160,66000,6,0,L|196:176,1,110,12|2,0:1|0:0,0:0:0:0:
296,128,66656,2,0,L|352:136,1,55,2|8,0:0|0:0,0:0:0:0:
404,144,66984,2,0,L|460:136,1,55,2|8,0:0|0:0,0:0:0:0:
512,128,67312,2,0,P|533:178|512:228,1,110,14|2,0:1|0:0,0:0:0:0:
440,312,67968,2,0,L|384:304,1,55,2|8,0:0|0:0,0:0:0:0:
332,296,68296,2,0,L|276:304,1,55,2|8,0:0|0:0,0:0:0:0:
224,312,68623,6,0,B|200:264|200:264|224:212,1,110,14|2,0:1|0:0,0:0:0:0:
276,116,69279,2,0,L|332:124,1,55,2|8,0:0|0:0,0:0:0:0:
384,132,69607,2,0,L|440:124,1,55,2|8,0:0|0:0,0:0:0:0:
492,116,69935,2,0,B|492:152|508:168|508:168|492:184|492:218,1,110,14|2,0:1|0:0,0:0:0:0:
468,268,70426,2,0,B|432:268|416:284|416:284|400:268|366:268,1,110,12|2,0:0|0:0,0:0:0:0:
296,356,71082,6,0,P|246:377|196:356,1,110,2|8,0:0|0:0,0:0:0:0:
148,332,71574,2,0,L|156:276,1,55,2|8,0:0|0:0,0:0:0:0:
164,224,71902,2,0,L|156:168,1,55,2|8,0:0|0:0,0:0:0:0:
148,116,72230,1,2,0:0:0:0:
140,60,72394,2,0,L|248:44,1,110,8|8,0:0|0:0,0:0:0:0:
304,32,72886,1,2,0:0:0:0:
388,104,73213,2,0,L|380:160,1,55,2|8,0:0|0:0,0:0:0:0:
372,212,73541,2,0,L|380:268,1,55,2|8,0:0|0:0,0:0:0:0:
388,320,73869,6,0,B|340:344|340:344|288:320,1,110,8|2,0:0|0:0,0:0:0:0:
240,296,74361,2,0,B|132:312,1,110,8|8,0:0|0:0,0:0:0:0:
112,204,75017,2,0,L|220:188,1,110,12|8,0:0|0:0,0:0:0:0:
276,180,75508,2,0,L|268:124,2,55,8|8|8,0:0|0:0|0:0,0:0:0:0:
348,264,76164,1,8,0:0:0:0:
420,180,76492,6,0,P|441:130|420:80,1,110,6|8,0:0|0:0,0:0:0:0:
384,40,76984,1,0,0:0:0:0:
340,8,77148,2,0,L|232:24,1,110,2|8,0:0|0:0,0:0:0:0:
124,44,77804,2,0,B|132:84|132:84|124:112|124:112|132:152,1,110,10|8,0:1|0:0,0:0:0:0:
212,228,78459,1,2,0:0:0:0:
132,304,78787,1,8,0:0:0:0:
52,228,79115,6,0,P|31:178|52:128,1,110,2|12,0:0|0:0,0:0:0:0:
124,44,79771,1,2,0:0:0:0:
196,128,80099,1,12,0:0:0:0:
268,44,80426,2,0,B|308:52|308:52|336:44|336:44|376:52,1,110,12|8,0:0|0:0,0:0:0:0:
428,68,80918,2,0,L|412:176,1,110,12|8,0:0|0:0,0:0:0:0:
400,232,81410,1,14,0:1:0:0:
328,316,81738,6,0,P|278:337|228:316,1,110,14|8,0:1|0:0,0:0:0:0:
140,256,82394,2,0,L|84:264,1,55,8|8,0:0|0:0,0:0:0:0:
32,272,82722,1,8,0:0:0:0:
16,164,83049,2,0,L|124:148,1,110,14|2,0:0|0:0,0:0:0:0:
192,60,83705,2,0,L|248:52,1,55,2|2,0:0|0:0,0:0:0:0:
300,36,84033,2,0,L|356:44,1,55,2|0,0:3|0:0,0:0:0:0:
408,52,84361,6,0,B|428:104|388:104|408:160,1,110,4|8,0:0|0:0,0:0:0:0:
428,268,85017,2,0,L|372:276,1,55,10|10,0:1|0:1,0:0:0:0:
272,236,85508,2,0,L|164:252,1,110,10|2,0:1|0:0,0:0:0:0:
108,260,86000,2,0,L|100:204,1,55,8|2,0:0|0:0,0:0:0:0:
92,152,86328,2,0,L|100:96,1,55,8|2,0:1|0:0,0:0:0:0:
108,44,86656,1,8,0:0:0:0:
204,96,86984,6,0,P|253:116|303:95,1,110,14|8,0:1|0:0,0:0:0:0:
400,44,87640,2,0,L|408:100,1,55,10|10,0:1|0:1,0:0:0:0:
424,208,88131,2,0,L|316:224,1,110,10|2,0:1|0:0,0:0:0:0:
260,236,88623,1,2,0:0:0:0:
152,252,88951,2,0,L|144:196,1,55,2|2,0:0|0:0,0:0:0:0:
136,144,89279,2,0,L|144:88,1,55,2|0,0:3|0:0,0:0:0:0:
152,36,89607,6,0,P|202:15|252:36,1,110,14|8,0:1|0:0,0:0:0:0:
336,108,90263,2,0,L|392:100,1,55,10|10,0:1|0:1,0:0:0:0:
480,36,90754,2,0,L|496:144,1,110,12|10,0:1|0:1,0:0:0:0:
504,200,91246,2,0,L|496:256,1,55,8|2,0:0|0:0,0:0:0:0:
484,308,91574,1,8,0:1:0:0:
400,236,91902,1,8,0:0:0:0:
316,308,92230,6,0,L|261:300,1,55,8|8,0:0|0:0,0:0:0:0:
208,292,92558,2,0,L|152:300,1,55,8|8,0:0|0:0,0:0:0:0:
100,308,92886,1,8,0:0:0:0:
84,200,93213,1,8,0:0:0:0:
68,92,93541,2,0,L|124:84,1,55,8|8,0:0|0:0,0:0:0:0:
176,76,93869,2,0,L|232:84,1,55,8|8,0:0|0:0,0:0:0:0:
284,92,94197,2,0,B|336:112|336:72|392:92,1,110,8|8,0:0|0:0,0:0:0:0:
492,132,94853,6,0,L|500:76,2,55,4|2|2,0:0|0:0|0:0,0:0:0:0:
484,188,95345,2,0,L|468:296,1,110,8|2,0:0|0:0,0:0:0:0:
368,340,96000,2,0,L|352:232,1,110,6|8,0:0|0:0,0:0:0:0:
248,188,96656,2,0,L|232:296,1,110,2|2,0:0|0:0,0:0:0:0:
128,340,97312,6,0,B|100:288|128:244|128:244|116:220|116:220|128:196|128:196|116:172|116:172|128:136,1,220,4|8,0:0|0:0,0:0:0:0:
144,84,98131,1,2,0:0:0:0:
