osu file format v14

[General]
AudioFilename: audio.mp3
AudioLeadIn: 0
PreviewTime: 55426
Countdown: 0
SampleSet: Soft
StackLeniency: 0.4
Mode: 0
LetterboxInBreaks: 0
WidescreenStoryboard: 0

[Editor]
DistanceSpacing: 1.4
BeatDivisor: 4
GridSize: 4
TimelineZoom: 1.9

[Metadata]
Title:MIRACLE WAVE (TV Size)
TitleUnicode:MIRACLE WAVE (TV Size)
Artist:Aqours
ArtistUnicode:Aqours
Creator:Cris-
Version:Hazu's Hard
Source:Love Live! Sunshine!!
Tags:amb1d3x Hishiro Chizuru Hazu- Tatan wolf3211 Phyloukz LoveLive! ラブライブ!サンシャイン!! School Idol Project Season 2 Takami Chika 高海千歌 Inami Anju 伊波杏樹 Sakurauchi Riko 桜内梨子 Aida Rikako 逢田梨香子 Watanabe You 渡辺 曜 Saito Shuka 斉藤朱夏 Matsuura Kanan 松浦果南 Suwa Nanaka 諏訪ななか Kurosawa Dia 黒澤ダイヤ Komiya Arisa 小林愛香 Ohara Mari 小原鞠莉 Suzuki Aina 鈴木愛奈 Tsushima Yoshiko 津島善子 Kobayashi Aika 小林愛香 Kunikida Hanamaru 国木田花丸 Takatsuki Kanako 高槻かなこ Kurosawa Ruby 黒澤ルビィ Furihata Ai 降幡 愛 Sunrise Anime Japanese
BeatmapID:1703667
BeatmapSetID:792461

[Difficulty]
HPDrainRate:5
CircleSize:4
OverallDifficulty:6
ApproachRate:8
SliderMultiplier:1.4
SliderTickRate:1

[Events]
//Background and Video events
Video,-180,"MIRACLE WAVE.mp4"
0,0,"Sunshine.jpg",0,0
//Break Periods
//Storyboard Layer 0 (Background)
//Storyboard Layer 1 (Fail)
//Storyboard Layer 2 (Pass)
//Storyboard Layer 3 (Foreground)
//Storyboard Sound Samples

[TimingPoints]
427,327.868852459016,4,2,1,65,1,0
427,-111.111111111111,4,2,1,65,0,0
5017,-111.111111111111,4,2,1,5,0,0
5181,-200,4,2,1,35,0,0
5426,-200,4,2,1,45,0,0
5590,-200,4,2,1,5,0,0
5672,-100,4,2,1,70,0,0
16164,-133.333333333333,4,2,10,50,0,0
17804,-133.333333333333,4,2,10,5,0,0
18131,-133.333333333333,4,2,10,40,0,0
18705,-133.333333333333,4,2,1,5,0,0
18787,-111.111111111111,4,2,1,60,0,0
31492,-111.111111111111,4,2,1,40,0,0
31574,-111.111111111111,4,2,1,60,0,0
31656,-111.111111111111,4,2,1,40,0,0
31738,-111.111111111111,4,2,1,60,0,0
39771,-111.111111111111,4,2,1,65,0,0
44935,-100,4,2,1,5,0,0
45017,-100,4,2,1,65,0,0
45181,-100,4,2,1,5,0,0
46164,-100,4,2,1,65,0,0
46492,-100,4,2,1,5,0,0
46820,-100,4,2,1,65,0,0
47640,-100,4,2,1,70,0,0
54853,-100,4,2,10,60,0,0
55181,-133.333333333333,4,2,10,60,0,0
55426,-133.333333333333,4,2,1,5,0,0
55508,-100,4,2,1,80,0,1
57148,-100,4,2,1,80,0,1
57394,-100,4,2,1,5,0,1
57476,-100,4,2,1,80,0,1
58459,-100,4,2,1,80,0,1
58705,-100,4,2,1,5,0,1
58787,-100,4,2,1,80,0,1
63295,-100,4,2,1,5,0,1
63377,-100,4,2,1,80,0,1
65672,-100,4,2,1,75,0,0
66000,-100,4,2,1,80,0,1
67640,-100,4,2,1,80,0,1
67886,-100,4,2,1,5,0,1
67967,-100,4,2,1,80,0,1
68951,-100,4,2,1,80,0,1
69197,-100,4,2,1,5,0,1
69279,-100,4,2,1,80,0,1
76492,-100,4,2,1,70,0,0
80017,-100,4,2,1,5,0,0
80099,-100,4,2,1,70,0,0
81656,-100,4,2,1,5,0,0
81738,-100,4,2,1,70,0,0
84033,-133.333333333333,4,2,1,70,0,0
84279,-133.333333333333,4,2,1,5,0,0
84361,-100,4,2,1,80,0,1
84689,-100,4,2,1,75,0,0
88459,-100,4,2,10,75,0,0
89279,-133.333333333333,4,2,1,75,0,0
89525,-133.333333333333,4,2,1,5,0,0
89607,-100,4,2,1,75,0,0
96902,-100,4,2,1,5,0,0
96984,-100,4,2,1,75,0,0
97230,-100,4,2,1,5,0,0
97312,-100,4,2,1,75,0,0

[Colours]
Combo1 : 250,41,120
Combo2 : 255,131,6
Combo3 : 254,33,38
Combo4 : 248,143,226

[HitObjects]
99,113,427,5,8,0:0:0:0:
99,113,590,1,8,0:0:0:0:
160,168,754,2,0,P|152:220|144:312,1,125.999996154785,0|0,0:0|0:0,0:0:0:0:
220,328,1246,2,0,P|224:276|228:240,1,62.9999980773926,0|2,0:0|0:3,0:0:0:0:
284,192,1574,6,0,B|316:176|348:192|348:192|380:212|420:192,1,125.999996154785,12|8,0:0|0:0,0:0:0:0:
416,192,1984,1,8,0:0:0:0:
424,184,2066,1,2,0:0:0:0:
476,120,2230,2,0,P|504:168|484:240,1,125.999996154785,6|2,0:0|0:0,0:0:0:0:
440,300,2722,2,0,P|404:296|376:296,1,62.9999980773926,8|2,0:0|0:0,0:0:0:0:
296,344,3049,5,12,0:0:0:0:
296,344,3213,1,12,0:0:0:0:
244,280,3377,2,0,P|252:224|260:148,1,125.999996154785,8|2,0:3|0:0,0:0:0:0:
180,132,3869,2,0,P|176:168|168:212,1,62.9999980773926,2|8,0:0|0:0,0:0:0:0:
88,240,4197,6,0,P|96:296|104:372,1,125.999996154785,6|8,0:0|0:0,0:0:0:0:
184,376,4689,1,8,0:0:0:0:
184,376,4771,1,8,0:0:0:0:
184,376,4853,1,2,0:0:0:0:
264,212,5181,6,2,P|224:200|172:192,1,87.5,0|0,0:0|0:0,0:0:0:0:
156,188,5672,6,0,P|225:177|294:167,1,140,6|8,0:0|0:0,0:0:0:0:
368,212,6164,1,2,0:0:0:0:
432,156,6328,1,8,0:0:0:0:
432,156,6492,2,0,P|460:152|512:148,1,70,2|8,0:0|0:0,0:0:0:0:
508,64,6820,1,10,0:1:0:0:
416,36,6984,5,8,0:0:0:0:
416,36,7148,2,0,P|388:40|336:44,1,70,2|8,0:0|0:0,0:0:0:0:
276,92,7476,1,10,0:1:0:0:
276,92,7640,1,8,0:0:0:0:
192,84,7805,2,0,P|189:49|186:14,2,70,10|8|10,0:1|0:0|0:1,0:0:0:0:
120,148,8295,6,0,P|116:188|108:296,1,140,8|8,0:0|0:0,0:0:0:0:
168,348,8787,1,10,0:1:0:0:
240,308,8951,1,8,0:0:0:0:
240,308,9115,2,0,P|276:308|331:315,1,70,10|8,0:1|0:0,0:0:0:0:
388,372,9443,6,0,P|364:324|400:236,1,140,2|2,0:0|0:0,0:0:0:0:
456,196,9935,1,8,0:0:0:0:
380,160,10099,2,0,P|344:164|304:172,1,70,2|2,0:0|0:0,0:0:0:0:
228,156,10426,2,0,P|224:136|212:108,2,35,8|8|8,0:0|0:0|0:0,0:0:0:0:
252,252,10754,5,8,0:0:0:0:
244,260,10836,1,8,0:0:0:0:
236,268,10918,2,0,B|140:288|192:224|80:244,1,140,4|8,0:0|0:0,0:0:0:0:
52,308,11410,1,2,0:0:0:0:
20,232,11574,1,8,0:0:0:0:
20,232,11738,2,0,P|24:180|32:136,1,70,2|8,0:0|0:0,0:0:0:0:
68,88,12066,1,10,0:1:0:0:
148,144,12230,5,8,0:0:0:0:
148,144,12394,2,0,P|196:144|236:136,1,70,2|8,0:0|0:0,0:0:0:0:
296,104,12722,1,10,0:1:0:0:
296,104,12886,1,8,0:0:0:0:
372,68,13049,2,0,P|406:63|441:64,2,70,10|8|10,0:1|0:0|0:1,0:0:0:0:
348,164,13541,6,0,B|340:216|340:216|360:308,1,140,12|8,0:0|0:0,0:0:0:0:
300,364,14033,1,10,0:1:0:0:
228,320,14197,1,8,0:0:0:0:
228,320,14361,2,0,P|184:320|144:328,1,70,10|8,0:1|0:0,0:0:0:0:
72,368,14689,6,0,P|28:332|32:240,1,140,2|2,0:0|0:0,0:0:0:0:
68,180,15181,1,8,0:0:0:0:
68,180,15345,1,2,0:0:0:0:
148,204,15508,2,0,P|180:200|204:200,3,35,8|8|8|8,0:0|0:0|0:0|0:0,0:0:0:0:
220,180,15836,2,0,P|256:184|296:192,1,70,2|0,0:0|0:0,0:0:0:0:
368,172,16164,5,6,0:0:0:0:
368,172,17476,6,0,P|332:136|300:212,1,157.500006008148,10|0,0:0|0:0,0:0:0:0:
352,264,18131,2,0,B|308:240|268:268|268:268|224:296|168:260,1,183.750007009506,2|0,0:0|0:0,0:0:0:0:
152,232,18787,6,0,P|160:296|164:384,1,125.999996154785,6|8,0:0|0:0,0:0:0:0:
28,268,19443,1,2,0:0:0:0:
28,268,19607,2,0,P|24:220|16:184,1,62.9999980773926,2|8,0:0|0:0,0:0:0:0:
49,128,19935,1,2,0:0:0:0:
200,192,20263,2,0,P|168:193|137:199,2,62.9999980773926,2|8|2,0:0|0:0|0:0,0:0:0:0:
356,236,20918,1,2,0:0:0:0:
356,236,21082,1,8,0:0:0:0:
412,176,21246,6,0,P|409:113|404:50,1,125.999996154785,6|2,0:0|0:0,0:0:0:0:
324,32,21738,2,0,P|328:88|328:108,1,62.9999980773926,8|0,0:0|0:0,0:0:0:0:
260,144,22066,1,2,0:0:0:0:
260,144,22230,2,0,P|216:144|176:136,1,62.9999980773926,2|8,0:0|0:0,0:0:0:0:
112,96,22558,6,0,P|148:144|128:220,1,125.999996154785,2|2,0:0|0:0,0:0:0:0:
76,260,23049,1,8,0:0:0:0:
148,296,23213,1,2,0:0:0:0:
156,300,23295,1,8,0:0:0:0:
164,304,23377,2,0,P|196:296|232:292,1,62.9999980773926,2|2,0:0|0:0,0:0:0:0:
296,336,23705,2,0,P|326:328|357:324,1,62.9999980773926,8|0,0:0|0:0,0:0:0:0:
448,356,24033,6,0,P|472:304|436:228,1,125.999996154785,6|8,0:0|0:0,0:0:0:0:
304,172,24689,1,2,0:0:0:0:
304,172,24853,2,0,P|252:176|212:184,1,62.9999980773926,2|8,0:0|0:0,0:0:0:0:
172,224,25181,1,2,0:0:0:0:
324,284,25509,2,0,P|376:280|416:272,1,62.9999980773926,2|8,0:0|0:0,0:0:0:0:
428,348,25836,1,2,0:0:0:0:
416,352,25918,1,8,0:0:0:0:
404,356,26000,2,0,P|360:360|312:368,1,62.9999980773926,2|2,0:0|0:0,0:0:0:0:
260,344,26328,1,8,0:0:0:0:
168,364,26492,6,0,P|108:356|20:348,1,125.999996154785,6|2,0:0|0:0,0:0:0:0:
36,268,26984,2,0,P|68:272|104:276,1,62.9999980773926,8|0,0:0|0:0,0:0:0:0:
176,248,27312,1,2,0:0:0:0:
176,248,27477,2,0,P|208:252|244:256,1,62.9999980773926,2|8,0:0|0:0,0:0:0:0:
316,204,27804,6,0,P|325:143|289:93,1,125.999996154785,2|2,0:0|0:0,0:0:0:0:
216,60,28295,1,8,0:0:0:0:
144,100,28459,1,2,0:0:0:0:
136,104,28541,1,8,0:0:0:0:
128,108,28623,2,0,P|96:100|60:96,1,62.9999980773926,2|2,0:0|0:0,0:0:0:0:
40,176,28951,2,0,P|71:179|101:188,1,62.9999980773926,8|0,0:0|0:0,0:0:0:0:
180,240,29279,6,0,P|236:232|320:224,1,125.999996154785,6|8,0:0|0:0,0:0:0:0:
368,72,29935,1,2,0:0:0:0:
368,72,30099,2,0,P|320:76|284:80,1,62.9999980773926,2|8,0:0|0:0,0:0:0:0:
236,36,30426,2,0,B|224:76|224:76|244:172,1,125.999996154785,2|2,0:0|0:0,0:0:0:0:
204,232,30918,1,8,0:0:0:0:
124,208,31082,2,0,P|88:208|48:216,1,62.9999980773926,2|0,0:0|0:0,0:0:0:0:
4,272,31410,2,0,P|8:288|12:324,3,31.4999990386963,2|2|8|2,0:0|0:0|0:0|0:0,0:0:0:0:
32,336,31738,6,0,B|104:360|80:300|164:324,1,125.999996154785,6|2,0:0|0:0,0:0:0:0:
232,344,32230,2,0,P|229:312|227:281,1,62.9999980773926,8|0,0:0|0:0,0:0:0:0:
300,244,32558,1,2,0:0:0:0:
300,244,32722,2,0,P|302:275|304:306,1,62.9999980773926,2|8,0:0|0:0,0:0:0:0:
400,316,33050,6,0,P|396:252|388:188,1,125.999996154785,2|2,0:0|0:0,0:0:0:0:
338,125,33541,1,8,0:0:0:0:
268,169,33705,2,0,P|236:161|200:157,1,62.9999980773926,2|0,0:0|0:0,0:0:0:0:
140,204,34033,1,2,0:0:0:0:
140,204,34197,2,0,P|108:200|78:192,1,62.9999980773926,8|2,0:0|0:0,0:0:0:0:
12,128,34525,6,0,P|20:172|28:268,1,125.999996154785,6|8,0:0|0:0,0:0:0:0:
84,316,35017,1,2,0:0:0:0:
88,324,35099,1,2,0:0:0:0:
92,332,35181,2,0,P|132:328|164:328,1,62.9999980773926,2|2,0:0|0:0,0:0:0:0:
232,296,35508,1,8,0:0:0:0:
292,352,35672,6,0,P|308:328|272:224,1,125.999996154785,2|2,0:0|0:0,0:0:0:0:
336,168,36164,1,8,0:0:0:0:
412,228,36328,1,2,0:0:0:0:
412,228,36410,1,2,0:0:0:0:
412,228,36492,2,0,P|440:224|488:220,1,62.9999980773926,2|2,0:0|0:0,0:0:0:0:
508,296,36819,1,8,0:0:0:0:
424,340,36984,6,0,P|368:332|284:324,1,125.999996154785,6|2,0:0|0:0,0:0:0:0:
220,352,37476,2,0,P|188:348|148:344,1,62.9999980773926,8|0,0:0|0:0,0:0:0:0:
84,304,37804,1,2,0:0:0:0:
84,304,37968,2,0,P|76:272|80:242,1,62.9999980773926,2|8,0:0|0:0,0:0:0:0:
156,184,38296,6,0,B|236:168|196:220|292:200,1,125.999996154785,6|2,0:0|0:0,0:0:0:0:
344,156,38787,1,8,0:0:0:0:
384,228,38951,1,0,0:0:0:0:
388,240,39033,1,0,0:0:0:0:
392,252,39115,2,0,P|388:280|384:320,1,62.9999980773926,2|2,0:0|0:0,0:0:0:0:
464,336,39443,2,0,P|467:304|471:273,1,62.9999980773926,8|2,0:0|0:0,0:0:0:0:
512,188,39771,6,0,P|504:116|492:48,1,125.999996154785,6|2,0:0|0:0,0:0:0:0:
412,64,40263,1,2,0:3:0:0:
412,64,40345,1,2,0:0:0:0:
412,64,40426,2,0,P|408:24|404:-8,2,62.9999980773926,2|2|2,0:0|0:3|0:0,0:0:0:0:
376,136,40918,1,8,0:0:0:0:
288,96,41082,6,0,P|240:96|200:104,1,62.9999980773926,2|8,0:0|0:0,0:0:0:0:
152,136,41410,1,2,0:0:0:0:
80,176,41574,1,2,0:0:0:0:
80,176,41656,1,2,0:0:0:0:
80,176,41739,2,0,P|32:176|-8:168,1,62.9999980773926,2|0,0:0|0:0,0:0:0:0:
12,256,42066,2,0,P|43:254|74:258,1,62.9999980773926,8|0,0:3|0:0,0:0:0:0:
152,312,42394,6,0,P|216:300|300:292,1,125.999996154785,6|2,0:0|0:0,0:0:0:0:
364,264,42886,1,2,0:0:0:0:
364,264,42967,1,2,0:0:0:0:
364,264,43049,2,0,P|360:304|360:344,1,62.9999980773926,2|8,0:0|0:0,0:0:0:0:
440,336,43377,2,0,P|441:304|444:273,1,62.9999980773926,2|2,0:0|0:0,0:0:0:0:
424,180,43705,5,6,0:0:0:0:
348,148,43869,1,8,0:0:0:0:
336,144,43951,1,8,0:0:0:0:
324,140,44033,2,0,P|280:140|236:148,1,62.9999980773926,2|2,0:0|0:0,0:0:0:0:
179,144,44361,1,8,0:3:0:0:
155,222,44525,1,2,0:0:0:0:
222,269,44689,1,8,0:0:0:0:
288,219,44853,1,0,0:0:0:0:
261,142,45017,5,6,0:0:0:0:
261,142,46164,5,2,0:0:0:0:
212,64,46328,1,4,0:0:0:0:
212,64,46820,6,0,P|216:40|224:16,2,35,0|0|0,0:0|0:0|0:0,0:0:0:0:
136,28,47148,1,2,0:0:0:0:
88,100,47312,2,0,P|96:132|100:176,1,70,8|2,0:0|0:0,0:0:0:0:
64,260,47640,6,0,B|144:236|116:296|212:272,1,140,8|2,0:0|0:0,0:0:0:0:
264,224,48131,2,0,P|252:172|180:208,1,140,8|2,0:0|0:0,0:0:0:0:
100,176,48623,6,0,P|128:116|224:80,1,140,8|2,0:0|0:0,0:0:0:0:
276,88,49115,2,0,P|328:124|352:220,1,140,8|2,0:0|0:0,0:0:0:0:
340,276,49607,6,0,P|380:268|416:264,1,70,8|2,0:0|0:0,0:0:0:0:
428,348,49935,2,0,P|393:352|359:359,1,70,8|0,0:0|0:0,0:0:0:0:
260,372,50263,5,8,0:0:0:0:
248,368,50345,1,8,0:0:0:0:
236,364,50426,2,0,P|224:328|232:272,1,70,2|2,0:0|0:0,0:0:0:0:
160,244,50754,2,0,P|156:212|152:196,2,35,8|8|2,0:0|0:0|0:0,0:0:0:0:
100,304,51082,1,2,0:0:0:0:
68,212,51246,5,8,0:0:0:0:
64,200,51328,1,8,0:0:0:0:
60,188,51410,2,0,P|68:140|80:40,1,140,2|8,0:0|0:0,0:0:0:0:
164,36,51902,2,0,P|160:64|156:128,1,70,8|8,0:0|0:0,0:0:0:0:
158,188,52230,1,8,0:0:0:0:
238,212,52394,1,8,0:0:0:0:
287,141,52558,1,8,0:0:0:0:
235,74,52722,1,12,0:0:0:0:
235,74,54853,5,2,0:0:0:0:
192,148,55017,1,2,0:0:0:0:
188,160,55099,1,2,0:0:0:0:
184,172,55181,2,0,P|188:196|192:252,1,78.7500030040742,2|0,0:0|0:0,0:0:0:0:
168,284,55509,6,0,P|165:244|160:200,1,70,14|8,0:1|0:0,0:0:0:0:
96,164,55836,2,0,P|94:129|90:94,1,70,2|8,0:0|0:0,0:0:0:0:
148,32,56164,1,2,0:0:0:0:
148,32,56328,1,8,0:0:0:0:
224,68,56492,2,0,P|280:68|312:64,1,70,2|8,0:0|0:0,0:0:0:0:
380,24,56820,6,0,P|376:56|374:93,1,70,14|8,0:1|0:0,0:0:0:0:
432,152,57148,2,0,P|438:204|441:256,1,105,2|0,0:0|0:0,0:0:0:0:
444,300,57476,1,2,0:0:0:0:
380,356,57640,1,8,0:0:0:0:
304,316,57804,2,0,P|304:272|300:228,1,70,2|8,0:0|0:0,0:0:0:0:
236,172,58131,6,0,P|180:164|140:172,1,70,14|8,0:1|0:0,0:0:0:0:
92,204,58459,2,0,P|76:252|100:312,1,105,2|0,0:0|0:0,0:0:0:0:
124,332,58787,1,2,0:0:0:0:
196,288,58951,1,8,0:0:0:0:
260,344,59115,2,0,P|300:348|344:348,1,70,2|8,0:0|0:0,0:0:0:0:
372,260,59443,6,0,P|406:261|441:265,1,70,14|8,0:1|0:0,0:0:0:0:
512,220,59771,1,14,0:1:0:0:
448,164,59935,1,8,0:0:0:0:
448,164,60017,1,8,0:0:0:0:
448,164,60099,2,0,P|413:168|378:169,1,70,14|8,0:1|0:0,0:0:0:0:
296,148,60426,2,0,P|284:152|256:156,3,35,14|8|8|8,0:1|0:0|0:0|0:0,0:0:0:0:
228,184,60754,6,0,P|236:96|240:36,1,140,14|2,0:1|0:0,0:0:0:0:
164,8,61246,1,8,0:0:0:0:
88,44,61410,1,2,0:0:0:0:
88,44,61574,2,0,P|92:76|96:136,1,70,8|2,0:0|0:0,0:0:0:0:
36,192,61902,6,0,P|28:264|20:352,1,140,12|8,0:0|0:0,0:0:0:0:
96,372,62394,1,2,0:0:0:0:
96,372,62558,1,8,0:0:0:0:
164,324,62722,2,0,P|208:324|248:328,1,70,2|8,0:0|0:0,0:0:0:0:
308,364,63049,2,0,P|376:352|416:348,1,105,2|0,0:0|0:0,0:0:0:0:
452,368,63377,6,0,P|440:296|428:216,1,140,14|2,0:1|0:0,0:0:0:0:
488,168,63869,1,8,0:0:0:0:
488,168,64033,2,0,P|492:128|500:96,1,70,2|8,0:0|0:0,0:0:0:0:
432,44,64361,2,0,P|396:36|340:52,1,70,2|8,0:0|0:0,0:0:0:0:
284,96,64689,5,8,0:0:0:0:
372,136,64853,1,8,0:0:0:0:
184,188,65181,2,0,P|192:248|200:336,1,140,12|8,0:0|0:0,0:0:0:0:
272,368,65672,1,8,0:0:0:0:
272,368,65836,1,8,0:0:0:0:
356,316,66000,6,0,P|400:312|436:312,1,70,12|8,0:1|0:0,0:0:0:0:
424,228,66328,2,0,P|389:228|354:232,1,70,2|8,0:0|0:0,0:0:0:0:
280,196,66655,1,2,0:0:0:0:
280,196,66819,1,8,0:0:0:0:
232,264,66984,2,0,P|236:292|240:344,1,70,2|8,0:0|0:0,0:0:0:0:
140,352,67313,6,0,P|137:317|132:282,1,70,14|8,0:1|0:0,0:0:0:0:
68,228,67640,2,0,P|71:175|77:123,1,105,2|0,0:0|0:0,0:0:0:0:
80,80,67967,1,2,0:0:0:0:
160,52,68131,1,8,0:0:0:0:
224,108,68295,2,0,P|248:104|300:100,1,70,2|8,0:0|0:0,0:0:0:0:
356,176,68623,6,0,P|390:173|425:168,1,70,14|8,0:1|0:0,0:0:0:0:
492,220,68951,2,0,P|484:264|476:336,1,105,2|0,0:0|0:0,0:0:0:0:
476,368,69278,1,2,0:0:0:0:
400,336,69442,1,8,0:0:0:0:
324,372,69607,2,0,P|288:372|254:367,1,70,2|8,0:0|0:0,0:0:0:0:
208,280,69935,6,0,P|172:280|138:284,1,70,14|8,0:1|0:0,0:0:0:0:
128,292,70181,1,8,0:0:0:0:
120,300,70262,1,2,0:0:0:0:
68,364,70427,2,0,P|72:308|80:212,1,140,12|2,0:0|0:0,0:0:0:0:
28,156,70918,2,0,P|24:112|16:68,1,70,2|2,0:0|0:0,0:0:0:0:
108,44,71246,6,0,P|110:78|116:113,1,70,14|8,0:1|0:0,0:0:0:0:
184,164,71574,2,0,P|240:168|272:160,1,70,2|8,0:0|0:0,0:0:0:0:
328,124,71901,1,2,0:0:0:0:
376,192,72066,2,0,P|372:224|368:284,1,70,8|2,0:0|0:0,0:0:0:0:
460,296,72394,6,0,P|466:226|474:156,1,140,8|8,0:0|0:0,0:0:0:0:
440,80,72885,1,2,0:0:0:0:
440,80,73049,1,8,0:0:0:0:
360,108,73213,2,0,P|316:108|276:104,1,70,2|8,0:0|0:0,0:0:0:0:
228,48,73541,2,0,P|193:45|158:45,1,70,2|8,0:0|0:0,0:0:0:0:
76,100,73869,5,8,0:0:0:0:
72,112,73951,1,8,0:0:0:0:
68,124,74033,2,0,P|72:152|76:212,1,70,2|2,0:0|0:0,0:0:0:0:
36,268,74361,2,0,P|31:302|28:337,1,70,8|0,0:0|0:0,0:0:0:0:
108,364,74689,2,0,P|110:329|115:294,1,70,8|2,0:0|0:0,0:0:0:0:
184,224,75017,6,0,B|254:211|251:268|321:248,1,140,12|8,0:0|0:0,0:0:0:0:
386,201,75508,1,8,0:0:0:0:
386,201,75672,1,8,0:0:0:0:
400,284,75836,2,0,P|396:316|392:380,1,70,8|8,0:0|0:0,0:0:0:0:
476,372,76164,2,0,P|478:337|482:302,1,70,8|8,0:0|0:0,0:0:0:0:
512,208,76492,6,0,P|504:136|492:64,1,140,6|8,0:0|0:0,0:0:0:0:
428,16,76984,1,0,0:0:0:0:
372,80,77148,2,0,P|320:80|288:72,1,70,2|2,0:0|0:0,0:0:0:0:
224,48,77476,2,0,P|189:42|154:44,1,70,8|2,0:0|0:0,0:0:0:0:
56,44,77804,6,0,P|92:84|80:172,1,140,10|8,0:1|0:0,0:0:0:0:
28,228,78295,1,2,0:0:0:0:
28,228,78377,1,2,0:0:0:0:
28,228,78459,2,0,P|64:220|104:216,1,70,2|2,0:0|0:0,0:0:0:0:
152,280,78787,2,0,P|186:276|220:268,1,70,8|0,0:0|0:0,0:0:0:0:
280,188,79115,6,0,B|268:236|268:236|288:352,1,140,2|12,0:0|0:0,0:0:0:0:
423,231,79771,2,0,B|435:183|435:183|415:67,1,140,2|12,0:0|0:0,0:0:0:0:
252,32,80426,6,0,B|174:21|205:81|100:64,1,140,12|8,0:0|0:0,0:0:0:0:
44,40,80918,2,0,P|16:92|56:184,1,140,12|8,0:0|0:0,0:0:0:0:
116,196,81410,2,0,P|112:248|108:300,1,105,14|0,0:1|0:0,0:0:0:0:
128,340,81738,5,14,0:1:0:0:
204,308,81902,1,8,0:0:0:0:
276,348,82066,2,0,P|320:340|360:336,1,70,8|8,0:0|0:0,0:0:0:0:
408,280,82394,2,0,P|412:240|388:188,1,70,8|8,0:0|0:0,0:0:0:0:
336,160,82722,1,8,0:0:0:0:
336,160,82804,1,8,0:0:0:0:
336,160,82886,1,2,0:0:0:0:
316,240,83049,5,14,0:0:0:0:
316,240,84033,2,0,P|320:192|328:144,1,78.7500030040742,2|0,0:3|0:0,0:0:0:0:
292,136,84361,6,0,P|304:208|308:292,1,140,4|8,0:0|0:0,0:0:0:0:
228,300,84853,1,2,0:0:0:0:
228,300,84935,1,8,0:0:0:0:
228,300,85017,2,0,P|232:364|236:392,1,70,10|10,0:1|0:1,0:0:0:0:
148,376,85345,1,8,0:0:0:0:
104,288,85508,6,0,P|112:204|120:148,1,140,10|2,0:1|0:0,0:0:0:0:
176,84,86000,1,8,0:0:0:0:
176,84,86164,1,2,0:0:0:0:
240,136,86328,2,0,P|276:140|324:144,1,70,8|2,0:1|0:0,0:0:0:0:
376,92,86657,2,0,P|410:88|445:85,1,70,8|0,0:0|0:0,0:0:0:0:
496,168,86984,6,0,P|516:248|488:304,1,140,14|8,0:1|0:0,0:0:0:0:
424,344,87476,1,2,0:0:0:0:
424,344,87558,1,8,0:0:0:0:
424,344,87640,2,0,P|392:340|332:336,1,70,10|10,0:1|0:1,0:0:0:0:
272,360,87967,1,8,0:0:0:0:
204,288,88131,6,0,B|200:236|200:236|218:202|218:202|213:134,1,140,10|2,0:1|0:0,0:0:0:0:
260,84,88623,1,2,0:0:0:0:
336,116,88787,1,2,0:0:0:0:
336,116,89279,2,0,P|384:108|432:104,1,78.7500030040742,2|0,0:3|0:0,0:0:0:0:
456,76,89607,6,0,P|444:144|440:232,1,140,14|8,0:1|0:0,0:0:0:0:
376,268,90098,1,2,0:0:0:0:
376,268,90180,1,2,0:0:0:0:
376,268,90262,2,0,P|380:308|384:360,1,70,10|10,0:1|0:1,0:0:0:0:
308,380,90589,1,8,0:0:0:0:
216,348,90754,6,0,P|208:264|200:208,1,140,12|10,0:1|0:1,0:0:0:0:
140,148,91245,1,8,0:0:0:0:
140,148,91409,1,2,0:0:0:0:
80,208,91574,2,0,P|44:212|-4:216,1,70,8|2,0:1|0:0,0:0:0:0:
16,300,91902,2,0,P|52:296|100:292,1,70,8|0,0:0|0:0,0:0:0:0:
172,244,92230,6,0,B|257:232|215:284|305:274,1,140,8|8,0:0|0:0,0:0:0:0:
380,236,92722,1,8,0:0:0:0:
336,164,92886,2,0,P|300:156|260:152,1,70,8|8,0:0|0:0,0:0:0:0:
280,68,93213,2,0,P|314:71|348:79,1,70,8|8,0:0|0:0,0:0:0:0:
435,31,93541,6,0,P|479:67|475:159,1,140,8|8,0:0|0:0,0:0:0:0:
462,227,94033,1,8,0:0:0:0:
462,227,94197,2,0,P|434:223|378:219,1,70,8|8,0:0|0:0,0:0:0:0:
314,249,94525,2,0,P|279:246|244:241,1,70,8|8,0:0|0:0,0:0:0:0:
186,161,94853,5,4,0:0:0:0:
126,217,95017,1,2,0:0:0:0:
62,165,95181,1,2,0:0:0:0:
2,221,95345,2,0,P|10:273|18:381,1,140,8|2,0:0|0:0,0:0:0:0:
98,381,95836,1,2,0:0:0:0:
167,311,96000,6,0,B|242:298|223:365|315:339,1,140,6|8,0:0|0:0,0:0:0:0:
308,334,96410,1,8,0:0:0:0:
320,326,96492,1,2,0:0:0:0:
388,274,96656,2,0,P|384:230|372:186,1,70,2|0,0:0|0:0,0:0:0:0:
460,178,96984,2,0,P|467:212|476:294,1,105,2|0,0:0|0:0,0:0:0:0:
484,322,97312,5,4,0:0:0:0:
268,118,97967,2,0,P|272:86|276:62,2,35,8|8|2,0:0|0:0|0:0,0:0:0:0:
