osu file format v14

[General]
AudioFilename: audio.mp3
AudioLeadIn: 0
PreviewTime: 59414
Countdown: 0
SampleSet: Soft
StackLeniency: 0.7
Mode: 0
LetterboxInBreaks: 0
WidescreenStoryboard: 1

[Editor]
Bookmarks: 22703
DistanceSpacing: 1
BeatDivisor: 2
GridSize: 4
TimelineZoom: 1.1

[Metadata]
Title:Koi ni Naritai AQUARIUM
TitleUnicode:恋になりたいAQUARIUM
Artist:Aqours
ArtistUnicode:Aqours
Creator:Doyak
Version:Easy
Source:ラブライブ!サンシャイン!!
Tags:love live! sunshine!! school idol project japanese pop jpop j-pop LoveLive! Inami Anju 伊波杏樹 Aida Rikako 逢田梨香子 Suwa Nanaka 諏訪ななか Komiya Arisa 小宮有紗 Saito Shuka 斉藤朱夏 Kobayashi Aika 小林愛香 Takatsuki Kanako 高槻かなこ Suzuki Aina 鈴木愛奈 Furihata Ai 降幡 愛 Takami Chika 高海千歌 Matsuura Kanan 松浦果南 Kurosawa Dia 黒澤ダイヤ Watanabe You 渡辺 曜 Tsushima Yoshiko 津島善子 Kunikida Hanamaru 国木田花丸 Ohara Mari 小原鞠莉 Kurosawa Ruby 黒澤ルビィ Mir Kyairie NotABox 畑 亜貴 Aki Hata 佐々倉有吾 Yugo Yuugo Yūgo Sasakura 渡辺和紀 Kazunori Watanabe ラブライブ!スクールアイドルフェスティバル ALL STARS School Idol Festival video game mobile llsifas koini 恋アク 恋リウム
BeatmapID:3016321
BeatmapSetID:1382230

[Difficulty]
HPDrainRate:3
CircleSize:3
OverallDifficulty:3
ApproachRate:4
SliderMultiplier:0.9
SliderTickRate:1

[Events]
//Background and Video events
0,0,"310_t.png",0,0
//Break Periods
//Storyboard Layer 0 (Background)
//Storyboard Layer 1 (Fail)
//Storyboard Layer 2 (Pass)
//Storyboard Layer 3 (Foreground)
//Storyboard Layer 4 (Overlay)
//Storyboard Sound Samples

[TimingPoints]
48,431.654676258993,4,2,2,70,1,0
695,-100,4,2,2,50,0,0
1774,-100,4,2,2,70,0,0
2422,-100,4,2,2,50,0,0
3501,-100,4,2,2,70,0,0
4148,-100,4,2,2,50,0,0
5227,-100,4,2,2,70,0,0
5335,-100,4,2,2,50,0,0
6091,-100,4,2,2,70,0,0
6199,-100,4,2,2,50,0,0
6954,-100,4,2,1,85,0,0
12134,-100,4,2,1,100,0,0
13213,-100,4,2,1,85,0,0
13860,-100,4,2,1,60,0,0
25947,-100,4,2,1,70,0,0
27673,-100,4,2,1,60,0,0
39760,-100,4,2,1,70,0,0
40947,-100,4,2,1,50,0,0
41486,-100,4,2,1,85,0,0
49040,-100,4,2,1,70,0,0
57026,-100,4,2,1,50,0,0
57889,-100,4,2,1,50,0,0
58753,-100,4,2,1,30,0,0
59616,-100,4,2,1,85,0,0
60479,-100,4,2,1,85,0,1
61774,-100,4,2,1,85,0,1
62098,-100,4,2,1,5,0,1
62206,-100,4,2,1,85,0,1
75587,-100,4,2,1,85,0,1
75911,-100,4,2,1,5,0,1
76019,-100,4,2,1,85,0,1
79472,-100,4,2,1,85,0,1
79688,-100,4,2,1,85,0,1
80335,-100,4,2,1,85,0,1
80551,-100,4,2,1,85,0,1
81630,-100,4,2,1,85,0,1
81954,-100,4,2,1,5,0,1
82062,-100,4,2,1,85,0,1
94040,-100,4,2,1,5,0,1
94148,-100,4,2,1,85,0,1
95012,-100,4,2,1,70,0,0
98465,-100,4,2,1,70,0,0
100191,-100,4,2,1,70,0,0
104076,-100,4,2,1,70,0,0
104400,-100,4,2,1,5,0,0
104508,-100,4,2,1,70,0,0
104940,-100,4,2,1,70,0,0
105263,-100,4,2,1,5,0,0
105371,-100,4,2,1,70,0,0
109472,-100,4,2,1,75,0,0
110119,-100,4,2,1,80,0,0
110767,-100,4,2,1,85,0,0
111414,-100,4,2,1,90,0,0
112062,-100,4,2,1,95,0,0
112709,-100,4,2,1,100,0,0
112817,-100,4,2,1,50,0,0
115515,-100,4,2,1,100,0,0
117458,-100,4,2,1,5,0,0

[Colours]
Combo1 : 160,237,56
Combo2 : 0,143,221
Combo3 : 74,219,219
Combo4 : 26,234,108

[HitObjects]
233,20,48,6,0,L|277:26,1,45,4|6,0:2|0:2,0:0:0:0:
233,189,1774,6,0,L|277:195,1,45,4|6,0:2|0:2,0:0:0:0:
233,358,3501,6,0,L|277:364,1,45,4|6,0:2|0:2,0:0:0:0:
434,266,5227,6,0,P|485:197|454:116,1,180,4|4,0:2|0:2,0:0:0:0:
365,100,6522,1,0,3:2:0:0:
396,185,6954,6,0,L|217:159,1,180,6|2,3:2|3:2,0:0:0:0:
126,146,8249,1,8,0:2:0:0:
160,229,8681,2,0,P|106:284|69:216,1,180,2|2,3:2|3:2,0:0:0:0:
126,146,9976,1,8,0:2:0:0:
113,55,10407,6,0,L|202:42,1,90,4|8,3:2|0:2,0:2:0:0:
266,105,11271,2,0,L|355:92,1,90,4|8,3:2|3:2,0:2:0:0:
429,36,12134,5,6,3:2:0:0:
442,127,12566,1,6,3:2:0:0:
455,218,12997,1,6,3:2:0:0:
338,354,13860,6,0,L|248:367,2,90,6|10|2,3:2|0:2|3:2,0:2:0:0:
318,266,15155,1,8,0:2:0:0:
298,178,15587,2,0,P|217:146|148:198,1,180,2|0,3:2|3:2,0:2:0:0:
231,233,16882,1,10,0:2:0:0:
314,266,17314,6,0,L|403:253,1,90,2|10,3:2|0:2,0:0:0:0:
492,241,18177,2,0,L|479:152,1,90,2|10,3:2|0:2,0:0:0:0:
512,68,19040,2,0,P|468:60|427:77,2,90,2|10|2,3:2|0:2|3:2,0:2:0:0:
478,151,20335,1,8,0:2:0:0:
388,158,20767,6,0,L|209:183,1,180,6|2,3:2|3:2,0:0:0:0:
98,324,22494,2,0,L|276:349,1,180,2|2,3:2|3:2,0:0:0:0:
365,363,23789,1,10,0:2:0:0:
332,278,24220,6,0,P|375:270|416:287,2,90,2|10|2,3:2|0:2|3:2,0:2:0:0:
169,355,25947,1,6,0:2:0:0:
182,264,26379,1,6,0:2:0:0:
195,173,26810,2,0,L|105:161,1,90,6|8,0:2|0:2,0:2:0:0:
99,71,27673,6,0,L|9:83,2,90,6|10|2,3:2|0:2|3:2,0:2:0:0:
105,161,28968,1,8,0:2:0:0:
59,239,29400,2,0,P|128:290|208:257,1,180,2|0,3:2|3:2,0:2:0:0:
262,185,30695,1,10,0:2:0:0:
351,198,31127,6,0,L|338:287,1,90,2|10,3:2|0:2,0:0:0:0:
325,376,31990,2,0,L|236:363,1,90,2|8,3:2|0:2,0:0:0:0:
249,275,32853,2,0,L|262:186,2,90,2|10|0,3:2|0:2|3:2,0:2:0:0:
236,363,34148,1,8,0:2:0:0:
165,308,34580,6,0,L|190:129,1,180,4|2,3:2|3:2,0:2:0:0:
203,40,35875,1,8,0:2:0:0:
273,95,36306,2,0,P|354:127|423:75,1,180,2|2,3:2|3:2,0:2:0:0:
340,33,37601,1,10,0:2:0:0:
253,6,38033,6,0,L|164:19,2,90,2|10|2,3:2|0:2|3:2,0:2:0:0:
322,172,39760,1,6,3:2:0:0:
231,185,40192,1,6,3:2:0:0:
140,198,40623,1,6,3:2:0:0:
193,368,41486,6,0,B|255:305|255:305|320:369,2,180,2|2|2,3:2|3:2|3:2,0:0:0:0:
129,304,43645,1,2,3:2:0:0:
192,240,44076,2,0,L|255:176,1,90,2|0,3:2|3:2,0:2:0:0:
300,97,44940,6,0,L|210:96,1,90,2|0,3:2|0:0,0:0:0:0:
210,6,45803,2,0,L|299:6,1,90,2|0,3:2|0:0,0:0:0:0:
377,51,46666,1,2,3:2:0:0:
455,94,47098,2,0,P|467:51|455:8,2,90,10|0|10,0:2|3:2|0:2,0:0:0:0:
377,139,48393,1,2,3:2:0:0:
454,184,48824,6,0,L|467:273,1,90,14|2,0:2|3:2,0:2:0:0:
403,337,49688,1,8,0:2:0:0:
325,291,50119,2,0,L|312:202,1,90,2|10,3:2|0:2,0:0:0:0:
377,139,50983,1,2,3:2:0:0:
230,34,51846,6,0,P|185:28|145:46,1,90,6|2,3:2|3:2,0:2:0:0:
160,134,52709,2,0,P|204:139|244:121,1,90,6|2,3:2|3:2,0:2:0:0:
315,65,53573,1,6,3:2:0:0:
328,153,54004,1,2,3:2:0:0:
410,185,54436,1,2,3:2:0:0:
423,273,54868,1,2,3:2:0:0:
353,333,55299,6,0,P|273:362|205:310,1,180,4|2,3:2|3:2,0:0:0:0:
135,252,56594,1,8,0:2:0:0:
219,221,57026,2,0,L|308:233,1,90,2|2,0:2|0:2,0:0:0:0:
397,247,57889,2,0,P|438:181|363:161,1,180,2|0,0:2|0:2,0:2:0:0:
191,108,59616,6,0,L|181:174,1,67.5,6|6,3:2|3:2,0:2:0:0:
166,286,60479,6,0,P|246:256|314:309,1,180,6|2,3:2|3:2,0:2:0:0:
397,346,61774,1,12,0:2:0:0:
385,256,62206,2,0,L|372:166,1,90,0|8,3:2|0:2,0:2:0:0:
407,83,63069,1,2,3:2:0:0:
317,95,63501,1,8,0:2:0:0:
249,154,63932,6,0,P|204:160|164:142,1,90,2|8,3:2|0:2,0:2:0:0:
107,72,64796,2,0,P|62:65|22:83,1,90,2|8,3:2|0:2,0:2:0:0:
74,155,65659,2,0,L|99:333,1,180,2|2,3:2|3:2,0:2:0:0:
189,321,66954,1,8,0:2:0:0:
279,309,67386,6,0,L|266:219,2,90,6|8|0,3:2|0:2|3:2,0:2:0:0:
352,365,68681,1,10,0:2:0:0:
408,292,69112,2,0,P|438:212|385:144,1,180,2|2,3:2|3:2,0:2:0:0:
294,154,70407,1,8,0:2:0:0:
264,68,70839,6,0,L|174:55,2,90,2|8|2,3:2|0:2|3:2,0:2:0:0:
354,80,72133,1,10,0:2:0:0:
444,92,72565,5,4,3:2:0:0:
432,182,72997,1,12,0:2:0:0:
342,170,73428,1,4,0:2:0:0:
354,80,73860,1,12,0:2:0:0:
271,115,74292,6,0,P|191:145|123:92,1,180,6|2,3:2|3:2,0:2:0:0:
40,55,75587,1,12,0:2:0:0:
52,145,76019,2,0,L|65:235,1,90,0|8,3:2|0:2,0:2:0:0:
30,318,76882,1,2,3:2:0:0:
120,306,77314,1,8,0:2:0:0:
210,294,77745,6,0,P|217:249|199:209,1,90,2|8,3:2|0:2,0:2:0:0:
147,135,78609,2,0,P|140:90|158:50,1,90,2|8,3:2|0:2,0:2:0:0:
237,8,79472,6,0,L|303:18,1,67.5,6|6,3:2|3:2,0:2:0:0:
303,130,80335,2,0,L|237:140,1,67.5,6|6,3:2|3:2,0:2:0:0:
237,252,81199,5,2,3:2:0:0:
302,312,81630,2,0,P|222:341|154:288,1,180,12|8,0:2|0:2,0:0:0:0:
108,210,82925,2,0,L|18:223,1,90,6|8,3:2|0:2,0:2:0:0:
8,133,83789,1,2,3:2:0:0:
97,120,84220,1,10,0:2:0:0:
153,50,84652,6,0,P|196:42|237:60,1,90,4|10,3:2|0:2,0:0:0:0:
270,144,85515,2,0,P|310:161|354:154,1,90,2|8,3:2|0:2,0:0:0:0:
424,98,86378,2,0,L|411:8,2,90,2|8|2,3:2|0:2|3:2,0:2:0:0:
438,186,87673,1,8,0:2:0:0:
385,259,88105,6,0,P|448:275|506:243,2,135,6|2|8,3:2|0:2|0:2,0:2:0:0:
314,202,89832,2,0,L|301:292,1,90,2|10,3:2|0:2,0:0:0:0:
212,276,90695,1,2,3:2:0:0:
224,187,91126,1,10,3:2:0:0:
133,172,91558,6,0,L|146:82,2,90,6|6|6,3:2|3:2|3:2,0:0:0:0:
122,261,92853,1,6,0:2:0:0:
364,53,95012,6,0,P|296:0|215:29,1,180,6|2,3:2|3:2,0:2:0:0:
282,88,96306,1,8,0:2:0:0:
353,142,96738,2,0,L|443:129,1,90,0|8,3:2|0:2,0:2:0:0:
457,217,97601,2,0,L|367:230,1,90,2|8,3:2|0:2,0:0:0:0:
278,241,98465,5,6,3:2:0:0:
189,253,98896,1,12,0:2:0:0:
177,164,99328,1,6,3:2:0:0:
88,176,99760,1,12,0:2:0:0:
51,258,100191,6,0,P|-2:190|27:109,1,180,2|2,3:2|3:2,0:2:0:0:
63,27,101486,1,8,0:2:0:0:
117,99,101918,6,0,P|145:66|152:22,2,90,6|8|0,3:2|0:2|3:2,0:2:0:0:
27,109,103213,1,10,0:2:0:0:
82,181,103645,1,2,3:2:0:0:
171,170,104076,2,0,L|261:157,1,90,12|2,0:2|3:2,0:0:0:0:
272,246,104940,1,12,0:2:0:0:
361,234,105371,6,0,L|348:144,1,90,6|8,3:2|0:2,0:2:0:0:
437,133,106235,2,0,L|450:223,1,90,6|8,3:2|0:2,0:2:0:0:
415,305,107098,5,6,3:2:0:0:
362,232,107529,1,0,3:2:0:0:
326,315,107961,1,0,3:2:0:0:
273,242,108393,1,2,3:2:0:0:
237,325,108825,5,6,3:2:0:0:
130,242,109472,1,6,3:2:0:0:
149,108,110119,1,6,3:2:0:0:
274,58,110767,1,6,3:2:0:0:
381,141,111414,1,6,3:2:0:0:
362,275,112062,1,6,3:2:0:0:
237,325,112709,6,2,B|80:303|80:303|117:36|117:36|277:59,1,585,6|6,3:2|3:2,0:1:0:0:
261,146,115946,1,6,3:2:0:0:
248,234,116378,2,0,B|315:244|315:244|302:333|302:333|236:324,1,225,6|0,3:2|0:2,0:2:0:0:
