osu file format v14

[General]
AudioFilename: Aqours - Kimi no kokoro wa Kagayaiteru kai (Short ver).mp3
AudioLeadIn: 0
PreviewTime: 58405
Countdown: 0
SampleSet: Soft
StackLeniency: 0.7
Mode: 1
LetterboxInBreaks: 0
WidescreenStoryboard: 1

[Editor]
Bookmarks: 3020,8954,14229,19339,24778,29394,35328,39943,45548,50822,56427,58405,63680,69284,74888,79339,84614,90548,95328,101262
DistanceSpacing: 0.8
BeatDivisor: 4
GridSize: 16
TimelineZoom: 1.9

[Metadata]
Title:Kimi no kokoro wa kagayaiteru kai? (Short Ver.)
TitleUnicode:君のこころは輝いてるかい?(Short Ver.)
Artist:Aqours
ArtistUnicode:Aqours
Creator:Ayane_Luke
Version:Muzukashii
Source:LoveLive! Sunshine!!
Tags:ラブライブ!サンシャイン!! kimi no kokoro wa kagayaiteru kai step zero to one aqours heroes love live sunshine school idol project Inami Anju 伊波杏樹 Aida Rikako 逢田梨香子 Suwa Nanaka 諏訪ななか Komiya Arisa 小宮有紗 Saito Shuka 斉藤朱夏 Kobayashi Aika 小林愛香 Takatsuki Kanako 高槻かなこ Suzuki Aina 鈴木愛奈 Furihata Ai 降幡 愛 Takami Chika 高海千歌 Sakurauchi Riko 桜内梨子 Matsuura Kanan 松浦果南 Kurosawa Dia 黒澤ダイヤ Watanabe You 渡辺 曜 Tsushima Yoshiko 津島善子 Kunikida Hanamaru 国木田花丸 Ohara Mari 小原鞠莉 Kurosawa Ruby 黒澤ルビィ
BeatmapID:1110265
BeatmapSetID:522847

[Difficulty]
HPDrainRate:6
CircleSize:2
OverallDifficulty:5
ApproachRate:6
SliderMultiplier:1.4
SliderTickRate:1

[Events]
//Background and Video events
0,0,"Taiko BG.jpg",0,0
//Break Periods
//Storyboard Layer 0 (Background)
//Storyboard Layer 1 (Fail)
//Storyboard Layer 2 (Pass)
//Storyboard Layer 3 (Foreground)
//Storyboard Sound Samples

[TimingPoints]
3680,329.67032967033,4,2,0,95,1,0
45877,-125,4,2,0,95,0,0
45877,-125,4,2,0,95,0,0
49009,-117.647058823529,4,2,0,95,0,0
49339,-107.52688172043,4,2,0,95,0,0
49504,-103.092783505155,4,2,0,95,0,0
49669,-100,4,2,0,95,0,0
49669,-100,4,2,0,95,0,0
59064,-100,4,2,0,95,0,1
79833,-100,4,2,0,95,0,0
80163,-100,4,2,0,95,0,1
94669,-100,4,2,0,95,0,0
106537,342.857142857143,4,2,0,95,1,0
107908,697.674418604651,4,2,0,95,1,0
109652,779.220779220779,4,2,0,95,1,0

[HitObjects]
256,192,1207,8,0,3350,0:0:0:0:
128,96,3680,5,4,0:0:0:0:
128,96,4833,1,4,0:0:0:0:
128,96,5987,1,8,0:0:0:0:
128,96,6317,1,4,0:0:0:0:
128,96,7471,1,4,0:0:0:0:
128,96,7965,1,0,0:0:0:0:
128,96,8460,1,0,0:0:0:0:
128,96,8542,1,0,0:0:0:0:
128,96,8625,1,0,0:0:0:0:
128,96,8954,1,0,0:0:0:0:
128,96,9284,1,0,0:0:0:0:
128,96,9614,1,0,0:0:0:0:
128,96,9943,1,8,0:0:0:0:
128,96,10108,1,0,0:0:0:0:
128,96,10438,1,0,0:0:0:0:
128,96,10603,1,8,0:0:0:0:
128,96,10767,1,0,0:0:0:0:
128,96,11592,1,0,0:0:0:0:
128,96,11921,1,0,0:0:0:0:
128,96,12251,1,0,0:0:0:0:
128,96,12581,1,0,0:0:0:0:
128,96,12745,1,12,0:0:0:0:
128,96,13075,1,12,0:0:0:0:
128,96,13240,1,12,0:0:0:0:
128,96,13570,1,0,0:0:0:0:
128,96,14229,1,0,0:0:0:0:
128,96,14559,1,8,0:0:0:0:
128,96,14888,1,0,0:0:0:0:
128,96,15053,1,0,0:0:0:0:
128,96,15218,1,8,0:0:0:0:
128,96,15548,1,0,0:0:0:0:
128,96,15877,1,0,0:0:0:0:
128,96,16207,1,8,0:0:0:0:
128,96,16372,1,0,0:0:0:0:
128,96,16537,1,8,0:0:0:0:
128,96,16866,1,0,0:0:0:0:
128,96,17196,1,0,0:0:0:0:
128,96,17526,1,0,0:0:0:0:
128,96,17690,1,0,0:0:0:0:
128,96,17855,1,8,0:0:0:0:
128,96,18020,1,0,0:0:0:0:
128,96,18350,1,0,0:0:0:0:
128,96,18515,1,8,0:0:0:0:
128,96,18680,1,4,0:0:0:0:
128,96,19009,1,4,0:0:0:0:
128,96,19339,1,4,0:0:0:0:
128,96,19833,1,8,0:0:0:0:
128,96,20163,1,0,0:0:0:0:
128,96,20493,1,8,0:0:0:0:
128,96,20822,1,0,0:0:0:0:
128,96,20987,1,0,0:0:0:0:
128,96,21070,1,0,0:0:0:0:
128,96,21152,1,0,0:0:0:0:
128,96,21317,1,12,0:0:0:0:
128,96,21647,1,12,0:0:0:0:
128,96,21976,1,12,0:0:0:0:
128,96,22306,1,0,0:0:0:0:
128,96,22471,1,8,0:0:0:0:
128,96,22636,1,0,0:0:0:0:
128,96,22965,1,0,0:0:0:0:
128,96,23130,1,8,0:0:0:0:
128,96,23295,1,0,0:0:0:0:
128,96,23625,1,0,0:0:0:0:
128,96,23707,1,0,0:0:0:0:
128,96,23789,1,8,0:0:0:0:
128,96,24119,1,12,0:0:0:0:
128,96,24284,1,0,0:0:0:0:
128,96,24449,1,12,0:0:0:0:
128,96,24778,1,0,0:0:0:0:
128,96,25108,1,8,0:0:0:0:
128,96,25438,1,0,0:0:0:0:
128,96,25603,1,0,0:0:0:0:
128,96,25767,1,8,0:0:0:0:
128,96,25932,1,0,0:0:0:0:
128,96,26262,1,0,0:0:0:0:
128,96,26427,1,8,0:0:0:0:
128,96,26756,1,0,0:0:0:0:
128,96,27086,1,8,0:0:0:0:
128,96,27416,1,0,0:0:0:0:
128,96,27745,1,8,0:0:0:0:
128,96,27910,1,0,0:0:0:0:
128,96,28240,1,0,0:0:0:0:
128,96,28405,1,8,0:0:0:0:
128,96,28570,1,0,0:0:0:0:
128,96,28899,1,0,0:0:0:0:
128,96,29064,1,8,0:0:0:0:
128,96,29394,1,4,0:0:0:0:
128,96,29723,1,4,0:0:0:0:
128,96,30053,1,4,0:0:0:0:
128,96,30383,1,8,0:0:0:0:
128,96,30712,1,0,0:0:0:0:
128,96,30877,1,0,0:0:0:0:
128,96,31042,1,8,0:0:0:0:
128,96,31207,1,0,0:0:0:0:
128,96,31537,1,0,0:0:0:0:
128,96,31701,1,8,0:0:0:0:
128,96,32031,1,0,0:0:0:0:
128,96,32361,1,8,0:0:0:0:
128,96,32690,1,0,0:0:0:0:
128,96,33020,1,12,0:0:0:0:
128,96,33350,1,4,0:0:0:0:
128,96,33680,1,8,0:0:0:0:
128,96,33844,1,0,0:0:0:0:
128,96,34174,1,8,0:0:0:0:
128,96,34256,1,8,0:0:0:0:
128,96,34339,1,8,0:0:0:0:
128,96,34504,1,0,0:0:0:0:
128,96,34669,1,12,0:0:0:0:
128,96,34998,1,12,0:0:0:0:
128,96,35328,1,4,0:0:0:0:
128,96,35658,1,8,0:0:0:0:
128,96,35987,1,0,0:0:0:0:
128,96,36152,1,8,0:0:0:0:
128,96,36482,1,8,0:0:0:0:
128,96,36811,1,0,0:0:0:0:
128,96,36976,1,0,0:0:0:0:
128,96,37306,1,8,0:0:0:0:
128,96,37471,1,0,0:0:0:0:
128,96,37636,1,8,0:0:0:0:
128,96,37965,1,0,0:0:0:0:
128,96,38295,1,8,0:0:0:0:
128,96,38460,1,0,0:0:0:0:
128,96,38789,1,0,0:0:0:0:
128,96,38954,1,8,0:0:0:0:
128,96,39119,1,0,0:0:0:0:
128,96,39449,1,0,0:0:0:0:
128,96,39614,1,8,0:0:0:0:
128,96,39778,1,0,0:0:0:0:
128,96,39943,1,12,0:0:0:0:
128,96,40273,1,12,0:0:0:0:
128,96,40603,1,12,0:0:0:0:
128,96,40932,1,8,0:0:0:0:
128,96,41097,1,0,0:0:0:0:
128,96,41427,1,0,0:0:0:0:
128,96,41592,1,8,0:0:0:0:
128,96,41756,1,0,0:0:0:0:
128,96,41921,1,0,0:0:0:0:
128,96,42251,1,0,0:0:0:0:
128,96,42416,1,0,0:0:0:0:
128,96,42745,1,0,0:0:0:0:
128,96,42910,1,8,0:0:0:0:
128,96,43240,1,0,0:0:0:0:
128,96,43570,1,8,0:0:0:0:
128,96,43899,1,0,0:0:0:0:
128,96,44229,1,8,0:0:0:0:
128,96,44394,1,0,0:0:0:0:
128,96,44723,1,8,0:0:0:0:
128,96,44888,1,0,0:0:0:0:
128,96,45053,1,8,0:0:0:0:
128,96,45383,1,0,0:0:0:0:
128,96,45548,1,8,0:0:0:0:
128,96,45877,1,0,0:0:0:0:
128,96,46372,1,8,0:0:0:0:
128,96,46537,1,8,0:0:0:0:
128,96,46866,1,8,0:0:0:0:
128,96,47031,1,0,0:0:0:0:
128,96,47361,1,8,0:0:0:0:
128,96,48185,1,0,0:0:0:0:
128,96,48350,1,0,0:0:0:0:
128,96,48515,1,8,0:0:0:0:
128,96,49009,1,0,0:0:0:0:
128,96,49174,1,8,0:0:0:0:
128,96,49339,1,8,0:0:0:0:
128,96,49504,1,0,0:0:0:0:
128,96,49669,1,8,0:0:0:0:
128,96,49998,1,0,0:0:0:0:
128,96,50163,1,8,0:0:0:0:
128,96,50328,1,0,0:0:0:0:
128,96,50822,1,0,0:0:0:0:
128,96,50987,1,0,0:0:0:0:
128,96,51070,1,0,0:0:0:0:
128,96,51152,1,0,0:0:0:0:
128,96,51482,1,8,0:0:0:0:
128,96,51647,1,0,0:0:0:0:
128,96,51976,1,0,0:0:0:0:
128,96,52141,1,8,0:0:0:0:
128,96,52306,1,0,0:0:0:0:
128,96,52388,1,0,0:0:0:0:
128,96,52471,1,0,0:0:0:0:
128,96,52800,1,8,0:0:0:0:
128,96,52965,1,0,0:0:0:0:
128,96,53295,1,0,0:0:0:0:
128,96,53460,1,8,0:0:0:0:
128,96,53625,1,0,0:0:0:0:
128,96,54119,1,8,0:0:0:0:
128,96,54449,1,8,0:0:0:0:
128,96,54778,1,8,0:0:0:0:
128,96,55108,1,8,0:0:0:0:
128,96,55438,1,0,0:0:0:0:
128,96,55603,1,8,0:0:0:0:
128,96,55932,1,8,0:0:0:0:
128,96,56427,1,0,0:0:0:0:
128,96,57086,1,8,0:0:0:0:
128,96,57251,1,8,0:0:0:0:
128,96,57416,1,8,0:0:0:0:
128,96,57581,1,4,0:0:0:0:
128,96,57910,1,4,0:0:0:0:
128,96,58075,1,4,0:0:0:0:
128,96,58405,1,0,0:0:0:0:
128,96,58734,1,8,0:0:0:0:
128,96,59064,1,4,0:0:0:0:
128,96,59394,1,8,0:0:0:0:
128,96,59723,1,0,0:0:0:0:
128,96,59888,1,0,0:0:0:0:
128,96,60053,1,8,0:0:0:0:
128,96,60218,1,0,0:0:0:0:
128,96,60548,1,0,0:0:0:0:
128,96,60712,1,8,0:0:0:0:
128,96,61042,1,0,0:0:0:0:
128,96,61372,1,8,0:0:0:0:
128,96,61701,1,0,0:0:0:0:
128,96,62031,1,8,0:0:0:0:
128,96,62361,1,0,0:0:0:0:
128,96,62526,1,0,0:0:0:0:
128,96,62690,1,8,0:0:0:0:
128,96,62855,1,0,0:0:0:0:
128,96,63185,1,0,0:0:0:0:
128,96,63350,1,8,0:0:0:0:
128,96,63680,1,0,0:0:0:0:
128,96,64009,1,0,0:0:0:0:
128,96,64339,1,8,0:0:0:0:
128,96,64504,1,0,0:0:0:0:
128,96,64669,1,12,0:0:0:0:
128,96,64998,1,0,0:0:0:0:
128,96,65328,1,8,0:0:0:0:
128,96,65658,1,8,0:0:0:0:
128,96,65822,1,0,0:0:0:0:
128,96,65987,1,12,0:0:0:0:
128,96,66317,1,0,0:0:0:0:
128,96,66647,1,8,0:0:0:0:
128,96,66976,1,4,0:0:0:0:
128,96,67141,1,0,0:0:0:0:
128,96,67306,1,8,0:0:0:0:
128,96,67471,1,0,0:0:0:0:
128,96,67800,1,0,0:0:0:0:
128,96,67965,1,8,0:0:0:0:
128,96,68130,1,0,0:0:0:0:
128,96,68295,1,0,0:0:0:0:
128,96,68460,1,0,0:0:0:0:
128,96,68625,1,8,0:0:0:0:
128,96,68789,1,0,0:0:0:0:
128,96,69119,1,8,0:0:0:0:
128,96,69201,1,8,0:0:0:0:
128,96,69284,1,8,0:0:0:0:
128,96,69614,1,0,0:0:0:0:
128,96,69943,1,8,0:0:0:0:
128,96,70273,1,0,0:0:0:0:
128,96,70438,1,0,0:0:0:0:
128,96,70603,1,8,0:0:0:0:
128,96,70767,1,0,0:0:0:0:
128,96,71097,1,0,0:0:0:0:
128,96,71262,1,8,0:0:0:0:
128,96,71592,1,0,0:0:0:0:
128,96,71921,1,8,0:0:0:0:
128,96,72086,1,0,0:0:0:0:
128,96,72251,1,0,0:0:0:0:
128,96,72581,1,0,0:0:0:0:
128,96,72745,1,8,0:0:0:0:
128,96,73075,1,0,0:0:0:0:
128,96,73240,1,8,0:0:0:0:
128,96,73405,1,0,0:0:0:0:
128,96,73734,1,0,0:0:0:0:
128,96,73899,1,8,0:0:0:0:
128,96,74064,1,0,0:0:0:0:
128,96,74394,1,8,0:0:0:0:
128,96,74476,1,8,0:0:0:0:
128,96,74559,1,8,0:0:0:0:
128,96,74888,1,0,0:0:0:0:
128,96,75218,1,8,0:0:0:0:
128,96,75548,1,0,0:0:0:0:
128,96,75712,1,0,0:0:0:0:
128,96,75877,1,8,0:0:0:0:
128,96,76042,1,0,0:0:0:0:
128,96,76372,1,0,0:0:0:0:
128,96,76537,1,8,0:0:0:0:
128,96,76701,1,8,0:0:0:0:
128,96,77196,1,8,0:0:0:0:
128,96,77526,1,0,0:0:0:0:
128,96,77855,1,0,0:0:0:0:
128,96,78185,1,0,0:0:0:0:
128,96,78515,1,0,0:0:0:0:
128,96,78680,1,12,0:0:0:0:
128,96,79009,1,12,0:0:0:0:
128,96,79174,1,12,0:0:0:0:
128,96,79504,1,0,0:0:0:0:
128,96,80163,1,4,0:0:0:0:
128,96,80493,1,8,0:0:0:0:
128,96,80822,1,0,0:0:0:0:
128,96,81152,1,8,0:0:0:0:
128,96,81317,1,0,0:0:0:0:
128,96,81647,1,0,0:0:0:0:
128,96,81811,1,8,0:0:0:0:
128,96,81976,1,0,0:0:0:0:
128,96,82141,1,0,0:0:0:0:
128,96,82471,1,8,0:0:0:0:
128,96,82800,1,0,0:0:0:0:
128,96,83130,1,8,0:0:0:0:
128,96,83460,1,0,0:0:0:0:
128,96,83789,1,8,0:0:0:0:
128,96,83954,1,0,0:0:0:0:
128,96,84284,1,0,0:0:0:0:
128,96,84449,1,8,0:0:0:0:
128,96,84778,1,0,0:0:0:0:
128,96,85108,1,8,0:0:0:0:
128,96,85438,1,0,0:0:0:0:
128,96,85767,1,8,0:0:0:0:
128,96,86097,1,0,0:0:0:0:
128,96,86427,1,8,0:0:0:0:
128,96,86592,1,0,0:0:0:0:
128,96,86921,1,0,0:0:0:0:
128,96,87086,1,8,0:0:0:0:
128,96,87251,1,0,0:0:0:0:
128,96,87416,1,0,0:0:0:0:
128,96,87745,1,8,0:0:0:0:
128,96,88075,1,0,0:0:0:0:
128,96,88405,1,8,0:0:0:0:
128,96,88734,1,0,0:0:0:0:
128,96,89064,1,8,0:0:0:0:
128,96,89229,1,0,0:0:0:0:
128,96,89723,1,8,0:0:0:0:
128,96,90053,1,0,0:0:0:0:
128,96,90383,1,0,0:0:0:0:
128,96,90548,1,4,0:0:0:0:
128,96,91042,1,8,0:0:0:0:
128,96,91372,1,0,0:0:0:0:
128,96,91701,1,8,0:0:0:0:
128,96,92031,1,0,0:0:0:0:
128,96,92361,1,0,0:0:0:0:
128,96,92526,1,12,0:0:0:0:
128,96,92855,1,12,0:0:0:0:
128,96,93185,1,12,0:0:0:0:
128,96,93515,1,0,0:0:0:0:
128,96,93680,1,8,0:0:0:0:
128,96,93844,1,0,0:0:0:0:
128,96,94009,1,0,0:0:0:0:
128,96,94339,1,8,0:0:0:0:
128,96,94504,1,0,0:0:0:0:
128,96,94669,1,10,0:0:0:0:
128,96,95987,1,4,0:0:0:0:
128,96,97141,1,4,0:0:0:0:
128,96,97965,1,8,0:0:0:0:
128,96,98295,1,8,0:0:0:0:
128,96,98625,1,4,0:0:0:0:
128,96,99449,1,0,0:0:0:0:
128,96,99778,1,4,0:0:0:0:
128,96,100932,1,8,0:0:0:0:
128,96,101262,1,0,0:0:0:0:
128,96,101921,1,8,0:0:0:0:
128,96,102251,1,0,0:0:0:0:
128,96,102416,1,0,0:0:0:0:
128,96,102745,1,0,0:0:0:0:
128,96,102910,1,0,0:0:0:0:
128,96,103240,1,8,0:0:0:0:
128,96,103570,1,0,0:0:0:0:
128,96,103734,1,0,0:0:0:0:
128,96,103899,1,0,0:0:0:0:
128,96,104559,1,8,0:0:0:0:
128,96,104888,1,0,0:0:0:0:
128,96,105218,1,0,0:0:0:0:
128,96,106537,1,0,0:0:0:0:
128,96,107908,1,0,0:0:0:0:
128,96,108605,1,0,0:0:0:0:
256,192,109652,8,14,114327,0:0:0:0:
