osu file format v14

[General]
AudioFilename: Kagayai.mp3
AudioLeadIn: 0
PreviewTime: 58423
Countdown: 0
SampleSet: Soft
StackLeniency: 0.7
Mode: 3
LetterboxInBreaks: 0
SpecialStyle: 0
WidescreenStoryboard: 0

[Editor]
Bookmarks: 14248,19358,24797,30072,35347,40621,45896,51171,56445,59083,64358,69632,74907,80182,85456
DistanceSpacing: 1
BeatDivisor: 4
GridSize: 16
TimelineZoom: 1.9

[Metadata]
Title:Kimi no Kokoro wa Kagayaiteru kai?
TitleUnicode:君のこころは輝いてるかい?
Artist:Aqours
ArtistUnicode:Aqours
Creator:Xinchii
Version:Normal
Source:ラブライブ!サンシャイン!!
Tags:Love Live! School idol project Sunshine!! Takami Chika 高海千歌 inami anju 伊波 杏樹 Sakurauchi Riko 櫻内梨子 aida rikako 逢田梨香子 Matsuura Kanan 松浦果南 suwa nanaka 諏訪ななか Kurosawa Daia 黑澤ダイヤ Komiya Arisa 小宮有紗 Watanabe You 渡辺曜 Saito Shuka 斉藤朱夏 Tsushima Yoshiko 津島善子 Kobayashi Aika 小林愛香 Kunikida Hanamaru 国木田花丸 Takatsuki kanako 高槻かなこ Ohana Mari 小原鞠莉 Suzuki aina 鈴木愛奈 Kurosawa Ruby 黒澤ルビィ Furihata ai 降幡愛
BeatmapID:813208
BeatmapSetID:369284

[Difficulty]
HPDrainRate:7
CircleSize:4
OverallDifficulty:7
ApproachRate:5
SliderMultiplier:1.4
SliderTickRate:1

[Events]
//Background and Video events
0,0,"Ssunshine.jpg",0,0
//Break Periods
//Storyboard Layer 0 (Background)
//Storyboard Layer 1 (Fail)
//Storyboard Layer 2 (Pass)
//Storyboard Layer 3 (Foreground)
//Storyboard Sound Samples

[TimingPoints]
2380,329.67032967033,4,2,1,30,1,0
59083,-100,4,2,1,30,0,1
80182,-100,4,2,1,30,0,0

[HitObjects]
64,192,2380,128,2,3039:0:0:0:0:
448,192,3039,128,2,3698:0:0:0:0:
320,192,3698,1,4,0:0:0:0:
192,192,3698,1,2,0:0:0:0:
448,192,4358,1,0,0:0:0:0:
320,192,4852,1,2,0:0:0:0:
64,192,4852,1,4,0:0:0:0:
448,192,5511,1,0,0:0:0:0:
320,192,5676,1,0,0:0:0:0:
192,192,5841,1,0,0:0:0:0:
64,192,6006,1,0,0:0:0:0:
192,192,6336,1,2,0:0:0:0:
448,192,6336,1,4,0:0:0:0:
320,192,6665,1,0,0:0:0:0:
64,192,6830,1,0,0:0:0:0:
448,192,7160,1,0,0:0:0:0:
320,192,7489,1,4,0:0:0:0:
192,192,7489,1,2,0:0:0:0:
64,192,7819,1,0,0:0:0:0:
320,192,7984,1,0,0:0:0:0:
192,192,8149,1,0,0:0:0:0:
448,192,8478,1,0,0:0:0:0:
320,192,8643,1,0,0:0:0:0:
448,192,8973,1,4,0:0:0:0:
64,192,8973,1,2,0:0:0:0:
192,192,9303,1,0,0:0:0:0:
320,192,9632,1,0,0:0:0:0:
192,192,9962,1,0,0:0:0:0:
320,192,10127,1,2,0:0:0:0:
448,192,10127,1,4,0:0:0:0:
64,192,10456,1,0,0:0:0:0:
192,192,10621,1,0,0:0:0:0:
320,192,10786,1,0,0:0:0:0:
448,192,10786,1,2,0:0:0:0:
192,192,10951,1,0,0:0:0:0:
64,192,10951,1,0,0:0:0:0:
320,192,11281,1,0,0:0:0:0:
448,192,11445,1,0,0:0:0:0:
320,192,11610,1,4,0:0:0:0:
64,192,11610,1,2,0:0:0:0:
192,192,11940,1,0,0:0:0:0:
320,192,11940,1,8,0:0:0:0:
192,192,12270,1,0,0:0:0:0:
448,192,12270,1,0,0:0:0:0:
320,192,12434,1,0,0:0:0:0:
192,192,12599,1,8,0:0:0:0:
64,192,12599,1,0,0:0:0:0:
448,192,12764,1,4,0:0:0:0:
320,192,12764,1,2,0:0:0:0:
192,192,13094,1,2,0:0:0:0:
320,192,13094,1,4,0:0:0:0:
64,192,13259,1,4,0:0:0:0:
448,192,13259,128,2,13918:0:0:0:0:
192,192,13918,1,0,0:0:0:0:
64,192,13918,1,8,0:0:0:0:
448,192,14248,1,4,0:0:0:0:
64,192,14248,1,2,0:0:0:0:
192,192,14577,1,0,0:0:0:0:
448,192,14577,1,8,0:0:0:0:
320,192,14907,1,0,0:0:0:0:
64,192,15237,1,8,0:0:0:0:
192,192,15237,1,0,0:0:0:0:
448,192,15566,1,0,0:0:0:0:
320,192,15896,1,8,0:0:0:0:
64,192,15896,1,0,0:0:0:0:
192,192,16226,1,0,0:0:0:0:
320,192,16555,1,0,0:0:0:0:
448,192,16555,1,8,0:0:0:0:
192,192,16885,1,0,0:0:0:0:
64,192,16885,1,0,0:0:0:0:
192,192,17215,1,0,0:0:0:0:
448,192,17215,1,8,0:0:0:0:
64,192,17380,1,0,0:0:0:0:
448,192,17709,1,0,0:0:0:0:
320,192,17874,1,0,0:0:0:0:
64,192,17874,1,8,0:0:0:0:
192,192,18039,128,2,18698:0:0:0:0:
448,192,18039,1,4,0:0:0:0:
320,192,18369,1,0,0:0:0:0:
448,192,18533,1,8,0:0:0:0:
320,192,18698,1,0,0:0:0:0:
64,192,18698,1,2,0:0:0:0:
192,192,19028,1,2,0:0:0:0:
448,192,19028,1,0,0:0:0:0:
448,192,19358,1,4,0:0:0:0:
64,192,19358,1,2,0:0:0:0:
192,192,19852,1,0,0:0:0:0:
64,192,19852,1,8,0:0:0:0:
448,192,20182,128,2,20511:0:0:0:0:
192,192,20511,1,8,0:0:0:0:
64,192,20511,128,2,20841:0:0:0:0:
320,192,20841,128,2,21171:0:0:0:0:
192,192,21171,1,2,0:0:0:0:
448,192,21171,1,8,0:0:0:0:
320,192,21336,1,0,0:0:0:0:
64,192,21336,1,2,0:0:0:0:
192,192,21665,1,0,0:0:0:0:
320,192,21830,1,8,0:0:0:0:
448,192,21995,1,4,0:0:0:0:
192,192,21995,1,2,0:0:0:0:
320,192,22325,1,0,0:0:0:0:
192,192,22489,1,8,0:0:0:0:
64,192,22654,1,0,0:0:0:0:
192,192,22984,1,0,0:0:0:0:
320,192,23149,1,8,0:0:0:0:
64,192,23314,128,4,24138:0:0:0:0:
448,192,23314,128,2,24138:0:0:0:0:
192,192,24138,1,2,0:0:0:0:
320,192,24138,1,0,0:0:0:0:
64,192,24303,1,2,0:0:0:0:
448,192,24303,1,0,0:0:0:0:
192,192,24467,1,2,0:0:0:0:
320,192,24467,1,8,0:0:0:0:
64,192,24797,1,2,0:0:0:0:
192,192,24797,1,0,0:0:0:0:
320,192,25127,1,0,0:0:0:0:
448,192,25127,1,8,0:0:0:0:
192,192,25456,1,0,0:0:0:0:
320,192,25621,1,0,0:0:0:0:
192,192,25786,1,0,0:0:0:0:
64,192,25786,1,8,0:0:0:0:
448,192,25951,128,2,26281:0:0:0:0:
192,192,26281,1,0,0:0:0:0:
320,192,26445,1,0,0:0:0:0:
64,192,26445,1,8,0:0:0:0:
192,192,26775,1,0,0:0:0:0:
448,192,26775,1,0,0:0:0:0:
320,192,27105,1,8,0:0:0:0:
192,192,27105,1,0,0:0:0:0:
448,192,27434,1,0,0:0:0:0:
64,192,27434,1,0,0:0:0:0:
320,192,27764,1,0,0:0:0:0:
64,192,27764,1,8,0:0:0:0:
448,192,28094,1,0,0:0:0:0:
320,192,28259,1,0,0:0:0:0:
192,192,28423,1,0,0:0:0:0:
64,192,28423,1,8,0:0:0:0:
448,192,28588,128,2,28918:0:0:0:0:
320,192,28918,1,0,0:0:0:0:
192,192,29083,1,0,0:0:0:0:
64,192,29083,1,8,0:0:0:0:
320,192,29248,1,0,0:0:0:0:
448,192,29412,1,2,0:0:0:0:
64,192,29412,1,0,0:0:0:0:
320,192,29742,1,8,0:0:0:0:
192,192,29742,1,2,0:0:0:0:
448,192,30072,1,2,0:0:0:0:
64,192,30072,1,4,0:0:0:0:
64,192,30401,1,8,0:0:0:0:
192,192,30401,1,0,0:0:0:0:
320,192,30731,1,2,0:0:0:0:
192,192,30896,1,2,0:0:0:0:
320,192,31061,1,0,0:0:0:0:
448,192,31061,1,8,0:0:0:0:
64,192,31226,128,2,31555:0:0:0:0:
320,192,31555,1,2,0:0:0:0:
192,192,31720,1,8,0:0:0:0:
448,192,31720,1,2,0:0:0:0:
320,192,32050,1,0,0:0:0:0:
64,192,32050,1,2,0:0:0:0:
192,192,32380,1,2,0:0:0:0:
320,192,32380,1,8,0:0:0:0:
448,192,32709,1,4,0:0:0:0:
64,192,32709,1,2,0:0:0:0:
192,192,33039,1,0,0:0:0:0:
448,192,33039,1,8,0:0:0:0:
320,192,33204,1,0,0:0:0:0:
192,192,33369,1,0,0:0:0:0:
64,192,33369,1,0,0:0:0:0:
192,192,33698,1,0,0:0:0:0:
448,192,33698,1,8,0:0:0:0:
64,192,33863,128,2,34193:0:0:0:0:
320,192,33863,1,4,0:0:0:0:
192,192,34193,1,0,0:0:0:0:
320,192,34358,1,0,0:0:0:0:
448,192,34358,1,8,0:0:0:0:
64,192,34522,1,0,0:0:0:0:
192,192,34687,1,2,0:0:0:0:
448,192,34687,1,2,0:0:0:0:
448,192,35017,1,2,0:0:0:0:
64,192,35017,1,8,0:0:0:0:
192,192,35347,1,2,0:0:0:0:
320,192,35347,1,4,0:0:0:0:
64,192,35676,1,8,0:0:0:0:
192,192,35676,1,0,0:0:0:0:
320,192,36006,1,0,0:0:0:0:
192,192,36171,1,0,0:0:0:0:
320,192,36336,1,0,0:0:0:0:
448,192,36336,1,8,0:0:0:0:
64,192,36500,128,2,36830:0:0:0:0:
320,192,36830,1,0,0:0:0:0:
448,192,36995,1,8,0:0:0:0:
192,192,36995,1,0,0:0:0:0:
64,192,37325,1,0,0:0:0:0:
320,192,37325,1,0,0:0:0:0:
192,192,37654,1,8,0:0:0:0:
320,192,37654,1,0,0:0:0:0:
448,192,37984,1,0,0:0:0:0:
64,192,37984,1,0,0:0:0:0:
448,192,38314,1,8,0:0:0:0:
192,192,38314,1,0,0:0:0:0:
64,192,38643,1,0,0:0:0:0:
192,192,38808,1,0,0:0:0:0:
320,192,38973,1,0,0:0:0:0:
448,192,38973,1,8,0:0:0:0:
64,192,39138,128,2,39467:0:0:0:0:
192,192,39467,1,0,0:0:0:0:
320,192,39632,1,0,0:0:0:0:
448,192,39632,1,8,0:0:0:0:
192,192,39962,1,0,0:0:0:0:
320,192,39962,1,2,0:0:0:0:
448,192,40292,1,2,0:0:0:0:
64,192,40292,1,8,0:0:0:0:
192,192,40621,1,2,0:0:0:0:
320,192,40621,1,4,0:0:0:0:
320,192,40951,1,0,0:0:0:0:
448,192,40951,1,8,0:0:0:0:
192,192,41281,1,0,0:0:0:0:
320,192,41445,1,0,0:0:0:0:
192,192,41610,1,0,0:0:0:0:
64,192,41610,1,8,0:0:0:0:
320,192,41940,1,0,0:0:0:0:
192,192,41940,1,0,0:0:0:0:
448,192,42270,1,8,0:0:0:0:
64,192,42270,1,0,0:0:0:0:
192,192,42434,1,0,0:0:0:0:
320,192,42599,1,0,0:0:0:0:
448,192,42599,1,0,0:0:0:0:
192,192,42929,1,0,0:0:0:0:
64,192,42929,1,8,0:0:0:0:
192,192,43259,1,2,0:0:0:0:
448,192,43259,1,4,0:0:0:0:
320,192,43588,1,0,0:0:0:0:
64,192,43588,1,8,0:0:0:0:
192,192,43753,1,0,0:0:0:0:
320,192,43918,1,0,0:0:0:0:
448,192,43918,1,0,0:0:0:0:
64,192,44083,1,0,0:0:0:0:
192,192,44248,1,0,0:0:0:0:
448,192,44248,1,8,0:0:0:0:
64,192,44412,128,2,44742:0:0:0:0:
320,192,44412,1,4,0:0:0:0:
192,192,44742,1,0,0:0:0:0:
320,192,44907,1,8,0:0:0:0:
448,192,45072,128,2,45896:0:0:0:0:
192,192,45072,1,4,0:0:0:0:
64,192,45896,1,0,0:0:0:0:
192,192,46390,1,0,0:0:0:0:
320,192,46555,1,0,0:0:0:0:
448,192,46555,1,8,0:0:0:0:
320,192,46885,1,8,0:0:0:0:
192,192,47050,1,0,0:0:0:0:
64,192,47050,1,0,0:0:0:0:
192,192,47380,1,0,0:0:0:0:
448,192,47380,1,0,0:0:0:0:
320,192,47544,1,8,0:0:0:0:
448,192,47709,1,0,0:0:0:0:
320,192,47874,1,8,0:0:0:0:
192,192,47874,1,2,0:0:0:0:
64,192,48039,1,0,0:0:0:0:
320,192,48204,1,8,0:0:0:0:
192,192,48369,1,0,0:0:0:0:
64,192,48533,1,2,0:0:0:0:
320,192,48533,1,0,0:0:0:0:
448,192,48863,1,8,0:0:0:0:
64,192,49028,1,0,0:0:0:0:
192,192,49028,1,0,0:0:0:0:
320,192,49193,1,0,0:0:0:0:
448,192,49193,1,0,0:0:0:0:
192,192,49358,1,0,0:0:0:0:
64,192,49522,1,0,0:0:0:0:
192,192,49687,1,2,0:0:0:0:
448,192,49687,1,4,0:0:0:0:
320,192,50017,1,0,0:0:0:0:
192,192,50182,1,8,0:0:0:0:
320,192,50347,1,4,0:0:0:0:
64,192,50347,128,2,50841:0:0:0:0:
192,192,50676,1,0,0:0:0:0:
320,192,50841,1,8,0:0:0:0:
448,192,51006,1,0,0:0:0:0:
320,192,51171,1,4,0:0:0:0:
192,192,51171,1,2,0:0:0:0:
448,192,51500,1,8,0:0:0:0:
192,192,51500,1,0,0:0:0:0:
320,192,51830,1,0,0:0:0:0:
192,192,51995,1,0,0:0:0:0:
448,192,52160,1,8,0:0:0:0:
320,192,52160,1,0,0:0:0:0:
320,192,52489,1,0,0:0:0:0:
192,192,52489,1,0,0:0:0:0:
64,192,52819,1,8,0:0:0:0:
320,192,52819,1,0,0:0:0:0:
192,192,53149,1,0,0:0:0:0:
320,192,53314,1,0,0:0:0:0:
192,192,53478,1,0,0:0:0:0:
64,192,53478,1,8,0:0:0:0:
448,192,53643,1,4,0:0:0:0:
320,192,53643,1,2,0:0:0:0:
192,192,54138,1,2,0:0:0:0:
192,192,54467,1,2,0:0:0:0:
192,192,54797,1,2,0:0:0:0:
192,192,55127,1,2,0:0:0:0:
320,192,55456,1,2,0:0:0:0:
192,192,55621,1,2,0:0:0:0:
448,192,55951,1,2,0:0:0:0:
320,192,56445,1,4,0:0:0:0:
64,192,56445,1,2,0:0:0:0:
320,192,56775,1,0,0:0:0:0:
448,192,56775,1,8,0:0:0:0:
192,192,57105,1,2,0:0:0:0:
64,192,57105,1,0,0:0:0:0:
320,192,57270,1,2,0:0:0:0:
448,192,57434,1,2,0:0:0:0:
64,192,57434,1,8,0:0:0:0:
192,192,57599,1,4,0:0:0:0:
320,192,57599,1,2,0:0:0:0:
192,192,57929,1,4,0:0:0:0:
320,192,57929,1,2,0:0:0:0:
64,192,58094,1,4,0:0:0:0:
448,192,58094,128,2,58588:0:0:0:0:
320,192,58588,1,0,0:0:0:0:
192,192,58753,1,0,0:0:0:0:
64,192,58753,1,8,0:0:0:0:
192,192,59083,1,4,0:0:0:0:
448,192,59083,1,2,0:0:0:0:
320,192,59412,1,8,0:0:0:0:
192,192,59412,1,0,0:0:0:0:
320,192,59742,1,0,0:0:0:0:
64,192,59742,1,2,0:0:0:0:
448,192,59907,1,0,0:0:0:0:
320,192,60072,1,8,0:0:0:0:
192,192,60237,1,0,0:0:0:0:
64,192,60237,1,0,0:0:0:0:
448,192,60566,1,0,0:0:0:0:
320,192,60731,1,8,0:0:0:0:
192,192,60731,1,0,0:0:0:0:
320,192,61061,1,2,0:0:0:0:
64,192,61061,1,0,0:0:0:0:
320,192,61390,1,8,0:0:0:0:
192,192,61390,1,0,0:0:0:0:
192,192,61720,1,0,0:0:0:0:
448,192,61720,1,2,0:0:0:0:
192,192,62050,1,0,0:0:0:0:
64,192,62050,1,8,0:0:0:0:
320,192,62380,1,0,0:0:0:0:
448,192,62380,1,2,0:0:0:0:
192,192,62544,1,0,0:0:0:0:
64,192,62709,1,8,0:0:0:0:
192,192,62874,1,4,0:0:0:0:
448,192,62874,1,2,0:0:0:0:
64,192,63204,1,0,0:0:0:0:
192,192,63369,1,0,0:0:0:0:
320,192,63369,1,8,0:0:0:0:
320,192,63698,1,0,0:0:0:0:
448,192,63698,1,2,0:0:0:0:
320,192,64028,1,2,0:0:0:0:
192,192,64028,1,8,0:0:0:0:
192,192,64358,1,2,0:0:0:0:
64,192,64358,1,4,0:0:0:0:
192,192,64687,1,2,0:0:0:0:
448,192,64687,1,8,0:0:0:0:
192,192,65017,1,0,0:0:0:0:
64,192,65017,1,2,0:0:0:0:
448,192,65182,1,0,0:0:0:0:
192,192,65347,1,0,0:0:0:0:
320,192,65347,1,8,0:0:0:0:
320,192,65676,1,0,0:0:0:0:
448,192,65676,1,2,0:0:0:0:
320,192,66006,1,2,0:0:0:0:
64,192,66006,1,8,0:0:0:0:
192,192,66336,1,2,0:0:0:0:
320,192,66500,1,0,0:0:0:0:
192,192,66665,1,0,0:0:0:0:
64,192,66665,1,8,0:0:0:0:
192,192,66995,1,4,0:0:0:0:
448,192,66995,1,2,0:0:0:0:
64,192,67325,1,8,0:0:0:0:
320,192,67325,1,0,0:0:0:0:
320,192,67654,1,0,0:0:0:0:
448,192,67654,1,2,0:0:0:0:
64,192,67819,1,0,0:0:0:0:
320,192,67984,1,0,0:0:0:0:
192,192,67984,1,8,0:0:0:0:
448,192,68149,1,2,0:0:0:0:
64,192,68149,1,4,0:0:0:0:
192,192,68478,1,0,0:0:0:0:
320,192,68643,1,0,0:0:0:0:
448,192,68643,1,8,0:0:0:0:
192,192,68973,1,0,0:0:0:0:
64,192,68973,1,2,0:0:0:0:
320,192,69138,1,0,0:0:0:0:
192,192,69303,1,8,0:0:0:0:
320,192,69632,1,4,0:0:0:0:
64,192,69632,1,2,0:0:0:0:
320,192,69962,1,8,0:0:0:0:
192,192,69962,1,0,0:0:0:0:
192,192,70292,1,0,0:0:0:0:
448,192,70292,1,2,0:0:0:0:
64,192,70456,1,0,0:0:0:0:
192,192,70621,1,0,0:0:0:0:
320,192,70786,1,0,0:0:0:0:
448,192,70786,1,8,0:0:0:0:
320,192,71116,1,0,0:0:0:0:
192,192,71281,1,0,0:0:0:0:
64,192,71281,1,8,0:0:0:0:
448,192,71610,1,2,0:0:0:0:
192,192,71610,1,0,0:0:0:0:
320,192,71940,1,0,0:0:0:0:
192,192,71940,1,8,0:0:0:0:
64,192,72270,1,2,0:0:0:0:
320,192,72270,1,0,0:0:0:0:
320,192,72599,1,0,0:0:0:0:
448,192,72599,1,8,0:0:0:0:
192,192,72929,1,0,0:0:0:0:
64,192,72929,1,2,0:0:0:0:
320,192,73094,1,0,0:0:0:0:
448,192,73259,1,8,0:0:0:0:
320,192,73423,1,0,0:0:0:0:
64,192,73423,1,2,0:0:0:0:
192,192,73753,1,0,0:0:0:0:
320,192,73918,1,8,0:0:0:0:
448,192,74083,1,2,0:0:0:0:
192,192,74083,1,0,0:0:0:0:
64,192,74412,1,0,0:0:0:0:
320,192,74577,1,0,0:0:0:0:
448,192,74577,1,8,0:0:0:0:
192,192,74742,1,0,0:0:0:0:
320,192,74907,1,4,0:0:0:0:
64,192,74907,1,2,0:0:0:0:
320,192,75237,1,0,0:0:0:0:
448,192,75237,1,8,0:0:0:0:
64,192,75566,1,2,0:0:0:0:
192,192,75566,1,0,0:0:0:0:
320,192,75731,1,0,0:0:0:0:
448,192,75896,1,8,0:0:0:0:
320,192,76061,1,4,0:0:0:0:
64,192,76061,1,2,0:0:0:0:
192,192,76390,1,0,0:0:0:0:
320,192,76555,1,8,0:0:0:0:
192,192,76720,1,2,0:0:0:0:
448,192,76720,1,4,0:0:0:0:
64,192,77050,1,0,0:0:0:0:
320,192,77215,1,0,0:0:0:0:
448,192,77215,1,8,0:0:0:0:
192,192,77380,1,0,0:0:0:0:
64,192,77544,1,2,0:0:0:0:
448,192,77544,1,0,0:0:0:0:
320,192,77709,1,0,0:0:0:0:
192,192,77874,1,8,0:0:0:0:
320,192,78039,1,0,0:0:0:0:
192,192,78204,1,2,0:0:0:0:
64,192,78369,1,0,0:0:0:0:
192,192,78533,1,8,0:0:0:0:
320,192,78698,1,4,0:0:0:0:
448,192,78698,1,2,0:0:0:0:
192,192,79028,1,4,0:0:0:0:
64,192,79028,1,2,0:0:0:0:
320,192,79193,1,2,0:0:0:0:
448,192,79193,1,4,0:0:0:0:
64,192,79522,1,0,0:0:0:0:
448,192,79687,1,0,0:0:0:0:
320,192,79852,1,8,0:0:0:0:
192,192,79852,1,0,0:0:0:0:
448,192,80182,1,4,0:0:0:0:
64,192,80182,1,2,0:0:0:0:
192,192,80511,1,0,0:0:0:0:
448,192,80511,1,8,0:0:0:0:
320,192,80841,1,2,0:0:0:0:
192,192,81006,1,0,0:0:0:0:
320,192,81171,1,0,0:0:0:0:
448,192,81171,1,8,0:0:0:0:
192,192,81336,1,0,0:0:0:0:
64,192,81336,1,0,0:0:0:0:
448,192,81665,1,0,0:0:0:0:
320,192,81830,1,0,0:0:0:0:
64,192,81830,1,8,0:0:0:0:
192,192,82160,1,2,0:0:0:0:
320,192,82325,1,0,0:0:0:0:
192,192,82489,1,0,0:0:0:0:
64,192,82489,1,8,0:0:0:0:
192,192,82819,1,0,0:0:0:0:
448,192,82819,1,2,0:0:0:0:
320,192,83149,1,0,0:0:0:0:
64,192,83149,1,8,0:0:0:0:
192,192,83478,1,2,0:0:0:0:
320,192,83643,1,0,0:0:0:0:
192,192,83808,1,0,0:0:0:0:
64,192,83808,1,8,0:0:0:0:
320,192,83973,1,2,0:0:0:0:
448,192,83973,1,4,0:0:0:0:
64,192,84303,1,0,0:0:0:0:
448,192,84467,1,8,0:0:0:0:
320,192,84467,1,0,0:0:0:0:
192,192,84632,1,0,0:0:0:0:
64,192,84797,1,2,0:0:0:0:
320,192,84797,1,0,0:0:0:0:
448,192,85127,1,8,0:0:0:0:
192,192,85127,1,0,0:0:0:0:
64,192,85456,1,2,0:0:0:0:
448,192,85456,1,4,0:0:0:0:
320,192,85786,1,0,0:0:0:0:
64,192,85786,1,8,0:0:0:0:
192,192,86116,1,2,0:0:0:0:
320,192,86281,1,0,0:0:0:0:
192,192,86445,1,0,0:0:0:0:
64,192,86445,1,8,0:0:0:0:
320,192,86610,1,0,0:0:0:0:
448,192,86610,1,0,0:0:0:0:
64,192,86940,1,0,0:0:0:0:
192,192,87105,1,0,0:0:0:0:
448,192,87105,1,8,0:0:0:0:
320,192,87434,1,2,0:0:0:0:
192,192,87599,1,0,0:0:0:0:
320,192,87764,1,0,0:0:0:0:
448,192,87764,1,8,0:0:0:0:
320,192,88094,1,4,0:0:0:0:
64,192,88094,1,2,0:0:0:0:
192,192,88423,1,0,0:0:0:0:
448,192,88423,1,8,0:0:0:0:
320,192,88753,1,2,0:0:0:0:
192,192,88918,1,0,0:0:0:0:
320,192,89083,1,0,0:0:0:0:
448,192,89083,1,8,0:0:0:0:
192,192,89248,1,4,0:0:0:0:
64,192,89248,1,2,0:0:0:0:
448,192,89577,1,0,0:0:0:0:
192,192,89742,1,0,0:0:0:0:
64,192,89742,1,8,0:0:0:0:
320,192,89907,1,0,0:0:0:0:
192,192,90072,1,0,0:0:0:0:
448,192,90072,1,2,0:0:0:0:
320,192,90401,1,8,0:0:0:0:
192,192,90401,1,0,0:0:0:0:
64,192,90566,128,4,93204:0:0:0:0:
448,192,90566,128,2,93204:0:0:0:0:
320,192,93204,1,0,0:0:0:0:
192,192,93369,128,2,94028:0:0:0:0:
320,192,94028,1,0,0:0:0:0:
64,192,94358,1,0,0:0:0:0:
448,192,94522,128,2,94852:0:0:0:0:
320,192,94852,1,0,0:0:0:0:
192,192,95017,1,0,0:0:0:0:
64,192,95017,1,8,0:0:0:0:
320,192,95347,1,0,0:0:0:0:
448,192,95347,1,2,0:0:0:0:
192,192,95511,1,0,0:0:0:0:
64,192,95511,1,2,0:0:0:0:
320,192,95676,1,2,0:0:0:0:
448,192,95676,1,8,0:0:0:0:
448,192,96006,1,4,0:0:0:0:
64,192,96006,1,2,0:0:0:0:
